Subcategories

VA - Old School Electrology: Volume One (2011) 4CD Box Set [Re-Up]

Posted By: Designol
VA - Old School Electrology: Volume One (2011) 4CD Box Set [Re-Up]

VA - Old School Electrology: Volume One (2011) 4CD Box Set
EAC | FLAC | Image (Cue&Log) ~ 2.11 Gb | Mp3 (CBR320) ~ 732 Mb | Scans ~ 522 Mb
EBM, Electro, Industrial | Label: Electro Aggression Records | # EAR 001 | 05:19:14

The boxset features 81 tracks including 71 all exclusive tracks, 4 revamped demo tunes never before released on CD, and 6 exclusive remixes by old school scene acts. Limited to just 800 copies the "Old School Electrology" set comes in a luxurious tall-pak digipak with a 36-page booklet.

To Treat this like a regular release would be akin to treating the renaissance as an awkward formality. Old School Electrology has been on the lips of anyone who frequents the EBM underground since its early conception, over half a decade ago. Concieved by Electro Aggression Records' very own Nader Moumneh, OSE is the once-in-a-lifetime fulfillment of a lifetimes work and aspiration.

This 'beast box' catalogues almost 80 different bands and styles, spanning the underground of Old-School EBM, 'Anhalt' Ebm, and Dark Electro, and for even the more potent of Old-School fans, there is at least three discs worth of new material and artists to sink your teeth into.

Naturally, OSE is limited to 800 copies, and already they're surfacing in every corner of the earth. This is a box set; the like of which I've never before seen, and the information, background and research put into the packaging and booklet is almost worth the modest asking price in itself. Marketed as 'a distinguished jewelry box combining the old school lure of natural, fancy colored rough diamonds', the release is themed around an army of skinhead miners searching for 'diamonds', each of which is mined and released on this opus. In classic EBM style, the box is littered with motivational quotes - there is also a heartfelt testament by Nader, a HUGE booklet recalling in great depth the history of EBM, Dark Electro, and Industrial music (this actually had a plethora of information that I didn't know), and a credit sheet introducing EVERY band on here in detail, with information on who, why, how, and where - quite simply a dream within a dream of anyone even slightly sick of modern day EBM.

Disc 1 on this beast is entitled 'Old School EBM'. Swedish Agrezzior are one of my absolute favourite old school bands, consisting of members of Dupont, Autodafeh, and Menticide. Their contribution; like most of their material, is the perfect blend of ebm, punk, and oi!, without the need for troublesome for fascism or politics. Astma (Sweden) are one of my favourite bands, and they finally break through to a wider audience with the classic 'Honor and Glory. Belgian duo 'Darkmen' are another act known to me, yet the ability to produce exclusive tracks that don't feel rushed, and could fit onto a best of compliation for every act I am hearing on here is still something mysterious and quite simply; chilling.

Some acts on here never grew on me previously, but the tracks unearthed here have made me reconsider that and add them to my shopping list, 'PP?' being the main re-discovery. More famous acts, such as Serpents, Lescure 13, K-Bereit, and the infamous tongue-in-cheek project 'Ugh…' give the extra stamina to the disc, and the acts that are new to me ('Ondska, Pact of Warsaw, T.A.N.K., and Oldschool Union) are among the greatest artists on the entire compliation.

As a stand-alone Old School EBM compilation, this disc alone would be a killer, but this is disc 1 of 5. What nuggets can Disc 2, 'Authentic Dark Electro', hold?

… let it be known that on reading this tracklist, I took a rather deep breath. Amnistia is an act that most of you will know, Morgue Mechanism (also known as Morgue) are a cult act that I believe to be from Brazil, Pro Patria are just timeless, and the rest I have at least mostly some degree of recognition towards.

What better way to open this disc, then with Slovakian act 'Terminal State' - their contribution is text book Dark Electro, but they are also living proof that EBM has spread all over the planet. IC 434 remains its usual, energetic self, and as someone who knew this act under its previous guise 'Tales of Doom', it's quite a delight to see that Geert is being recognised as much in 2011 as he was in 1990. This is exactly what Nader has been trying to get us to realise since 2006 - there is life behind the stompy, verbally pathetic drone that most of us are familiar with, due to the monopoly of club DJs that are all cut from the 1990s cord. Ebm started with this style and essence, and why shouldn't bands emulate it? Metal bands still emulate Black Sabbath all the time, and they're not considered copycats. Therefore, we should not consider any new band a clone of Suicide Commando or Front 242 a clone, either.

French act 'Brain Leisure' is one of the very few on here that I haven't heard before, and unsurprisingly at this point, it's a goer. Amnistia and Morgue Mechanism already have an established and dedicated fan troupe, and this will serve only to boost the disciples further. The four following acts (Necrotek through to Nordschlacht, Second Disease, and Severe Illusion) further their own interpretations of Dark Electro to compliment this boxset like a fine Gravy, and after the unstoppable war machine that is Pro Patria, we have the first truly unknown act on here : Red Test, a.k.a Chris Lewis. "Holy War" is actually one of the easiest tracks on here to get into, and it's potentially club-shattering. By that, I mean that I urge you all to watch this space. This artist is going to be huge. Object are on the verge of a breakthrough, and a double CD is in the way via E.A.R - if this track
doesn't seduce you into exploring the January Sales at COP International, then i'm not sure what will. Ascii spelling may deter the puritans among you, but tEaR!doWn are an act being heralded by many as the best on OSE.

This German quartet combines the best of Dark Electro and brooding EBM, and if anyone on here is going to be propelled into the Ionosphere, these guys will be a good wager at your local betting shop.

From the remaining acts on disc 2, Morticians remain the most unique with an element of Darkwave and Neo-Goth. God Experiment are severely under-rated and nothing short of brilliant, and Seven Trees, Trial, and PF7 can be recommended to most of the readers of this review without hesitation.

Discs 3 and 4 combine both Old-School EBM and Authentic Dark Electro, each being filtered to display similar acts in a 38 track melting pot of liquid gold.

I consider Disc 3 to be slightly above the others, but that is only due to personal bias. 'Breathe' (previously Placebo Effect) are a favourite of mine, and Splatter Squall are an act years ahead of their time. Who could possibly fail to mention 'One Eye Wanders'? This solo project by Nick Copernicus has been hailed by everyone who owns one of the 50 copies as being the next revolution, and it comes close, with Acretongue, to making the most apparent and advanced soundscape in recent memory. It's simply not possible to mention every act on here, but none of them should be overlooked, ignored, or criticised. Especially on disc 4, where I will talk about a few of my most admired acts : 'The Blister Exists' is a top quality Anhalt EBM act, previously known as 'Judge:Dred'. Venetian Blind, courtesy of Norman Klaus, is more of the ambient/IDM persuasion, but is gentle and poignant, Page 12 are dark and foreboding, and Bodyfarm are essential.

Most of you will recognise amGod, Stin Scatzor,and of course yelworC, but the point of OSE is not to highlight the established acts, or those who are already in little need of promotion. The aim of this is to re-introduce a scene that has been lost to modern marketing, and to prove that there is an alliance of artists all over the world that are equally as wonderful as their peers.
It's like Nader is drawing a family tree and branching each act to their ancestors. He's effectively re-writing the way we view EBM, and the 6 years of production and influence have paid off. The final 'disc' here is an accumulation of the 5 bonus tracks available by using your download code located in the box set, and theres no rock left unearthed when compiling this.

Beyond music. Almost beyond words, and beyond any expectations I could have had. This has to be on all of your Christmas lists.

Mission accomplished. (9/10)

Review by Nick Quarm, BrutalResonance.com, Nov 19 2011

VA - Old School Electrology: Volume One (2011) 4CD Box Set [Re-Up]



Tracklist CD1 - Old School EBM:

01. Agrezzior - Statue Of Liberty [3:53]
02. Astma - Honor And Glory [3:01]
03. Darkmen - Take It Back [3:35]
04. DRP - Electro Pussy [4:36]
05. EkoBrottsMyndigheten - Get Your Fists Up [3:41]
06. Ionic Vision - Hate [3:58]
07. K-Bereit - Blackened [4:01]
08. Lescure 13 - Destruktor [3:51]
09. MachineSoldier - Body Anonymous [4:28]
10. Oldschool Union - Perkele [3:16]
11. Ondska - Storm [4:04]
12. Orange Sector - Noise (Head Mix) [4:15]
13. Pact Of Warsaw - Domination [4:10]
14. PP? - Repression (Dental Exilanation Remix) [5:48]
15. Presto Fervant - Bullseye [3:26]
16. Serpents - Komm Näher [4:31]
17. Spark! - Modern Slaves [3:35]
18. Synaptic Defect - Electrofreak [3:50]
19. T.A.N.K. - Game Of Men [4:21]
20. Ugh…! - Rage Against Trancewhackedggoregalore [3:36]


Exact Audio Copy V1.0 beta 3 from 29. August 2011

EAC extraction logfile from 8. June 2012, 22:21

Various / Old School Electrology Volume One (CD1)

Used drive : PLEXTOR BDDVDR PX-B320SA Adapter: 3 ID: 1

Read mode : Secure
Utilize accurate stream : Yes
Defeat audio cache : Yes
Make use of C2 pointers : No

Read offset correction : 6
Overread into Lead-In and Lead-Out : No
Fill up missing offset samples with silence : Yes
Delete leading and trailing silent blocks : No
Null samples used in CRC calculations : Yes
Used interface : Installed external ASPI interface

Used output format : User Defined Encoder
Selected bitrate : 128 kBit/s
Quality : High
Add ID3 tag : No
Command line compressor : C:\Program Files (x86)\FLAC\flac.exe
Additional command line options : -V -8 -T "Date=%year%" -T "Genre=%genre%" %source%


TOC of the extracted CD

Track | Start | Length | Start sector | End sector
––––––––––––––––––––––––––––-
1 | 0:00.00 | 3:53.09 | 0 | 17483
2 | 3:53.09 | 3:01.00 | 17484 | 31058
3 | 6:54.09 | 3:34.66 | 31059 | 47174
4 | 10:29.00 | 4:35.32 | 47175 | 67831
5 | 15:04.32 | 3:41.05 | 67832 | 84411
6 | 18:45.37 | 3:57.58 | 84412 | 102244
7 | 22:43.20 | 4:00.60 | 102245 | 120304
8 | 26:44.05 | 3:50.44 | 120305 | 137598
9 | 30:34.49 | 4:27.46 | 137599 | 157669
10 | 35:02.20 | 3:16.21 | 157670 | 172390
11 | 38:18.41 | 4:03.36 | 172391 | 190651
12 | 42:22.02 | 4:14.57 | 190652 | 209758
13 | 46:36.59 | 4:09.69 | 209759 | 228502
14 | 50:46.53 | 5:47.59 | 228503 | 254586
15 | 56:34.37 | 3:25.39 | 254587 | 270000
16 | 60:00.01 | 4:31.09 | 270001 | 290334
17 | 64:31.10 | 3:35.03 | 290335 | 306462
18 | 68:06.13 | 3:49.70 | 306463 | 323707
19 | 71:56.08 | 4:20.66 | 323708 | 343273
20 | 76:16.74 | 3:36.05 | 343274 | 359478


Range status and errors

Selected range

Filename D:\Various - Old School Electrology Volume One (2011)(EAR 001, Ltd.)\(cd1) Old School EBM\Old School Electrology Volume One (CD1).wav

Peak level 99.9 %
Extraction speed 8.8 X
Range quality 100.0 %
Test CRC 7D0FC835
Copy CRC 7D0FC835
Copy OK

No errors occurred


AccurateRip summary

Track 1 accurately ripped (confidence 1) [E4A34E53] (AR v2)
Track 2 accurately ripped (confidence 1) [A632484D] (AR v2)
Track 3 accurately ripped (confidence 1) [5FC0B978] (AR v2)
Track 4 accurately ripped (confidence 1) [D0D661F3] (AR v2)
Track 5 accurately ripped (confidence 1) [C1DED36D] (AR v2)
Track 6 accurately ripped (confidence 1) [15CD209E] (AR v2)
Track 7 accurately ripped (confidence 1) [07D866DB] (AR v2)
Track 8 accurately ripped (confidence 1) [A54B61BC] (AR v2)
Track 9 accurately ripped (confidence 1) [3898B9F0] (AR v2)
Track 10 accurately ripped (confidence 1) [21B0E9E5] (AR v2)
Track 11 accurately ripped (confidence 1) [182CC168] (AR v2)
Track 12 accurately ripped (confidence 1) [0867A808] (AR v2)
Track 13 accurately ripped (confidence 1) [01F3081F] (AR v2)
Track 14 accurately ripped (confidence 1) [8E1FDF95] (AR v2)
Track 15 accurately ripped (confidence 1) [C309473B] (AR v2)
Track 16 accurately ripped (confidence 1) [1E6F07F5] (AR v2)
Track 17 accurately ripped (confidence 1) [085C6FD9] (AR v2)
Track 18 accurately ripped (confidence 1) [30DDDCCF] (AR v2)
Track 19 accurately ripped (confidence 1) [DAD71F10] (AR v2)
Track 20 accurately ripped (confidence 1) [FA5DEE4A] (AR v2)

All tracks accurately ripped

End of status report

==== Log checksum 5F3F359536FBBF21E71EEF089A3E0A8B9D271B9AD561125C94B7701F528CC770 ====

foobar2000 1.2 / Dynamic Range Meter 1.1.1
log date: 2013-07-12 18:45:52

––––––––––––––––––––––––––––––––––––––––
Analyzed: Agrezzior / Old School Electrology Volume One (CD1) (1)
Astma / Old School Electrology Volume One (CD1) (2)
Darkmen / Old School Electrology Volume One (CD1) (3)
DRP / Old School Electrology Volume One (CD1) (4)
EkoBrottsMyndigheten / Old School Electrology Volume One (CD1) (5)
Ionic Vision / Old School Electrology Volume One (CD1) (6)
K-Bereit / Old School Electrology Volume One (CD1) (7)
Lescure 13 / Old School Electrology Volume One (CD1) (8)
MachineSoldier / Old School Electrology Volume One (CD1) (9)
Oldschool Union / Old School Electrology Volume One (CD1) (10)
Ondska / Old School Electrology Volume One (CD1) (11)
Orange Sector / Old School Electrology Volume One (CD1) (12)
Pact Of Warsaw / Old School Electrology Volume One (CD1) (13)
PP? / Old School Electrology Volume One (CD1) (14)
Presto Fervant / Old School Electrology Volume One (CD1) (15)
Serpents / Old School Electrology Volume One (CD1) (16)
Spark! / Old School Electrology Volume One (CD1) (17)
Synaptic Defect / Old School Electrology Volume One (CD1) (18)
T.A.N.K. / Old School Electrology Volume One (CD1) (19)
Ugh…! / Old School Electrology Volume One (CD1) (20)
––––––––––––––––––––––––––––––––––––––––

DR Peak RMS Duration Track
––––––––––––––––––––––––––––––––––––––––
DR6 0.00 dB -7.17 dB 3:53 01-Statue Of Liberty
DR7 0.00 dB -7.96 dB 3:01 02-Honor And Glory
DR8 0.00 dB -10.22 dB 3:35 03-Take It Back
DR8 0.00 dB -10.16 dB 4:35 04-Electro Pussy
DR7 0.00 dB -7.87 dB 3:41 05-Get Your Fists Up
DR6 0.00 dB -8.14 dB 3:58 06-Hate
DR6 0.00 dB -6.66 dB 4:01 07-Blackened
DR7 0.00 dB -8.99 dB 3:51 08-Destruktor
DR7 0.00 dB -8.28 dB 4:28 09-Body Anonymous
DR6 0.00 dB -7.95 dB 3:16 10-Perkele
DR8 0.00 dB -8.58 dB 4:03 11-Storm
DR5 0.00 dB -6.04 dB 4:15 12-Noise (Head Mix)
DR6 0.00 dB -7.46 dB 4:10 13-Domination
DR8 0.00 dB -10.63 dB 5:48 14-Repression (Dental Exilanation Remix)
DR7 0.00 dB -7.80 dB 3:26 15-Bullseye
DR8 0.00 dB -9.16 dB 4:31 16-Komm Naher
DR8 0.00 dB -8.70 dB 3:35 17-Modern Slaves
DR8 0.00 dB -9.36 dB 3:50 18-Electrofreak
DR7 0.00 dB -9.09 dB 4:21 19-Game Of Men
DR5 0.00 dB -5.73 dB 3:36 20-Rage Against Trancewhackedggoregalore
––––––––––––––––––––––––––––––––––––––––

Number of tracks: 20
Official DR value: DR7

Samplerate: 44100 Hz
Channels: 2
Bits per sample: 16
Bitrate: 935 kbps
Codec: FLAC
================================================================================


Tracklist CD2 - Authentic Dark Electro:

01. Terminal State - Black Salt [5:02]
02. IC 434 - Skullwatch (Primal Beats) [4:37]
03. Brain Leisure - Self Reality [4:24]
04. Amnistia - Pretended [5:35]
05. Morgue Mechanism - Simulation [4:32]
06. Second Disease - Ecstatic [4:20]
07. Necrotek - Revenant [3:54]
08. Severe Illusion - My Car Is Burning In Hell [3:44]
09. Nordschlacht - The Collective [5:09]
10. Pro Patria - H2SO4 [3:14]
11. Red+Test - Holy War [5:28]
12. Object - Humiliating Procedures [4:38]
13. Tear!down - Tempting Harlots [4:44]
14. Seven Trees - Present Decay [3:21]
15. PsyObject - Confrontation [4:28]
16. God Experiment - Shiver [5:45]
17. Trial / Brothers In Arms - Oldschool Mission [3:31]
18. Morticians - Art Of Pain [3:34]


Exact Audio Copy V1.0 beta 3 from 29. August 2011

EAC extraction logfile from 8. June 2012, 22:48

Various / Old School Electrology Volume One (CD2)

Used drive : PLEXTOR BDDVDR PX-B320SA Adapter: 3 ID: 1

Read mode : Secure
Utilize accurate stream : Yes
Defeat audio cache : Yes
Make use of C2 pointers : No

Read offset correction : 6
Overread into Lead-In and Lead-Out : No
Fill up missing offset samples with silence : Yes
Delete leading and trailing silent blocks : No
Null samples used in CRC calculations : Yes
Used interface : Installed external ASPI interface

Used output format : User Defined Encoder
Selected bitrate : 128 kBit/s
Quality : High
Add ID3 tag : No
Command line compressor : C:\Program Files (x86)\FLAC\flac.exe
Additional command line options : -V -8 -T "Date=%year%" -T "Genre=%genre%" %source%


TOC of the extracted CD

Track | Start | Length | Start sector | End sector
––––––––––––––––––––––––––––-
1 | 0:00.00 | 5:01.35 | 0 | 22609
2 | 5:01.35 | 4:36.43 | 22610 | 43352
3 | 9:38.03 | 4:24.16 | 43353 | 63168
4 | 14:02.19 | 5:35.06 | 63169 | 88299
5 | 19:37.25 | 4:31.30 | 88300 | 108654
6 | 24:08.55 | 4:20.25 | 108655 | 128179
7 | 28:29.05 | 3:53.58 | 128180 | 145712
8 | 32:22.63 | 3:43.43 | 145713 | 162480
9 | 36:06.31 | 5:08.65 | 162481 | 185645
10 | 41:15.21 | 3:13.59 | 185646 | 200179
11 | 44:29.05 | 5:28.05 | 200180 | 224784
12 | 49:57.10 | 4:37.51 | 224785 | 245610
13 | 54:34.61 | 4:43.45 | 245611 | 266880
14 | 59:18.31 | 3:20.59 | 266881 | 281939
15 | 62:39.15 | 4:27.50 | 281940 | 302014
16 | 67:06.65 | 5:45.11 | 302015 | 327900
17 | 72:52.01 | 3:31.22 | 327901 | 343747
18 | 76:23.23 | 3:33.56 | 343748 | 359778


Range status and errors

Selected range

Filename D:\Various - Old School Electrology Volume One (2011)(EAR 001, Ltd.)\(cd2) Authentic Dark Electro\Old School Electrology Volume One (CD2).wav

Peak level 99.9 %
Extraction speed 8.6 X
Range quality 99.9 %
Test CRC 5CF9DC46
Copy CRC 5CF9DC46
Copy OK

No errors occurred


AccurateRip summary

Track 1 not present in database
Track 2 not present in database
Track 3 not present in database
Track 4 not present in database
Track 5 not present in database
Track 6 not present in database
Track 7 not present in database
Track 8 not present in database
Track 9 not present in database
Track 10 not present in database
Track 11 not present in database
Track 12 not present in database
Track 13 not present in database
Track 14 not present in database
Track 15 not present in database
Track 16 not present in database
Track 17 not present in database
Track 18 not present in database

None of the tracks are present in the AccurateRip database

End of status report

==== Log checksum 7FFBC3559089340D8D803AEBE28770F62339BD23626594041A5CC0238517E12B ====

foobar2000 1.2 / Dynamic Range Meter 1.1.1
log date: 2013-07-12 18:45:57

––––––––––––––––––––––––––––––––––––––––
Analyzed: Brain Leisure / Old School Electrology Volume One (CD2) (1)
God Experiment / Old School Electrology Volume One (CD2) (2)
––––––––––––––––––––––––––––––––––––––––

DR Peak RMS Duration Track
––––––––––––––––––––––––––––––––––––––––
DR8 0.00 dB -9.72 dB 4:24 03-Self Reality
DR5 0.00 dB -7.00 dB 5:45 16-Shiver
––––––––––––––––––––––––––––––––––––––––

Number of tracks: 2
Official DR value: DR7

Samplerate: 44100 Hz
Channels: 2
Bits per sample: 16
Bitrate: 958 kbps
Codec: FLAC
================================================================================

––––––––––––––––––––––––––––––––––––––––
Analyzed: IC 434 / Old School Electrology Volume One (CD2) (1)
Morgue Mechanism / Old School Electrology Volume One (CD2) (2)
Morticians / Old School Electrology Volume One (CD2) (3)
––––––––––––––––––––––––––––––––––––––––

DR Peak RMS Duration Track
––––––––––––––––––––––––––––––––––––––––
DR7 0.00 dB -8.78 dB 4:37 02-Skullwatch (Primal Beats)
DR7 0.00 dB -9.08 dB 4:31 05-Simulation
DR6 0.00 dB -7.59 dB 3:34 18-Art Of Pain
––––––––––––––––––––––––––––––––––––––––

Number of tracks: 3
Official DR value: DR7

Samplerate: 44100 Hz
Channels: 2
Bits per sample: 16
Bitrate: 958 kbps
Codec: FLAC
================================================================================

––––––––––––––––––––––––––––––––––––––––
Analyzed: Necrotek / Old School Electrology Volume One (CD2) (1)
Nordschlacht / Old School Electrology Volume One (CD2) (2)
Object / Old School Electrology Volume One (CD2) (3)
––––––––––––––––––––––––––––––––––––––––

DR Peak RMS Duration Track
––––––––––––––––––––––––––––––––––––––––
DR7 0.00 dB -8.18 dB 3:54 07-Revenant
DR7 0.00 dB -8.56 dB 5:09 09-The Collective
DR7 0.00 dB -8.46 dB 4:38 12-Humiliating Procedures
––––––––––––––––––––––––––––––––––––––––

Number of tracks: 3
Official DR value: DR7

Samplerate: 44100 Hz
Channels: 2
Bits per sample: 16
Bitrate: 958 kbps
Codec: FLAC
================================================================================

––––––––––––––––––––––––––––––––––––––––
Analyzed: Pro Patria / Old School Electrology Volume One (CD2) (1)
PsyObject / Old School Electrology Volume One (CD2) (2)
––––––––––––––––––––––––––––––––––––––––

DR Peak RMS Duration Track
––––––––––––––––––––––––––––––––––––––––
DR8 0.00 dB -9.44 dB 3:14 10-H2SO4
DR9 0.00 dB -10.52 dB 4:28 15-Confrontation
––––––––––––––––––––––––––––––––––––––––

Number of tracks: 2
Official DR value: DR8

Samplerate: 44100 Hz
Channels: 2
Bits per sample: 16
Bitrate: 958 kbps
Codec: FLAC
================================================================================

––––––––––––––––––––––––––––––––––––––––
Statistics for: 11-Holy War
Number of samples: 14467740
Duration: 5:28
––––––––––––––––––––––––––––––––––––––––

Left Right

Peak Value: 0.00 dB –- 0.00 dB
Avg RMS: -8.99 dB –- -8.51 dB
DR channel: 7.46 dB –- 7.05 dB
––––––––––––––––––––––––––––––––––––––––

Official DR Value: DR7

Samplerate: 44100 Hz
Channels: 2
Bits per sample: 16
Bitrate: 958 kbps
Codec: FLAC
================================================================================
––––––––––––––––––––––––––––––––––––––––
Analyzed: Second Disease / Old School Electrology Volume One (CD2) (1)
Seven Trees / Old School Electrology Volume One (CD2) (2)
––––––––––––––––––––––––––––––––––––––––

DR Peak RMS Duration Track
––––––––––––––––––––––––––––––––––––––––
DR7 0.00 dB -9.37 dB 4:20 06-Ecstatic
DR7 0.00 dB -8.17 dB 3:21 14-Present Decay
––––––––––––––––––––––––––––––––––––––––

Number of tracks: 2
Official DR value: DR7

Samplerate: 44100 Hz
Channels: 2
Bits per sample: 16
Bitrate: 958 kbps
Codec: FLAC
================================================================================

––––––––––––––––––––––––––––––––––––––––
Analyzed: Severe Illusion / Old School Electrology Volume One (CD2) (1)
Tear!down / Old School Electrology Volume One (CD2) (2)
––––––––––––––––––––––––––––––––––––––––

DR Peak RMS Duration Track
––––––––––––––––––––––––––––––––––––––––
DR6 0.00 dB -8.77 dB 3:44 08-My Car Is Burning In Hell
DR7 0.00 dB -9.58 dB 4:44 13-Tempting Harlots
––––––––––––––––––––––––––––––––––––––––

Number of tracks: 2
Official DR value: DR7

Samplerate: 44100 Hz
Channels: 2
Bits per sample: 16
Bitrate: 958 kbps
Codec: FLAC
================================================================================

––––––––––––––––––––––––––––––––––––––––
Analyzed: Terminal State / Old School Electrology Volume One (CD2) (1)
Trial / Old School Electrology Volume One (CD2) (2)
––––––––––––––––––––––––––––––––––––––––

DR Peak RMS Duration Track
––––––––––––––––––––––––––––––––––––––––
DR8 0.00 dB -9.03 dB 5:01 01-Black Salt
DR8 0.00 dB -9.06 dB 3:31 17-Brothers In Arms - Oldschool Mission
––––––––––––––––––––––––––––––––––––––––

Number of tracks: 2
Official DR value: DR8

Samplerate: 44100 Hz
Channels: 2
Bits per sample: 16
Bitrate: 958 kbps
Codec: FLAC
================================================================================
foobar2000 1.2 / Dynamic Range Meter 1.1.1
log date: 2013-07-12 18:45:54

––––––––––––––––––––––––––––––––––––––––
Statistics for: 04-Pretended
Number of samples: 14777028
Duration: 5:35
––––––––––––––––––––––––––––––––––––––––

Left Right

Peak Value: 0.00 dB –- 0.00 dB
Avg RMS: -7.58 dB –- -7.30 dB
DR channel: 5.83 dB –- 5.47 dB
––––––––––––––––––––––––––––––––––––––––

Official DR Value: DR6

Samplerate: 44100 Hz
Channels: 2
Bits per sample: 16
Bitrate: 958 kbps
Codec: FLAC
================================================================================


Tracklist CD3 - Assemblage: Authenthic Dark Electro & Oldschool EBM:

01. To Avoid - Payback [4:19]
02. Breathe - Im Raum Der Zeit [4:19]
03. Disharmony - Access Points [4:08]
04. deltaE (Mortal Constraint) - Acceleration [6:20]
05. MC1R - Neuropathy [5:55]
06. Kalte Farben - Retrospective [4:09]
07. The Holocaust Humanity - Alive [3:49]
08. Jihad - Seven Skies [7:04]
09. yelworC - Teufels Dreizack Part I [5:02]
10. Splatter Squall - The Summoning [6:01]
11. One Eye Wanders - Misdiagnosis [4:35]
12. Instans - Robot [4:32]
13. Collapsed System - Stay Tough [4:56]
14. Autodafeh - Dog Tag [3:25]
15. A.D.A.C. 8286 - Störtebecker [2:10]
16. Neukampf - Duell:Duett [2:19]
17. NTRSN - The Coming Ends [3:40]
18. Tech Nomader - Nomad [2:47]


Exact Audio Copy V1.0 beta 3 from 29. August 2011

EAC extraction logfile from 9. June 2012, 0:07

Various / Old School Electrology Volume One (CD3)

Used drive : PLEXTOR BDDVDR PX-B320SA Adapter: 3 ID: 1

Read mode : Secure
Utilize accurate stream : Yes
Defeat audio cache : Yes
Make use of C2 pointers : No

Read offset correction : 6
Overread into Lead-In and Lead-Out : No
Fill up missing offset samples with silence : Yes
Delete leading and trailing silent blocks : No
Null samples used in CRC calculations : Yes
Used interface : Installed external ASPI interface

Used output format : User Defined Encoder
Selected bitrate : 128 kBit/s
Quality : High
Add ID3 tag : No
Command line compressor : C:\Program Files (x86)\FLAC\flac.exe
Additional command line options : -V -8 -T "Date=%year%" -T "Genre=%genre%" %source%


TOC of the extracted CD

Track | Start | Length | Start sector | End sector
––––––––––––––––––––––––––––-
1 | 0:00.00 | 4:18.48 | 0 | 19397
2 | 4:18.48 | 4:17.41 | 19398 | 38713
3 | 8:36.14 | 4:07.46 | 38714 | 57284
4 | 12:43.60 | 6:19.46 | 57285 | 85755
5 | 19:03.31 | 5:55.22 | 85756 | 112402
6 | 24:58.53 | 4:09.30 | 112403 | 131107
7 | 29:08.08 | 3:48.72 | 131108 | 148279
8 | 32:57.05 | 7:03.59 | 148280 | 180063
9 | 40:00.64 | 5:02.13 | 180064 | 202726
10 | 45:03.02 | 6:00.37 | 202727 | 229763
11 | 51:03.39 | 4:34.62 | 229764 | 250375
12 | 55:38.26 | 4:32.13 | 250376 | 270788
13 | 60:10.39 | 4:55.44 | 270789 | 292957
14 | 65:06.08 | 3:24.56 | 292958 | 308313
15 | 68:30.64 | 2:10.30 | 308314 | 318093
16 | 70:41.19 | 2:18.33 | 318094 | 328476
17 | 72:59.52 | 3:39.69 | 328477 | 344970
18 | 76:39.46 | 2:47.03 | 344971 | 357498


Range status and errors

Selected range

Filename D:\Various - Old School Electrology Volume One (2011)(EAR 001, Ltd.)\(cd3) Assemblage.. Authenthic Dark Electro & Oldschool EBM\Old School Electrology Volume One (CD3).wav

Peak level 99.9 %
Extraction speed 8.7 X
Range quality 100.0 %
Test CRC F03B42C4
Copy CRC F03B42C4
Copy OK

No errors occurred


AccurateRip summary

Track 1 not present in database
Track 2 not present in database
Track 3 not present in database
Track 4 not present in database
Track 5 not present in database
Track 6 not present in database
Track 7 not present in database
Track 8 not present in database
Track 9 not present in database
Track 10 not present in database
Track 11 not present in database
Track 12 not present in database
Track 13 not present in database
Track 14 not present in database
Track 15 not present in database
Track 16 not present in database
Track 17 not present in database
Track 18 not present in database

None of the tracks are present in the AccurateRip database

End of status report

==== Log checksum 435A10DE3BA60D5DE436749F2C0E09953B2848251A0107062ECC15789A846D96 ====

foobar2000 1.2 / Dynamic Range Meter 1.1.1
log date: 2013-07-12 18:46:25

––––––––––––––––––––––––––––––––––––––––
Statistics for: 14-Dog Tag
Number of samples: 9029328
Duration: 3:25
––––––––––––––––––––––––––––––––––––––––

Left Right

Peak Value: 0.00 dB –- 0.00 dB
Avg RMS: -8.62 dB –- -8.63 dB
DR channel: 7.37 dB –- 7.44 dB
––––––––––––––––––––––––––––––––––––––––

Official DR Value: DR7

Samplerate: 44100 Hz
Channels: 2
Bits per sample: 16
Bitrate: 947 kbps
Codec: FLAC
================================================================================
––––––––––––––––––––––––––––––––––––––––
Analyzed: Breathe / Old School Electrology Volume One (CD3) (1)
Collapsed System / Old School Electrology Volume One (CD3) (2)
––––––––––––––––––––––––––––––––––––––––

DR Peak RMS Duration Track
––––––––––––––––––––––––––––––––––––––––
DR7 0.00 dB -8.29 dB 4:18 02-Im Raum Der Zeit
DR6 -0.02 dB -7.46 dB 4:56 13-Stay Tough
––––––––––––––––––––––––––––––––––––––––

Number of tracks: 2
Official DR value: DR7

Samplerate: 44100 Hz
Channels: 2
Bits per sample: 16
Bitrate: 947 kbps
Codec: FLAC
================================================================================

––––––––––––––––––––––––––––––––––––––––
Statistics for: 04-Acceleration
Number of samples: 16740948
Duration: 6:20
––––––––––––––––––––––––––––––––––––––––

Left Right

Peak Value: 0.00 dB –- 0.00 dB
Avg RMS: -7.74 dB –- -7.83 dB
DR channel: 5.54 dB –- 5.63 dB
––––––––––––––––––––––––––––––––––––––––

Official DR Value: DR6

Samplerate: 44100 Hz
Channels: 2
Bits per sample: 16
Bitrate: 947 kbps
Codec: FLAC
================================================================================
––––––––––––––––––––––––––––––––––––––––
Analyzed: Disharmony / Old School Electrology Volume One (CD3) (1)
Instans / Old School Electrology Volume One (CD3) (2)
––––––––––––––––––––––––––––––––––––––––

DR Peak RMS Duration Track
––––––––––––––––––––––––––––––––––––––––
DR8 -0.01 dB -9.63 dB 4:08 03-Access Points
DR8 0.00 dB -8.96 dB 4:32 12-Robot
––––––––––––––––––––––––––––––––––––––––

Number of tracks: 2
Official DR value: DR8

Samplerate: 44100 Hz
Channels: 2
Bits per sample: 16
Bitrate: 947 kbps
Codec: FLAC
================================================================================

––––––––––––––––––––––––––––––––––––––––
Statistics for: 08-Seven Skies
Number of samples: 18688992
Duration: 7:04
––––––––––––––––––––––––––––––––––––––––

Left Right

Peak Value: 0.00 dB –- 0.00 dB
Avg RMS: -8.57 dB –- -9.08 dB
DR channel: 6.50 dB –- 6.74 dB
––––––––––––––––––––––––––––––––––––––––

Official DR Value: DR7

Samplerate: 44100 Hz
Channels: 2
Bits per sample: 16
Bitrate: 947 kbps
Codec: FLAC
================================================================================
––––––––––––––––––––––––––––––––––––––––
Statistics for: 06-Retrospective
Number of samples: 10998540
Duration: 4:09
––––––––––––––––––––––––––––––––––––––––

Left Right

Peak Value: 0.00 dB –- 0.00 dB
Avg RMS: -8.05 dB –- -8.19 dB
DR channel: 6.13 dB –- 6.17 dB
––––––––––––––––––––––––––––––––––––––––

Official DR Value: DR6

Samplerate: 44100 Hz
Channels: 2
Bits per sample: 16
Bitrate: 947 kbps
Codec: FLAC
================================================================================
––––––––––––––––––––––––––––––––––––––––
Analyzed: MC1R / Old School Electrology Volume One (CD3) (1)
Neukampf / Old School Electrology Volume One (CD3) (2)
NTRSN / Old School Electrology Volume One (CD3) (3)
––––––––––––––––––––––––––––––––––––––––

DR Peak RMS Duration Track
––––––––––––––––––––––––––––––––––––––––
DR8 0.00 dB -10.11 dB 5:55 05-Neuropathy
DR6 0.00 dB -6.91 dB 2:18 16-Duell:Duett
DR7 0.00 dB -8.48 dB 3:40 17-The Coming Ends
––––––––––––––––––––––––––––––––––––––––

Number of tracks: 3
Official DR value: DR7

Samplerate: 44100 Hz
Channels: 2
Bits per sample: 16
Bitrate: 947 kbps
Codec: FLAC
================================================================================

––––––––––––––––––––––––––––––––––––––––
Statistics for: 11-Misdiagnosis
Number of samples: 12119856
Duration: 4:35
––––––––––––––––––––––––––––––––––––––––

Left Right

Peak Value: 0.00 dB –- 0.00 dB
Avg RMS: -9.13 dB –- -9.17 dB
DR channel: 7.38 dB –- 7.22 dB
––––––––––––––––––––––––––––––––––––––––

Official DR Value: DR7

Samplerate: 44100 Hz
Channels: 2
Bits per sample: 16
Bitrate: 947 kbps
Codec: FLAC
================================================================================
––––––––––––––––––––––––––––––––––––––––
Analyzed: Splatter Squall / Old School Electrology Volume One (CD3) (1)
Tech Nomader / Old School Electrology Volume One (CD3) (2)
––––––––––––––––––––––––––––––––––––––––

DR Peak RMS Duration Track
––––––––––––––––––––––––––––––––––––––––
DR4 0.00 dB -5.27 dB 6:00 10-The Summoning
DR8 0.00 dB -8.78 dB 2:47 18-Nomad
––––––––––––––––––––––––––––––––––––––––

Number of tracks: 2
Official DR value: DR6

Samplerate: 44100 Hz
Channels: 2
Bits per sample: 16
Bitrate: 947 kbps
Codec: FLAC
================================================================================

––––––––––––––––––––––––––––––––––––––––
Statistics for: 07-Alive
Number of samples: 10097136
Duration: 3:49
––––––––––––––––––––––––––––––––––––––––

Left Right

Peak Value: 0.00 dB –- 0.00 dB
Avg RMS: -9.01 dB –- -9.17 dB
DR channel: 7.32 dB –- 7.09 dB
––––––––––––––––––––––––––––––––––––––––

Official DR Value: DR7

Samplerate: 44100 Hz
Channels: 2
Bits per sample: 16
Bitrate: 947 kbps
Codec: FLAC
================================================================================
––––––––––––––––––––––––––––––––––––––––
Analyzed: To Avoid / Old School Electrology Volume One (CD3) (1)
yelworC / Old School Electrology Volume One (CD3) (2)
––––––––––––––––––––––––––––––––––––––––

DR Peak RMS Duration Track
––––––––––––––––––––––––––––––––––––––––
DR7 0.00 dB -9.34 dB 4:19 01-Payback
DR6 0.00 dB -7.83 dB 5:02 09-Teufels Dreizack Part I
––––––––––––––––––––––––––––––––––––––––

Number of tracks: 2
Official DR value: DR7

Samplerate: 44100 Hz
Channels: 2
Bits per sample: 16
Bitrate: 947 kbps
Codec: FLAC
================================================================================

foobar2000 1.2 / Dynamic Range Meter 1.1.1
log date: 2013-07-12 18:46:23

––––––––––––––––––––––––––––––––––––––––
Statistics for: 15-Stortebecker
Number of samples: 5750640
Duration: 2:10
––––––––––––––––––––––––––––––––––––––––

Left Right

Peak Value: 0.00 dB –- 0.00 dB
Avg RMS: -8.18 dB –- -7.77 dB
DR channel: 6.56 dB –- 6.16 dB
––––––––––––––––––––––––––––––––––––––––

Official DR Value: DR6

Samplerate: 44100 Hz
Channels: 2
Bits per sample: 16
Bitrate: 947 kbps
Codec: FLAC
================================================================================


Tracklist CD4 - Amalgamation: Old School EBM & Authenthic Dark Electro:

01. Armageddon Dildos - Out Of Control [3:54]
02. Digital Factor - Electric Body [4:34]
03. Guerrilla - Walk Away [4:03]
04. Sleepwalk - Final Curtain [4:14]
05. The Blister Exists - For The Squad [4:34]
06. Injector - Scream [4:33]
07. Haujobb - Letting The Demons Sleep [4:41]
08. Venetian Blind - Instead Of Tears [5:34]
09. Total Harmonic Distortion - Reversions/Mutations [4:21]
10. Elite! - So Wie Wir [3:38]
11. Kraft - Meine Liebe [3:01]
12. Stin Scatzor - Noise In My Stomach [2:55]
13. Frontal - Zeig Mir [3:37]
14. Tri-State - Avatar (Kling Klang Khaos) [5:02]
15. Amgod - Deathrider [4:48]
16. U.M.M. - Cocktail Molotov [3:21]
17. Kraftakt - Ich Bin Nicht Da [3:00]
18. Defecto Nagrobek - Ich War Ein Knabe [3:18]
19. BodyFarm - EBM Macht Stark [3:01]
20. Page 12 - Season's End [3:51]


Exact Audio Copy V1.0 beta 3 from 29. August 2011

EAC extraction logfile from 9. June 2012, 0:35

Various / Old School Electrology Volume One (CD4)

Used drive : PLEXTOR BDDVDR PX-B320SA Adapter: 3 ID: 1

Read mode : Secure
Utilize accurate stream : Yes
Defeat audio cache : Yes
Make use of C2 pointers : No

Read offset correction : 6
Overread into Lead-In and Lead-Out : No
Fill up missing offset samples with silence : Yes
Delete leading and trailing silent blocks : No
Null samples used in CRC calculations : Yes
Used interface : Installed external ASPI interface

Used output format : User Defined Encoder
Selected bitrate : 128 kBit/s
Quality : High
Add ID3 tag : No
Command line compressor : C:\Program Files (x86)\FLAC\flac.exe
Additional command line options : -V -8 -T "Date=%year%" -T "Genre=%genre%" %source%


TOC of the extracted CD

Track | Start | Length | Start sector | End sector
––––––––––––––––––––––––––––-
1 | 0:00.00 | 3:54.09 | 0 | 17558
2 | 3:54.09 | 4:34.24 | 17559 | 38132
3 | 8:28.33 | 4:02.57 | 38133 | 56339
4 | 12:31.15 | 4:13.37 | 56340 | 75351
5 | 16:44.52 | 4:33.46 | 75352 | 95872
6 | 21:18.23 | 4:33.15 | 95873 | 116362
7 | 25:51.38 | 4:40.70 | 116363 | 137432
8 | 30:32.33 | 5:33.64 | 137433 | 162471
9 | 36:06.22 | 4:20.57 | 162472 | 182028
10 | 40:27.04 | 3:38.21 | 182029 | 198399
11 | 44:05.25 | 3:01.10 | 198400 | 211984
12 | 47:06.35 | 2:54.61 | 211985 | 225095
13 | 50:01.21 | 3:37.03 | 225096 | 241373
14 | 53:38.24 | 5:02.04 | 241374 | 264027
15 | 58:40.28 | 4:47.34 | 264028 | 285586
16 | 63:27.62 | 3:20.37 | 285587 | 300623
17 | 66:48.24 | 2:59.63 | 300624 | 314111
18 | 69:48.12 | 3:17.32 | 314112 | 328918
19 | 73:05.44 | 3:01.29 | 328919 | 342522
20 | 76:06.73 | 3:50.57 | 342523 | 359829


Range status and errors

Selected range

Filename D:\Various - Old School Electrology Volume One (2011)(EAR 001, Ltd.)\(cd4) Amalgamation.. Old School EBM & Authenthic Dark Electro\Old School Electrology Volume One (CD4).wav

Peak level 99.9 %
Extraction speed 8.6 X
Range quality 99.9 %
Test CRC AD2E9704
Copy CRC AD2E9704
Copy OK

No errors occurred


AccurateRip summary

Track 1 not present in database
Track 2 not present in database
Track 3 not present in database
Track 4 not present in database
Track 5 not present in database
Track 6 not present in database
Track 7 not present in database
Track 8 not present in database
Track 9 not present in database
Track 10 not present in database
Track 11 not present in database
Track 12 not present in database
Track 13 not present in database
Track 14 not present in database
Track 15 not present in database
Track 16 not present in database
Track 17 not present in database
Track 18 not present in database
Track 19 not present in database
Track 20 not present in database

None of the tracks are present in the AccurateRip database

End of status report

==== Log checksum 7C95F6B283BEEA76963E6B5EBA1ED208E616A89CEE9ED09D36F2425C487295E0 ====

foobar2000 1.2 / Dynamic Range Meter 1.1.1
log date: 2013-07-12 18:47:00

––––––––––––––––––––––––––––––––––––––––
Analyzed: Armageddon Dildos / Old School Electrology Volume One (CD4) (1)
BodyFarm / Old School Electrology Volume One (CD4) (2)
––––––––––––––––––––––––––––––––––––––––

DR Peak RMS Duration Track
––––––––––––––––––––––––––––––––––––––––
DR6 -0.22 dB -7.54 dB 3:54 01-Out Of Control
DR8 0.00 dB -8.59 dB 3:01 19-EBM Macht Stark
––––––––––––––––––––––––––––––––––––––––

Number of tracks: 2
Official DR value: DR7

Samplerate: 44100 Hz
Channels: 2
Bits per sample: 16
Bitrate: 932 kbps
Codec: FLAC
================================================================================

––––––––––––––––––––––––––––––––––––––––
Statistics for: 18-Ich War Ein Knabe
Number of samples: 8706516
Duration: 3:17
––––––––––––––––––––––––––––––––––––––––

Left Right

Peak Value: 0.00 dB –- 0.00 dB
Avg RMS: -9.99 dB –- -10.01 dB
DR channel: 8.74 dB –- 8.63 dB
––––––––––––––––––––––––––––––––––––––––

Official DR Value: DR9

Samplerate: 44100 Hz
Channels: 2
Bits per sample: 16
Bitrate: 932 kbps
Codec: FLAC
================================================================================
––––––––––––––––––––––––––––––––––––––––
Analyzed: Digital Factor / Old School Electrology Volume One (CD4) (1)
Elite! / Old School Electrology Volume One (CD4) (2)
Frontal / Old School Electrology Volume One (CD4) (3)
––––––––––––––––––––––––––––––––––––––––

DR Peak RMS Duration Track
––––––––––––––––––––––––––––––––––––––––
DR6 0.00 dB -6.86 dB 4:34 02-Electric Body
DR7 0.00 dB -8.59 dB 3:38 10-So Wie Wir
DR8 0.00 dB -8.84 dB 3:37 13-Zeig Mir
––––––––––––––––––––––––––––––––––––––––

Number of tracks: 3
Official DR value: DR7

Samplerate: 44100 Hz
Channels: 2
Bits per sample: 16
Bitrate: 932 kbps
Codec: FLAC
================================================================================

––––––––––––––––––––––––––––––––––––––––
Analyzed: Guerrilla / Old School Electrology Volume One (CD4) (1)
Haujobb / Old School Electrology Volume One (CD4) (2)
––––––––––––––––––––––––––––––––––––––––

DR Peak RMS Duration Track
––––––––––––––––––––––––––––––––––––––––
DR6 0.00 dB -6.61 dB 4:03 03-Walk Away
DR8 0.00 dB -10.90 dB 4:41 07-Letting The Demons Sleep
––––––––––––––––––––––––––––––––––––––––

Number of tracks: 2
Official DR value: DR7

Samplerate: 44100 Hz
Channels: 2
Bits per sample: 16
Bitrate: 932 kbps
Codec: FLAC
================================================================================

––––––––––––––––––––––––––––––––––––––––
Analyzed: Injector / Old School Electrology Volume One (CD4) (1)
Kraftakt / Old School Electrology Volume One (CD4) (2)
––––––––––––––––––––––––––––––––––––––––

DR Peak RMS Duration Track
––––––––––––––––––––––––––––––––––––––––
DR6 0.00 dB -7.38 dB 4:33 06-Scream
DR9 0.00 dB -9.51 dB 3:00 17-Ich Bin Nicht Da
––––––––––––––––––––––––––––––––––––––––

Number of tracks: 2
Official DR value: DR7

Samplerate: 44100 Hz
Channels: 2
Bits per sample: 16
Bitrate: 932 kbps
Codec: FLAC
================================================================================

––––––––––––––––––––––––––––––––––––––––
Analyzed: Kraft / Old School Electrology Volume One (CD4) (1)
Page 12 / Old School Electrology Volume One (CD4) (2)
––––––––––––––––––––––––––––––––––––––––

DR Peak RMS Duration Track
––––––––––––––––––––––––––––––––––––––––
DR8 0.00 dB -8.86 dB 3:01 11-Meine Liebe
DR7 0.00 dB -8.65 dB 3:51 20-Season's End
––––––––––––––––––––––––––––––––––––––––

Number of tracks: 2
Official DR value: DR7

Samplerate: 44100 Hz
Channels: 2
Bits per sample: 16
Bitrate: 932 kbps
Codec: FLAC
================================================================================

––––––––––––––––––––––––––––––––––––––––
Analyzed: Sleepwalk / Old School Electrology Volume One (CD4) (1)
Stin Scatzor / Old School Electrology Volume One (CD4) (2)
––––––––––––––––––––––––––––––––––––––––

DR Peak RMS Duration Track
––––––––––––––––––––––––––––––––––––––––
DR6 -2.00 dB -9.51 dB 4:13 04-Final Curtain
DR6 0.00 dB -6.49 dB 2:55 12-Noise In My Stomach
––––––––––––––––––––––––––––––––––––––––

Number of tracks: 2
Official DR value: DR6

Samplerate: 44100 Hz
Channels: 2
Bits per sample: 16
Bitrate: 932 kbps
Codec: FLAC
================================================================================

––––––––––––––––––––––––––––––––––––––––
Analyzed: The Blister Exists / Old School Electrology Volume One (CD4) (1)
Total Harmonic Distortion / Old School Electrology Volume One (CD4) (2)
Tri-State / Old School Electrology Volume One (CD4) (3)
U.M.M. / Old School Electrology Volume One (CD4) (4)
––––––––––––––––––––––––––––––––––––––––

DR Peak RMS Duration Track
––––––––––––––––––––––––––––––––––––––––
DR7 0.00 dB -8.39 dB 4:34 05-For The Squad
DR6 0.00 dB -7.53 dB 4:21 09-Reversions/Mutations
DR7 0.00 dB -8.65 dB 5:02 14-Avatar (Kling Klang Khaos)
DR5 0.00 dB -6.61 dB 3:20 16-Cocktail Molotov
––––––––––––––––––––––––––––––––––––––––

Number of tracks: 4
Official DR value: DR6

Samplerate: 44100 Hz
Channels: 2
Bits per sample: 16
Bitrate: 932 kbps
Codec: FLAC
================================================================================

––––––––––––––––––––––––––––––––––––––––
Statistics for: 08-Instead Of Tears
Number of samples: 14722932
Duration: 5:34
––––––––––––––––––––––––––––––––––––––––

Left Right

Peak Value: 0.00 dB –- 0.00 dB
Avg RMS: -9.09 dB –- -9.08 dB
DR channel: 6.06 dB –- 6.05 dB
––––––––––––––––––––––––––––––––––––––––

Official DR Value: DR6

Samplerate: 44100 Hz
Channels: 2
Bits per sample: 16
Bitrate: 932 kbps
Codec: FLAC
================================================================================
foobar2000 1.2 / Dynamic Range Meter 1.1.1
log date: 2013-07-12 18:46:58

––––––––––––––––––––––––––––––––––––––––
Statistics for: 15-Deathrider
Number of samples: 12676692
Duration: 4:47
––––––––––––––––––––––––––––––––––––––––

Left Right

Peak Value: 0.00 dB –- 0.00 dB
Avg RMS: -7.51 dB –- -7.61 dB
DR channel: 5.57 dB –- 5.58 dB
––––––––––––––––––––––––––––––––––––––––

Official DR Value: DR6

Samplerate: 44100 Hz
Channels: 2
Bits per sample: 16
Bitrate: 932 kbps
Codec: FLAC
================================================================================

VA - Old School Electrology: Volume One (2011) 4CD Box Set [Re-Up]

All thanks to original releaser - DmXpert

More interesting music in My Blog