Subcategories

Various Artists - Pure... Blues (2010) 4 CD Box Set [Re-Up]

Posted By: Designol
Various Artists - Pure... Blues (2010) 4 CD Box Set [Re-Up]

Various Artists - Pure… Blues (2010) 4 CD Box Set
EAC | FLAC | Image (Cue&Log) ~ 1 Gb | Mp3 (CBR320) ~ 511 Mb | Scans ~ 28 Mb
Label: Sony Music | # 88697776272 | Time: 03:45:15
Blues, Country-Blues, Electric Blues, Rhythm & Blues, Jazz-Blues, Blues-Rock

This four-disc, 68-track collection paints a broad definition of the blues, with cuts ranging from vintage country blues (Robert Johnson's “Cross Road Blues,” Son House's “Death Letter Blues”) to uptown jazz blues (Nina Simone's “Blues for My Mama,” Billie Holiday's “Billie’s Blues”), Chicago blues (a live version of “Howling Wolf” by Muddy Waters), British blues (Jeff Beck's “JB’s Blues”), and contemporary acoustic blues (“Am I Wrong” by Keb' Mo'), with plenty of stops in between, making for a random but varied playlist that circles the different approaches and musical definitions of the genre.

Review by Steve Leggett, Allmusic.com

Various Artists - Pure... Blues (2010) 4 CD Box Set [Re-Up]


Tracklist:

CD1:

01. Robert Johnson - Cross Road Blues (02:40)
02. Arthur Big Boy Crudup - That's All Right (02:54)
03. Muddy Waters - The Blues Had A Baby And They Named It Rock And Roll (03:34)
04. Fleetwood Mac - Need Your Love So Bad (03:50)
05. Taj Mahal - Lovin' In My Baby's Eyes (02:38)
06. Willie Dixon - I'm Your Hoochie Coochie Man (04:48)
07. Son House - Death Letter Blues (04:20)
08. Sonny Boy Williamson - Whiskey Headed Blues (02:56)
09. Jimmy Yancey - Crying In My Sleep (02:57)
10. Bessie Smith And Her Band - Muddy Water (A Mississippi Moan) (03:09)
11. Blind Willie Johnson - Motherless Children (03:23)
12. Leadbelly - Fort Worth And Dallas Blues (03:00)
13. Robert Lockwood - I'm Gonna Train My Baby (02:57)
14. Tampa Red - Seminole Blues (03:04)
15. Johnny Winter - Johnny B. Goode (Live) (03:25)
16. Otis Spann - Got My Mojo Working (03:02)
17. The Jeff Healey Band - River Of No Return (03:33)

CD2:

01. Nina Simone - Blues For Mama (04:00)
02. Stevie Ray Vaughan & Double Trouble - Pride And Joy (03:42)
03. The Electric Flag - Killing Floor (04:12)
04. Chicken Shack - I'd Rather Go Blind (03:16)
05. Bill Jazz Gillum - Early In The Morning (02:54)
06. Bukka White - Give Me An Old, Old Lady (02:33)
07. Big Joe Williams - Baby, Please Don't Go (02:48)
08. Earl Hines & His Orchestra - Stormy Monday Blues (03:10)
09. Mildred Bailey - That Ain't Right (03:05)
10. Roosevelt Sykes & His Original Honeydrippers - Sunny Road (03:06)
11. Memphis Minnie - Bumble Bee Blues (02:55)
12. Big Maceo Merriweather - Worried Life Blues (02:55)
13. Jimmy Witherspoon with Jay McShann & His Band - Confessin' The Blues (04:17)
14. Lonnie Johnson - No More Women Blues (03:02)
15. Leroy Carr - When The Sun Goes Down (02:58)
16. Meade Lux Lewis - Honky Tonk Train Blues (03:00)
17. Memphis Slim - Beer Drinkin' Woman (02:58)

CD3:

01. Vaughan Brothers - Hard To Be (04:44)
02. Top Topham - Sawbuk (02:17)
03. Eddie ''Cleanhead'' Vinson - Cleanhead Blues (02:33)
04. Etta James - Hold Me (Just A Little Longer Tonight) (03:42)
05. Johnny Shines - Babt Don't You Thibk I Know (02:53)
06. Joe Williams - Everyday I Have The Blues (03:39)
07. Big Maceo Merriweather - Broke And Hungry Blues (02:41)
08. Robert Lee McCoy - Prowling Night Hawk (03:04)
09. Sonny Boy Williamson - Deep Down In The Ground (03:14)
10. Blind Boy Fuller - Rag Mama Rag (03:04)
11. Tommy McClennan - Love My Baby (03:07)
12. Arthur 'Big Boy' Crudup - Mean Old Frisco Blues (02:37)
13. Robert Johnson - Sweet Home Chicago (02:58)
14. Joe Turner - Careless Love (02:51)
15. Big Bill Broonzy - Friendless Blues (03:21)
16. Washboard Sam And Her Washboard Band - She's Makin' A Fool Out Of Me (03:03)
17. Billie Holiday And Her Orchestra - Billie's Blues (I Love My Man) (02:40)

CD4:

01. Muddy Waters - Howling Wolf [live] (06:05)
02. Jellybread - I've Got To Forget You (02:51)
03. Taj Mahal - Corinna (03:01)
04. Henry 'Red' Allen - Let Me Miss You, Baby (05:32)
05. Louis Armstrong & His All Stars - Back O' Town Blues (04:15)
06. Duke Ellington & His Famous Orchestra - Rocks In My Bed (03:06)
07. Count Basie And His Orchestra - Brand New Wagon (02:53)
08. Jack Teagarden's Big Eight - St. Louis Blues (03:05)
09. Benny Goodman Quartet - The Blues In My Flat (03:25)
10. Lil Green - Why Don't You Do Right? (Get Me Some Money Too) (02:58)
11. Furry Lewis - Kassie Jones, Part I (03:06)
12. Lonnie Johnson - Wipe It Off (03:18)
13. Blind Willie McTell - Southern Can Is Mine (03:13)
14. Brownie McGhee - Key To The Highway 70 No. 1 (02:40)
15. Memphis Slim - Lend Me Your Love (03:06)
16. Keb' Mo' - Am I Wrong (02:19)
17. Jeff Beck - JB's Blues (04:20)


Exact Audio Copy V1.0 beta 3 from 29. August 2011

EAC extraction logfile from 4. May 2014, 22:11

Various Artists / Pure… Blues CD1

Used drive : PIONEER BD-RW BDR-206 Adapter: 5 ID: 0

Read mode : Secure
Utilize accurate stream : Yes
Defeat audio cache : Yes
Make use of C2 pointers : No

Read offset correction : 667
Overread into Lead-In and Lead-Out : No
Fill up missing offset samples with silence : Yes
Delete leading and trailing silent blocks : No
Null samples used in CRC calculations : Yes
Used interface : Native Win32 interface for Win NT & 2000

Used output format : User Defined Encoder
Selected bitrate : 1024 kBit/s
Quality : High
Add ID3 tag : No
Command line compressor : C:\Program Files (x86)\Exact Audio Copy\Flac\flac.exe
Additional command line options : -8 -V -T "ARTIST=%artist%" -T "TITLE=%title%" -T "ALBUM=%albumtitle%" -T "DATE=%year%" -T "TRACKNUMBER=%tracknr%" -T "GENRE=%genre%" -T "COMMENT=%comment%" -T "BAND=%albuminterpret%" -T "ALBUMARTIST=%albuminterpret%" -T "COMPOSER=%composer%" %haslyrics%–tag-from-file=LYRICS="%lyricsfile%"%haslyrics% -T "DISCNUMBER=%cdnumber%" -T "TOTALDISCS=%totalcds%" -T "TOTALTRACKS=%numtracks%" %hascover%–picture="%coverfile%"%hascover% %source% -o %dest%


TOC of the extracted CD

Track | Start | Length | Start sector | End sector
––––––––––––––––––––––––––––-
1 | 0:00.00 | 2:40.32 | 0 | 12031
2 | 2:40.32 | 2:54.21 | 12032 | 25102
3 | 5:34.53 | 3:34.64 | 25103 | 41216
4 | 9:09.42 | 3:50.14 | 41217 | 58480
5 | 12:59.56 | 2:38.66 | 58481 | 70396
6 | 15:38.47 | 4:48.58 | 70397 | 92054
7 | 20:27.30 | 4:20.43 | 92055 | 111597
8 | 24:47.73 | 2:56.33 | 111598 | 124830
9 | 27:44.31 | 2:57.16 | 124831 | 138121
10 | 30:41.47 | 3:09.02 | 138122 | 152298
11 | 33:50.49 | 3:23.04 | 152299 | 167527
12 | 37:13.53 | 3:00.68 | 167528 | 181095
13 | 40:14.46 | 2:57.34 | 181096 | 194404
14 | 43:12.05 | 3:04.33 | 194405 | 208237
15 | 46:16.38 | 3:25.04 | 208238 | 223616
16 | 49:41.42 | 3:02.74 | 223617 | 237340
17 | 52:44.41 | 3:33.29 | 237341 | 253344


Range status and errors

Selected range

Filename D:\Сборники (Flac)\VA - Pure… Blues (2010) 4CD (Flac+cue)\CD1\Various Artists - Pure… Blues CD1.wav

Peak level 100.0 %
Extraction speed 7.3 X
Range quality 100.0 %
Test CRC 1E1435E6
Copy CRC 1E1435E6
Copy OK

No errors occurred


AccurateRip summary

Track 1 accurately ripped (confidence 2) [D777BA04] (AR v2)
Track 2 accurately ripped (confidence 2) [E9CDAA8A] (AR v2)
Track 3 accurately ripped (confidence 2) [E82BD47C] (AR v2)
Track 4 accurately ripped (confidence 2) [0097B22B] (AR v2)
Track 5 accurately ripped (confidence 2) [57CAC3CD] (AR v2)
Track 6 accurately ripped (confidence 2) [48CD6404] (AR v2)
Track 7 accurately ripped (confidence 2) [4A100D9B] (AR v2)
Track 8 accurately ripped (confidence 2) [97779E3D] (AR v2)
Track 9 accurately ripped (confidence 2) [78C5CD6A] (AR v2)
Track 10 accurately ripped (confidence 2) [44C45F8C] (AR v2)
Track 11 accurately ripped (confidence 2) [75DE6E78] (AR v2)
Track 12 accurately ripped (confidence 2) [7260D36D] (AR v2)
Track 13 accurately ripped (confidence 2) [C6A7E7A2] (AR v2)
Track 14 accurately ripped (confidence 2) [408221AB] (AR v2)
Track 15 accurately ripped (confidence 2) [3326CDF3] (AR v2)
Track 16 accurately ripped (confidence 2) [4499AE0A] (AR v2)
Track 17 accurately ripped (confidence 2) [FB739A99] (AR v2)

All tracks accurately ripped

End of status report

–– CUETools DB Plugin V2.1.3

[CTDB TOCID: zG9BmE55fChBy0xweeOaBNVQsL4-] found, Submit result: zG9BmE55fChBy0xweeOaBNVQsL4- has been confirmed
[2ac04566] (11/12) Accurately ripped
[7ec71600] (01/12) No match


==== Log checksum 7638AD5E0BA4DB9F0A6CB4396BC7975D327F2C504433EEE19EAAF440A3578540 ====

foobar2000 1.2 / Dynamic Range Meter 1.1.1
log date: 2016-02-09 22:28:19

––––––––––––––––––––––––––––––––––––––––
Analyzed: Arthur Big Boy Crudup / Pure… Blues CD1 (1)
Bessie Smith And Her Band / Pure… Blues CD1 (2)
Blind Willie Johnson / Pure… Blues CD1 (3)
––––––––––––––––––––––––––––––––––––––––

DR Peak RMS Duration Track
––––––––––––––––––––––––––––––––––––––––
DR11 0.00 dB -13.20 dB 2:54 02-That's All Right
DR9 -0.01 dB -11.37 dB 3:09 10-Muddy Water (A Mississippi Moan)
DR13 -0.01 dB -17.11 dB 3:23 11-Motherless Children
––––––––––––––––––––––––––––––––––––––––

Number of tracks: 3
Official DR value: DR11

Samplerate: 44100 Hz
Channels: 2
Bits per sample: 16
Bitrate: 688 kbps
Codec: FLAC
================================================================================

––––––––––––––––––––––––––––––––––––––––
Analyzed: Fleetwood Mac / Pure… Blues CD1 (1)
Jimmy Yancey / Pure… Blues CD1 (2)
Johnny Winter / Pure… Blues CD1 (3)
––––––––––––––––––––––––––––––––––––––––

DR Peak RMS Duration Track
––––––––––––––––––––––––––––––––––––––––
DR11 -0.01 dB -14.03 dB 3:50 04-Need Your Love So Bad
DR15 -0.01 dB -18.05 dB 2:57 09-Crying In My Sleep
DR9 -0.01 dB -9.78 dB 3:25 15-Johnny B. Goode (Live)
––––––––––––––––––––––––––––––––––––––––

Number of tracks: 3
Official DR value: DR12

Samplerate: 44100 Hz
Channels: 2
Bits per sample: 16
Bitrate: 688 kbps
Codec: FLAC
================================================================================

––––––––––––––––––––––––––––––––––––––––
Statistics for: 12-Fort Worth And Dallas Blues
Number of samples: 7977984
Duration: 3:01
––––––––––––––––––––––––––––––––––––––––

Left Right

Peak Value: -1.21 dB –- -1.21 dB
Avg RMS: -12.44 dB –- -12.04 dB
DR channel: 8.64 dB –- 8.04 dB
––––––––––––––––––––––––––––––––––––––––

Official DR Value: DR8

Samplerate: 44100 Hz
Channels: 2
Bits per sample: 16
Bitrate: 688 kbps
Codec: FLAC
================================================================================
––––––––––––––––––––––––––––––––––––––––
Analyzed: Muddy Waters / Pure… Blues CD1 (1)
Otis Spann / Pure… Blues CD1 (2)
––––––––––––––––––––––––––––––––––––––––

DR Peak RMS Duration Track
––––––––––––––––––––––––––––––––––––––––
DR9 -0.71 dB -10.70 dB 3:35 03-The Blues Had A Baby And They Named It Rock And Roll
DR9 -1.70 dB -12.29 dB 3:03 16-Got My Mojo Working
––––––––––––––––––––––––––––––––––––––––

Number of tracks: 2
Official DR value: DR9

Samplerate: 44100 Hz
Channels: 2
Bits per sample: 16
Bitrate: 688 kbps
Codec: FLAC
================================================================================

––––––––––––––––––––––––––––––––––––––––
Analyzed: Robert Johnson / Pure… Blues CD1 (1)
Robert Lockwood / Pure… Blues CD1 (2)
––––––––––––––––––––––––––––––––––––––––

DR Peak RMS Duration Track
––––––––––––––––––––––––––––––––––––––––
DR11 0.00 dB -13.87 dB 2:40 01-Cross Road Blues
DR12 -0.01 dB -16.00 dB 2:57 13-I'm Gonna Train My Baby
––––––––––––––––––––––––––––––––––––––––

Number of tracks: 2
Official DR value: DR11

Samplerate: 44100 Hz
Channels: 2
Bits per sample: 16
Bitrate: 688 kbps
Codec: FLAC
================================================================================

––––––––––––––––––––––––––––––––––––––––
Analyzed: Son House / Pure… Blues CD1 (1)
Sonny Boy Williamson / Pure… Blues CD1 (2)
––––––––––––––––––––––––––––––––––––––––

DR Peak RMS Duration Track
––––––––––––––––––––––––––––––––––––––––
DR11 0.00 dB -12.94 dB 4:21 07-Death Letter Blues
DR10 -0.01 dB -13.02 dB 2:56 08-Whiskey Headed Blues
––––––––––––––––––––––––––––––––––––––––

Number of tracks: 2
Official DR value: DR10

Samplerate: 44100 Hz
Channels: 2
Bits per sample: 16
Bitrate: 688 kbps
Codec: FLAC
================================================================================

––––––––––––––––––––––––––––––––––––––––
Analyzed: Taj Mahal / Pure… Blues CD1 (1)
Tampa Red / Pure… Blues CD1 (2)
The Jeff Healey Band / Pure… Blues CD1 (3)
––––––––––––––––––––––––––––––––––––––––

DR Peak RMS Duration Track
––––––––––––––––––––––––––––––––––––––––
DR9 -1.69 dB -12.24 dB 2:39 05-Lovin' In My Baby's Eyes
DR9 -0.01 dB -11.06 dB 3:04 14-Seminole Blues
DR9 -1.32 dB -12.35 dB 3:33 17-River Of No Return
––––––––––––––––––––––––––––––––––––––––

Number of tracks: 3
Official DR value: DR9

Samplerate: 44100 Hz
Channels: 2
Bits per sample: 16
Bitrate: 688 kbps
Codec: FLAC
================================================================================

––––––––––––––––––––––––––––––––––––––––
Statistics for: 06-I'm Your Hoochie Coochie Man
Number of samples: 12734904
Duration: 4:49
––––––––––––––––––––––––––––––––––––––––

Left Right

Peak Value: -0.01 dB –- -0.04 dB
Avg RMS: -12.03 dB –- -8.67 dB
DR channel: 10.23 dB –- 7.38 dB
––––––––––––––––––––––––––––––––––––––––

Official DR Value: DR9

Samplerate: 44100 Hz
Channels: 2
Bits per sample: 16
Bitrate: 688 kbps
Codec: FLAC
================================================================================


Exact Audio Copy V1.0 beta 3 from 29. August 2011

EAC extraction logfile from 4. May 2014, 22:58

Various Artists / Pure Blues CD2

Used drive : PIONEER BD-RW BDR-206 Adapter: 5 ID: 0

Read mode : Secure
Utilize accurate stream : Yes
Defeat audio cache : Yes
Make use of C2 pointers : No

Read offset correction : 667
Overread into Lead-In and Lead-Out : No
Fill up missing offset samples with silence : Yes
Delete leading and trailing silent blocks : No
Null samples used in CRC calculations : Yes
Used interface : Native Win32 interface for Win NT & 2000

Used output format : User Defined Encoder
Selected bitrate : 1024 kBit/s
Quality : High
Add ID3 tag : No
Command line compressor : C:\Program Files (x86)\Exact Audio Copy\Flac\flac.exe
Additional command line options : -8 -V -T "ARTIST=%artist%" -T "TITLE=%title%" -T "ALBUM=%albumtitle%" -T "DATE=%year%" -T "TRACKNUMBER=%tracknr%" -T "GENRE=%genre%" -T "COMMENT=%comment%" -T "BAND=%albuminterpret%" -T "ALBUMARTIST=%albuminterpret%" -T "COMPOSER=%composer%" %haslyrics%–tag-from-file=LYRICS="%lyricsfile%"%haslyrics% -T "DISCNUMBER=%cdnumber%" -T "TOTALDISCS=%totalcds%" -T "TOTALTRACKS=%numtracks%" %hascover%–picture="%coverfile%"%hascover% %source% -o %dest%


TOC of the extracted CD

Track | Start | Length | Start sector | End sector
––––––––––––––––––––––––––––-
1 | 0:00.00 | 4:00.13 | 0 | 18012
2 | 4:00.13 | 3:42.32 | 18013 | 34694
3 | 7:42.45 | 4:12.51 | 34695 | 53645
4 | 11:55.21 | 3:16.03 | 53646 | 68348
5 | 15:11.24 | 2:54.31 | 68349 | 81429
6 | 18:05.55 | 2:33.14 | 81430 | 92918
7 | 20:38.69 | 2:48.01 | 92919 | 105519
8 | 23:26.70 | 3:10.02 | 105520 | 119771
9 | 26:36.72 | 3:05.18 | 119772 | 133664
10 | 29:42.15 | 3:06.34 | 133665 | 147648
11 | 32:48.49 | 2:55.52 | 147649 | 160825
12 | 35:44.26 | 2:55.44 | 160826 | 173994
13 | 38:39.70 | 4:17.57 | 173995 | 193326
14 | 42:57.52 | 3:02.71 | 193327 | 207047
15 | 46:00.48 | 2:58.61 | 207048 | 220458
16 | 48:59.34 | 3:00.64 | 220459 | 234022
17 | 52:00.23 | 2:58.27 | 234023 | 247399


Range status and errors

Selected range

Filename D:\Сборники (Flac)\VA - Pure… Blues (2010) 4CD (Flac+cue)\CD2\Various Artists - Pure Blues CD2.wav

Peak level 99.8 %
Extraction speed 7.3 X
Range quality 100.0 %
Test CRC B07A9393
Copy CRC B07A9393
Copy OK

No errors occurred


AccurateRip summary

Track 1 accurately ripped (confidence 2) [401EBB7C] (AR v2)
Track 2 accurately ripped (confidence 2) [F9AB98BE] (AR v2)
Track 3 accurately ripped (confidence 2) [1598277A] (AR v2)
Track 4 accurately ripped (confidence 2) [D46A7A7F] (AR v2)
Track 5 accurately ripped (confidence 2) [C470820B] (AR v2)
Track 6 accurately ripped (confidence 2) [B86A9F7F] (AR v2)
Track 7 accurately ripped (confidence 2) [C275F6CC] (AR v2)
Track 8 accurately ripped (confidence 2) [7F6FC866] (AR v2)
Track 9 accurately ripped (confidence 2) [366A0B77] (AR v2)
Track 10 accurately ripped (confidence 2) [DBFD241E] (AR v2)
Track 11 accurately ripped (confidence 2) [5D22E752] (AR v2)
Track 12 accurately ripped (confidence 2) [CC12B701] (AR v2)
Track 13 accurately ripped (confidence 2) [EA81ED8E] (AR v2)
Track 14 accurately ripped (confidence 2) [7C6AE3A4] (AR v2)
Track 15 accurately ripped (confidence 2) [2A5775BF] (AR v2)
Track 16 accurately ripped (confidence 2) [53C7BEC1] (AR v2)
Track 17 accurately ripped (confidence 2) [5AF30FC1] (AR v2)

All tracks accurately ripped

End of status report

–– CUETools DB Plugin V2.1.3

[CTDB TOCID: Ms2hFcWgYLSrE1qrDHMF13fONco-] found, Submit result: Ms2hFcWgYLSrE1qrDHMF13fONco- has been confirmed
[6ad4cb70] (12/12) Accurately ripped


==== Log checksum 4DF762354EBD7A1D7FFAB6C2CDADCD25C5B8ECEB31E36782B9C2BD203AE500D5 ====

foobar2000 1.2 / Dynamic Range Meter 1.1.1
log date: 2016-02-09 22:28:34

––––––––––––––––––––––––––––––––––––––––
Analyzed: Big Joe Williams / Pure… Blues CD2 (1)
Big Maceo Merriweather / Pure… Blues CD2 (2)
––––––––––––––––––––––––––––––––––––––––

DR Peak RMS Duration Track
––––––––––––––––––––––––––––––––––––––––
DR13 -0.10 dB -16.26 dB 2:48 07-Baby, Please Don't Go
DR11 -2.85 dB -15.99 dB 2:56 12-Worried Life Blues
––––––––––––––––––––––––––––––––––––––––

Number of tracks: 2
Official DR value: DR12

Samplerate: 44100 Hz
Channels: 2
Bits per sample: 16
Bitrate: 562 kbps
Codec: FLAC
================================================================================

––––––––––––––––––––––––––––––––––––––––
Analyzed: Bill Jazz Gillum / Pure… Blues CD2 (1)
Bukka White / Pure… Blues CD2 (2)
––––––––––––––––––––––––––––––––––––––––

DR Peak RMS Duration Track
––––––––––––––––––––––––––––––––––––––––
DR10 -1.90 dB -13.96 dB 2:54 05-Early In The Morning
DR9 -4.50 dB -15.13 dB 2:33 06-Give Me An Old, Old Lady
––––––––––––––––––––––––––––––––––––––––

Number of tracks: 2
Official DR value: DR9

Samplerate: 44100 Hz
Channels: 2
Bits per sample: 16
Bitrate: 562 kbps
Codec: FLAC
================================================================================

––––––––––––––––––––––––––––––––––––––––
Analyzed: Chicken Shack / Pure… Blues CD2 (1)
Earl Hines & His Orchestra / Pure… Blues CD2 (2)
Jimmy Witherspoon with Jay McShann & His Band / Pure… Blues CD2 (3)
Leroy Carr / Pure… Blues CD2 (4)
––––––––––––––––––––––––––––––––––––––––

DR Peak RMS Duration Track
––––––––––––––––––––––––––––––––––––––––
DR9 -3.30 dB -15.92 dB 3:16 04-I'd Rather Go Blind
DR11 -1.17 dB -15.44 dB 3:10 08-Stormy Monday Blues
DR11 -3.51 dB -16.65 dB 4:18 13-Confessin' The Blues
DR14 -0.60 dB -17.50 dB 2:59 15-When The Sun Goes Down
––––––––––––––––––––––––––––––––––––––––

Number of tracks: 4
Official DR value: DR11

Samplerate: 44100 Hz
Channels: 2
Bits per sample: 16
Bitrate: 562 kbps
Codec: FLAC
================================================================================

––––––––––––––––––––––––––––––––––––––––
Analyzed: Lonnie Johnson / Pure… Blues CD2 (1)
Meade Lux Lewis / Pure… Blues CD2 (2)
––––––––––––––––––––––––––––––––––––––––

DR Peak RMS Duration Track
––––––––––––––––––––––––––––––––––––––––
DR15 -0.01 dB -18.75 dB 3:03 14-No More Women Blues
DR12 -1.97 dB -15.54 dB 3:01 16-Honky Tonk Train Blues
––––––––––––––––––––––––––––––––––––––––

Number of tracks: 2
Official DR value: DR14

Samplerate: 44100 Hz
Channels: 2
Bits per sample: 16
Bitrate: 562 kbps
Codec: FLAC
================================================================================

––––––––––––––––––––––––––––––––––––––––
Analyzed: Memphis Minnie / Pure… Blues CD2 (1)
Memphis Slim / Pure… Blues CD2 (2)
––––––––––––––––––––––––––––––––––––––––

DR Peak RMS Duration Track
––––––––––––––––––––––––––––––––––––––––
DR12 -1.41 dB -15.06 dB 2:56 11-Bumble Bee Blues
DR16 -2.21 dB -20.32 dB 2:58 17-Beer Drinkin' Woman
––––––––––––––––––––––––––––––––––––––––

Number of tracks: 2
Official DR value: DR14

Samplerate: 44100 Hz
Channels: 2
Bits per sample: 16
Bitrate: 562 kbps
Codec: FLAC
================================================================================

––––––––––––––––––––––––––––––––––––––––
Statistics for: 09-That Ain't Right
Number of samples: 8169084
Duration: 3:05
––––––––––––––––––––––––––––––––––––––––

Left Right

Peak Value: -1.81 dB –- -1.81 dB
Avg RMS: -15.45 dB –- -15.45 dB
DR channel: 10.43 dB –- 10.43 dB
––––––––––––––––––––––––––––––––––––––––

Official DR Value: DR10

Samplerate: 44100 Hz
Channels: 2
Bits per sample: 16
Bitrate: 562 kbps
Codec: FLAC
================================================================================
––––––––––––––––––––––––––––––––––––––––
Analyzed: Nina Simone / Pure… Blues CD2 (1)
Roosevelt Sykes & His Original Honeydrippers / Pure… Blues CD2 (2)
––––––––––––––––––––––––––––––––––––––––

DR Peak RMS Duration Track
––––––––––––––––––––––––––––––––––––––––
DR10 -4.00 dB -16.82 dB 4:00 01-Blues For Mama
DR14 -1.51 dB -17.43 dB 3:06 10-Sunny Road
––––––––––––––––––––––––––––––––––––––––

Number of tracks: 2
Official DR value: DR12

Samplerate: 44100 Hz
Channels: 2
Bits per sample: 16
Bitrate: 562 kbps
Codec: FLAC
================================================================================

––––––––––––––––––––––––––––––––––––––––
Analyzed: Stevie Ray Vaughan & Double Trouble / Pure… Blues CD2 (1)
The Electric Flag / Pure… Blues CD2 (2)
––––––––––––––––––––––––––––––––––––––––

DR Peak RMS Duration Track
––––––––––––––––––––––––––––––––––––––––
DR12 -1.85 dB -15.09 dB 3:42 02-Pride And Joy
DR8 -6.00 dB -14.88 dB 4:13 03-Killing Floor
––––––––––––––––––––––––––––––––––––––––

Number of tracks: 2
Official DR value: DR10

Samplerate: 44100 Hz
Channels: 2
Bits per sample: 16
Bitrate: 562 kbps
Codec: FLAC
================================================================================


Exact Audio Copy V1.0 beta 3 from 29. August 2011

EAC extraction logfile from 4. May 2014, 23:24

Various Artists / Pure… Blues CD3

Used drive : PIONEER BD-RW BDR-206 Adapter: 5 ID: 0

Read mode : Secure
Utilize accurate stream : Yes
Defeat audio cache : Yes
Make use of C2 pointers : No

Read offset correction : 667
Overread into Lead-In and Lead-Out : No
Fill up missing offset samples with silence : Yes
Delete leading and trailing silent blocks : No
Null samples used in CRC calculations : Yes
Used interface : Native Win32 interface for Win NT & 2000

Used output format : User Defined Encoder
Selected bitrate : 1024 kBit/s
Quality : High
Add ID3 tag : No
Command line compressor : C:\Program Files (x86)\Exact Audio Copy\Flac\flac.exe
Additional command line options : -8 -V -T "ARTIST=%artist%" -T "TITLE=%title%" -T "ALBUM=%albumtitle%" -T "DATE=%year%" -T "TRACKNUMBER=%tracknr%" -T "GENRE=%genre%" -T "COMMENT=%comment%" -T "BAND=%albuminterpret%" -T "ALBUMARTIST=%albuminterpret%" -T "COMPOSER=%composer%" %haslyrics%–tag-from-file=LYRICS="%lyricsfile%"%haslyrics% -T "DISCNUMBER=%cdnumber%" -T "TOTALDISCS=%totalcds%" -T "TOTALTRACKS=%numtracks%" %hascover%–picture="%coverfile%"%hascover% %source% -o %dest%


TOC of the extracted CD

Track | Start | Length | Start sector | End sector
––––––––––––––––––––––––––––-
1 | 0:00.00 | 4:44.48 | 0 | 21347
2 | 4:44.48 | 2:17.07 | 21348 | 31629
3 | 7:01.55 | 2:33.44 | 31630 | 43148
4 | 9:35.24 | 3:42.33 | 43149 | 59831
5 | 13:17.57 | 2:53.64 | 59832 | 72870
6 | 16:11.46 | 3:39.70 | 72871 | 89365
7 | 19:51.41 | 2:41.38 | 89366 | 101478
8 | 22:33.04 | 3:04.18 | 101479 | 115296
9 | 25:37.22 | 3:14.30 | 115297 | 129876
10 | 28:51.52 | 3:04.51 | 129877 | 143727
11 | 31:56.28 | 3:07.01 | 143728 | 157753
12 | 35:03.29 | 2:37.35 | 157754 | 169563
13 | 37:40.64 | 2:58.63 | 169564 | 182976
14 | 40:39.52 | 2:51.67 | 182977 | 195868
15 | 43:31.44 | 3:21.01 | 195869 | 210944
16 | 46:52.45 | 3:03.74 | 210945 | 224743
17 | 49:56.44 | 2:40.70 | 224744 | 236813


Range status and errors

Selected range

Filename D:\Сборники (Flac)\VA - Pure… Blues (2010) 4CD (Flac+cue)\CD3\Various Artists - Pure… Blues CD3.wav

Peak level 100.0 %
Extraction speed 7.2 X
Range quality 100.0 %
Test CRC 8880E246
Copy CRC 8880E246
Copy OK

No errors occurred


AccurateRip summary

Track 1 accurately ripped (confidence 2) [A5653263] (AR v2)
Track 2 accurately ripped (confidence 2) [438801D7] (AR v2)
Track 3 accurately ripped (confidence 2) [193FD529] (AR v2)
Track 4 accurately ripped (confidence 2) [49CE96F4] (AR v2)
Track 5 accurately ripped (confidence 2) [1B122408] (AR v2)
Track 6 accurately ripped (confidence 2) [C3298624] (AR v2)
Track 7 accurately ripped (confidence 2) [825D92CA] (AR v2)
Track 8 accurately ripped (confidence 2) [62B5E05E] (AR v2)
Track 9 accurately ripped (confidence 2) [D3A276F2] (AR v2)
Track 10 accurately ripped (confidence 2) [3BEFE2A1] (AR v2)
Track 11 accurately ripped (confidence 2) [D502C0C1] (AR v2)
Track 12 accurately ripped (confidence 2) [A183E5B7] (AR v2)
Track 13 accurately ripped (confidence 2) [83E24886] (AR v2)
Track 14 accurately ripped (confidence 2) [34204595] (AR v2)
Track 15 accurately ripped (confidence 2) [856A4E50] (AR v2)
Track 16 accurately ripped (confidence 2) [56E1130E] (AR v2)
Track 17 accurately ripped (confidence 2) [CBFBBD6D] (AR v2)

All tracks accurately ripped

End of status report

–– CUETools DB Plugin V2.1.3

[CTDB TOCID: zC1D_ghh90bWd9RoLh8XWhPp4gk-] found, Submit result: zC1D_ghh90bWd9RoLh8XWhPp4gk- has been confirmed
[297a1772] (11/12) Accurately ripped
[c1e21f8d] (01/12) No match


==== Log checksum 1599ABF120CE7445F29C666393F5B65567F51840A24FAC6D1D2649C8D54A8BAF ====

foobar2000 1.2 / Dynamic Range Meter 1.1.1
log date: 2016-02-09 22:28:50

––––––––––––––––––––––––––––––––––––––––
Analyzed: Arthur 'Big Boy' Crudup / Pure… Blues CD3 (1)
Big Bill Broonzy / Pure… Blues CD3 (2)
––––––––––––––––––––––––––––––––––––––––

DR Peak RMS Duration Track
––––––––––––––––––––––––––––––––––––––––
DR10 0.00 dB -11.78 dB 2:37 12-Mean Old Frisco Blues
DR13 -0.01 dB -16.00 dB 3:21 15-Friendless Blues
––––––––––––––––––––––––––––––––––––––––

Number of tracks: 2
Official DR value: DR11

Samplerate: 44100 Hz
Channels: 2
Bits per sample: 16
Bitrate: 718 kbps
Codec: FLAC
================================================================================

––––––––––––––––––––––––––––––––––––––––
Analyzed: Big Maceo Merriweather / Pure… Blues CD3 (1)
Billie Holiday And Her Orchestra / Pure… Blues CD3 (2)
––––––––––––––––––––––––––––––––––––––––

DR Peak RMS Duration Track
––––––––––––––––––––––––––––––––––––––––
DR9 -0.01 dB -10.13 dB 2:42 07-Broke And Hungry Blues
DR10 0.00 dB -12.14 dB 2:41 17-Billie's Blues (I Love My Man)
––––––––––––––––––––––––––––––––––––––––

Number of tracks: 2
Official DR value: DR9

Samplerate: 44100 Hz
Channels: 2
Bits per sample: 16
Bitrate: 718 kbps
Codec: FLAC
================================================================================

––––––––––––––––––––––––––––––––––––––––
Statistics for: 10-Rag Mama Rag
Number of samples: 8144388
Duration: 3:05
––––––––––––––––––––––––––––––––––––––––

Left Right

Peak Value: -0.86 dB –- -0.81 dB
Avg RMS: -10.17 dB –- -9.67 dB
DR channel: 8.34 dB –- 7.86 dB
––––––––––––––––––––––––––––––––––––––––

Official DR Value: DR8

Samplerate: 44100 Hz
Channels: 2
Bits per sample: 16
Bitrate: 718 kbps
Codec: FLAC
================================================================================
––––––––––––––––––––––––––––––––––––––––
Analyzed: Eddie ''Cleanhead'' Vinson / Pure… Blues CD3 (1)
Etta James / Pure… Blues CD3 (2)
Joe Turner / Pure… Blues CD3 (3)
––––––––––––––––––––––––––––––––––––––––

DR Peak RMS Duration Track
––––––––––––––––––––––––––––––––––––––––
DR10 -0.01 dB -12.74 dB 2:34 03-Cleanhead Blues
DR10 -0.11 dB -12.05 dB 3:42 04-Hold Me (Just A Little Longer Tonight)
DR12 -0.01 dB -13.73 dB 2:52 14-Careless Love
––––––––––––––––––––––––––––––––––––––––

Number of tracks: 3
Official DR value: DR11

Samplerate: 44100 Hz
Channels: 2
Bits per sample: 16
Bitrate: 718 kbps
Codec: FLAC
================================================================================

––––––––––––––––––––––––––––––––––––––––
Statistics for: 06-Everyday I Have The Blues
Number of samples: 9699060
Duration: 3:40
––––––––––––––––––––––––––––––––––––––––

Left Right

Peak Value: -0.02 dB –- -0.01 dB
Avg RMS: -9.51 dB –- -9.92 dB
DR channel: 7.33 dB –- 7.73 dB
––––––––––––––––––––––––––––––––––––––––

Official DR Value: DR8

Samplerate: 44100 Hz
Channels: 2
Bits per sample: 16
Bitrate: 718 kbps
Codec: FLAC
================================================================================
––––––––––––––––––––––––––––––––––––––––
Analyzed: Johnny Shines / Pure… Blues CD3 (1)
Robert Johnson / Pure… Blues CD3 (2)
––––––––––––––––––––––––––––––––––––––––

DR Peak RMS Duration Track
––––––––––––––––––––––––––––––––––––––––
DR10 0.00 dB -12.02 dB 2:54 05-Babt Don't You Thibk I Know
DR10 -0.01 dB -14.20 dB 2:59 13-Sweet Home Chicago
––––––––––––––––––––––––––––––––––––––––

Number of tracks: 2
Official DR value: DR10

Samplerate: 44100 Hz
Channels: 2
Bits per sample: 16
Bitrate: 718 kbps
Codec: FLAC
================================================================================

––––––––––––––––––––––––––––––––––––––––
Analyzed: Robert Lee McCoy / Pure… Blues CD3 (1)
Sonny Boy Williamson / Pure… Blues CD3 (2)
Tommy McClennan / Pure… Blues CD3 (3)
––––––––––––––––––––––––––––––––––––––––

DR Peak RMS Duration Track
––––––––––––––––––––––––––––––––––––––––
DR9 -0.01 dB -11.61 dB 3:04 08-Prowling Night Hawk
DR9 0.00 dB -11.06 dB 3:14 09-Deep Down In The Ground
DR8 -1.31 dB -10.38 dB 3:07 11-Love My Baby
––––––––––––––––––––––––––––––––––––––––

Number of tracks: 3
Official DR value: DR9

Samplerate: 44100 Hz
Channels: 2
Bits per sample: 16
Bitrate: 718 kbps
Codec: FLAC
================================================================================

––––––––––––––––––––––––––––––––––––––––
Statistics for: 02-Sawbuk
Number of samples: 6045816
Duration: 2:17
––––––––––––––––––––––––––––––––––––––––

Left Right

Peak Value: -0.51 dB –- -0.34 dB
Avg RMS: -9.95 dB –- -8.12 dB
DR channel: 7.41 dB –- 6.28 dB
––––––––––––––––––––––––––––––––––––––––

Official DR Value: DR7

Samplerate: 44100 Hz
Channels: 2
Bits per sample: 16
Bitrate: 718 kbps
Codec: FLAC
================================================================================
––––––––––––––––––––––––––––––––––––––––
Analyzed: Vaughan Brothers / Pure… Blues CD3 (1)
Washboard Sam And Her Washboard Band / Pure… Blues CD3 (2)
––––––––––––––––––––––––––––––––––––––––

DR Peak RMS Duration Track
––––––––––––––––––––––––––––––––––––––––
DR9 0.00 dB -10.50 dB 4:45 01-Hard To Be
DR8 -0.01 dB -9.69 dB 3:04 16-She's Makin' A Fool Out Of Me
––––––––––––––––––––––––––––––––––––––––

Number of tracks: 2
Official DR value: DR9

Samplerate: 44100 Hz
Channels: 2
Bits per sample: 16
Bitrate: 718 kbps
Codec: FLAC
================================================================================


Exact Audio Copy V1.0 beta 3 from 29. August 2011

EAC extraction logfile from 4. May 2014, 23:54

Various Artists / Pure Blues CD4

Used drive : PIONEER BD-RW BDR-206 Adapter: 5 ID: 0

Read mode : Secure
Utilize accurate stream : Yes
Defeat audio cache : Yes
Make use of C2 pointers : No

Read offset correction : 667
Overread into Lead-In and Lead-Out : No
Fill up missing offset samples with silence : Yes
Delete leading and trailing silent blocks : No
Null samples used in CRC calculations : Yes
Used interface : Native Win32 interface for Win NT & 2000

Used output format : User Defined Encoder
Selected bitrate : 1024 kBit/s
Quality : High
Add ID3 tag : No
Command line compressor : C:\Program Files (x86)\Exact Audio Copy\Flac\flac.exe
Additional command line options : -8 -V -T "ARTIST=%artist%" -T "TITLE=%title%" -T "ALBUM=%albumtitle%" -T "DATE=%year%" -T "TRACKNUMBER=%tracknr%" -T "GENRE=%genre%" -T "COMMENT=%comment%" -T "BAND=%albuminterpret%" -T "ALBUMARTIST=%albuminterpret%" -T "COMPOSER=%composer%" %haslyrics%–tag-from-file=LYRICS="%lyricsfile%"%haslyrics% -T "DISCNUMBER=%cdnumber%" -T "TOTALDISCS=%totalcds%" -T "TOTALTRACKS=%numtracks%" %hascover%–picture="%coverfile%"%hascover% %source% -o %dest%


TOC of the extracted CD

Track | Start | Length | Start sector | End sector
––––––––––––––––––––––––––––-
1 | 0:00.00 | 6:05.49 | 0 | 27423
2 | 6:05.49 | 2:51.43 | 27424 | 40291
3 | 8:57.17 | 3:01.53 | 40292 | 53919
4 | 11:58.70 | 5:32.05 | 53920 | 78824
5 | 17:31.00 | 4:15.60 | 78825 | 98009
6 | 21:46.60 | 3:06.67 | 98010 | 112026
7 | 24:53.52 | 2:53.41 | 112027 | 125042
8 | 27:47.18 | 3:05.10 | 125043 | 138927
9 | 30:52.28 | 3:25.01 | 138928 | 154303
10 | 34:17.29 | 2:58.42 | 154304 | 167695
11 | 37:15.71 | 3:06.40 | 167696 | 181685
12 | 40:22.36 | 3:18.37 | 181686 | 196572
13 | 43:40.73 | 3:13.05 | 196573 | 211052
14 | 46:54.03 | 2:40.57 | 211053 | 223109
15 | 49:34.60 | 3:06.74 | 223110 | 237133
16 | 52:41.59 | 2:19.35 | 237134 | 247593
17 | 55:01.19 | 4:20.38 | 247594 | 267131


Range status and errors

Selected range

Filename D:\Сборники (Flac)\VA - Pure… Blues (2010) 4CD (Flac+cue)\CD4\Various Artists - Pure Blues CD4.wav

Peak level 99.9 %
Extraction speed 7.4 X
Range quality 100.0 %
Test CRC 06EA7889
Copy CRC 06EA7889
Copy OK

No errors occurred


AccurateRip summary

Track 1 accurately ripped (confidence 2) [085817FA] (AR v2)
Track 2 accurately ripped (confidence 2) [0A7870EF] (AR v2)
Track 3 accurately ripped (confidence 2) [A077AAE0] (AR v2)
Track 4 accurately ripped (confidence 2) [AE9902D6] (AR v2)
Track 5 accurately ripped (confidence 2) [09893B53] (AR v2)
Track 6 accurately ripped (confidence 2) [9FC76F2E] (AR v2)
Track 7 accurately ripped (confidence 2) [2FBE1C7B] (AR v2)
Track 8 accurately ripped (confidence 2) [FB7DCA61] (AR v2)
Track 9 accurately ripped (confidence 2) [713463F3] (AR v2)
Track 10 accurately ripped (confidence 2) [121C7FFE] (AR v2)
Track 11 accurately ripped (confidence 2) [D0B0950E] (AR v2)
Track 12 accurately ripped (confidence 2) [011FEC25] (AR v2)
Track 13 accurately ripped (confidence 2) [670E2730] (AR v2)
Track 14 accurately ripped (confidence 2) [D8A3B14F] (AR v2)
Track 15 accurately ripped (confidence 2) [48F0B066] (AR v2)
Track 16 accurately ripped (confidence 2) [1B41460A] (AR v2)
Track 17 accurately ripped (confidence 2) [3C80BC3C] (AR v2)

All tracks accurately ripped

End of status report

–– CUETools DB Plugin V2.1.3

[CTDB TOCID: N2.d9GaFFHeKCF.G8sBRZzAZOJo-] found, Submit result: N2.d9GaFFHeKCF.G8sBRZzAZOJo- has been confirmed
[a56b92e5] (13/13) Accurately ripped


==== Log checksum 916E330B66B90019FE8A3D8A37F2524E7A84E2E763EF26F11467E0C80D32641A ====

foobar2000 1.2 / Dynamic Range Meter 1.1.1
log date: 2016-02-09 22:29:11

––––––––––––––––––––––––––––––––––––––––
Analyzed: Benny Goodman Quartet / Pure… Blues CD4 (1)
Blind Willie McTell / Pure… Blues CD4 (2)
Brownie McGhee / Pure… Blues CD4 (3)
––––––––––––––––––––––––––––––––––––––––

DR Peak RMS Duration Track
––––––––––––––––––––––––––––––––––––––––
DR12 -0.01 dB -15.98 dB 3:25 09-The Blues In My Flat
DR9 -0.10 dB -9.88 dB 3:13 13-Southern Can Is Mine
DR13 -0.01 dB -15.70 dB 2:41 14-Key To The Highway 70 No. 1
––––––––––––––––––––––––––––––––––––––––

Number of tracks: 3
Official DR value: DR11

Samplerate: 44100 Hz
Channels: 2
Bits per sample: 16
Bitrate: 641 kbps
Codec: FLAC
================================================================================

––––––––––––––––––––––––––––––––––––––––
Statistics for: 07-Brand New Wagon
Number of samples: 7653408
Duration: 2:54
––––––––––––––––––––––––––––––––––––––––

Left Right

Peak Value: -0.01 dB –- -0.01 dB
Avg RMS: -12.47 dB –- -12.47 dB
DR channel: 9.12 dB –- 9.12 dB
––––––––––––––––––––––––––––––––––––––––

Official DR Value: DR9

Samplerate: 44100 Hz
Channels: 2
Bits per sample: 16
Bitrate: 641 kbps
Codec: FLAC
================================================================================
––––––––––––––––––––––––––––––––––––––––
Analyzed: Duke Ellington & His Famous Orchestra / Pure… Blues CD4 (1)
Furry Lewis / Pure… Blues CD4 (2)
––––––––––––––––––––––––––––––––––––––––

DR Peak RMS Duration Track
––––––––––––––––––––––––––––––––––––––––
DR8 -0.01 dB -10.48 dB 3:07 06-Rocks In My Bed
DR10 -0.01 dB -13.22 dB 3:07 11-Kassie Jones, Part I
––––––––––––––––––––––––––––––––––––––––

Number of tracks: 2
Official DR value: DR9

Samplerate: 44100 Hz
Channels: 2
Bits per sample: 16
Bitrate: 641 kbps
Codec: FLAC
================================================================================

––––––––––––––––––––––––––––––––––––––––
Analyzed: Henry 'Red' Allen / Pure… Blues CD4 (1)
Jack Teagarden's Big Eight / Pure… Blues CD4 (2)
Jeff Beck / Pure… Blues CD4 (3)
––––––––––––––––––––––––––––––––––––––––

DR Peak RMS Duration Track
––––––––––––––––––––––––––––––––––––––––
DR11 -0.10 dB -13.27 dB 5:32 04-Let Me Miss You, Baby
DR11 -0.01 dB -13.29 dB 3:05 08-St. Louis Blues
DR9 -2.01 dB -12.31 dB 4:21 17-JB's Blues
––––––––––––––––––––––––––––––––––––––––

Number of tracks: 3
Official DR value: DR10

Samplerate: 44100 Hz
Channels: 2
Bits per sample: 16
Bitrate: 641 kbps
Codec: FLAC
================================================================================

––––––––––––––––––––––––––––––––––––––––
Analyzed: Jellybread / Pure… Blues CD4 (1)
Keb' Mo' / Pure… Blues CD4 (2)
––––––––––––––––––––––––––––––––––––––––

DR Peak RMS Duration Track
––––––––––––––––––––––––––––––––––––––––
DR10 -0.01 dB -12.69 dB 2:52 02-I've Got To Forget You
DR11 -0.01 dB -12.98 dB 2:19 16-Am I Wrong
––––––––––––––––––––––––––––––––––––––––

Number of tracks: 2
Official DR value: DR11

Samplerate: 44100 Hz
Channels: 2
Bits per sample: 16
Bitrate: 641 kbps
Codec: FLAC
================================================================================

––––––––––––––––––––––––––––––––––––––––
Analyzed: Lil Green / Pure… Blues CD4 (1)
Lonnie Johnson / Pure… Blues CD4 (2)
––––––––––––––––––––––––––––––––––––––––

DR Peak RMS Duration Track
––––––––––––––––––––––––––––––––––––––––
DR13 -0.01 dB -15.31 dB 2:59 10-Why Don't You Do Right? (Get Me Some Money Too)
DR9 -0.40 dB -11.49 dB 3:18 12-Wipe It Off
––––––––––––––––––––––––––––––––––––––––

Number of tracks: 2
Official DR value: DR11

Samplerate: 44100 Hz
Channels: 2
Bits per sample: 16
Bitrate: 641 kbps
Codec: FLAC
================================================================================

––––––––––––––––––––––––––––––––––––––––
Analyzed: Louis Armstrong & His All Stars / Pure… Blues CD4 (1)
Memphis Slim / Pure… Blues CD4 (2)
––––––––––––––––––––––––––––––––––––––––

DR Peak RMS Duration Track
––––––––––––––––––––––––––––––––––––––––
DR9 -0.01 dB -11.20 dB 4:16 05-Back O' Town Blues
DR10 -0.01 dB -12.01 dB 3:07 15-Lend Me Your Love
––––––––––––––––––––––––––––––––––––––––

Number of tracks: 2
Official DR value: DR9

Samplerate: 44100 Hz
Channels: 2
Bits per sample: 16
Bitrate: 641 kbps
Codec: FLAC
================================================================================

––––––––––––––––––––––––––––––––––––––––
Analyzed: Muddy Waters / Pure… Blues CD4 (1)
Taj Mahal / Pure… Blues CD4 (2)
––––––––––––––––––––––––––––––––––––––––

DR Peak RMS Duration Track
––––––––––––––––––––––––––––––––––––––––
DR10 -0.01 dB -13.34 dB 6:06 01-Howling Wolf [live]
DR11 -0.01 dB -12.45 dB 3:02 03-Corinna
––––––––––––––––––––––––––––––––––––––––

Number of tracks: 2
Official DR value: DR11

Samplerate: 44100 Hz
Channels: 2
Bits per sample: 16
Bitrate: 641 kbps
Codec: FLAC
================================================================================


Various Artists - Pure... Blues (2010) 4 CD Box Set [Re-Up]

All thanks to original releaser - gvm55

More interesting music in My Blog