Subcategories

VA - Sult: Spirit of the Music (1996)

Posted By: Designol
VA - Sult: Spirit of the Music (1996)

VA - Sult: Spirit of the Music (1996)
EAC | WV | Image (Cue&Log) ~ 367 Mb | Mp3 (CBR320) ~ 180 Mb | Scans included
Celtic, Traditional Irish Folk, Folk-Rock | Label: The Bottom Line | # BTL97302-2 | 01:06:41

Under the musical direction of Donal Lunny, features big names such as John McSherry, Nollaig Casey, Van Morrison, Maire Brennan, Stephen Cooney, Nomos, Matt Molloy, Pat Crowley, Noel Bridgeman, Maire Breatnach, Seamus Begley, John Spillane, Liam 0' Flynn, Paul Brady, Mark Knopfler, Anuna, Brian Kennedy, Laoise Kelly, Maighréad Ní Dhomhnaill, Mairtin 0' Connor, Iarla Ó Lionaird and Sharon Shannon.

"Sult" is Irish for "pleasure," and that's what this album is: a real pleasure. It is a soundtrack from an Irish television show that was hosted by the great Donal Lunny – I wish the program was available on DVD. There's a tremendous mix of talent here. It has a great mix of old tunes and modern songs, and they tend to mix it up a little with traditional artists doing popular tracks like Crazy Love and pop artists interpreting the trad songs. Paul Brady's version of "Rocks of Bawn" is heartbreaking and Van Morrison knocks me over every time with this version of "St. Dominic's Preview." Mark Knopfler breathes new life into the often covered "Raglan Road" and "Siúil a Rúin" by Maighréad Ní Dhomhnaill and Iarla Ó Lionaird takes your breath away. I can listen to this one over and over again, non-stop, for hours. It lives up to its name!

Review by Amazon Customer

Very happy with CD and seller. I bought it really for The Van Morrison track, St Dominics Preview, produced by Donal Lunny (who is also playing Boosuki on track) , with Mary Black on backing vocals..and a younger Steve Cooney on bass, Richie Buckley on Sax and otther very fine mucisians. There are many other excellent tracks on this CD. Quality music and song, all with Irish Connections.

Review by Irishding, Amazon.co.uk


Tracklist:

01. The Sult House Band featuring John McSherry - Sult Theme (02:20)
02. Van Morrison - St. Dominic's Preview (06:48)
03. Maire Brennan - Oro (03:53)
04. Nollaig Casey - Causeway (03:07)
05. Mark Knopfler - On Raglan Road (05:33)
06. Sharon Shannon & Laoise Kelly - Murphy Tunes (03:24)
07. Paul Brady - Rocks of Bawn (04:53)
08. Mairtin O'Connor - Liquid Sunshine (03:29)
09. Maighread NiDhomhnaill & Iarla O'Lionaird - Siuil a Ruin (04:47)
10. Nomos - Rollicking Boys of Tandagree (04:17)
11. Matt Molloy - Scaruint na gCompanach (The Parting of Friends) (02:59)
12. Maire Breatnach - Mystic Slip Jigs (03:34)
13. Brian Kennedy & Anuna - Crazy Love (03:11)
14. Stephen Cooney & Seamus Begley - Bridin Bheasaigh, Peata an Mhaoir, Sweet Biddy Daly, Far from Home (04:33)
15. John Spillane - Rinn na Mara (02:17)
16. Liam O'Flynn - Cailin na Gruaige Doinne (The Brown Haired Girl) (04:03)
17. The Sult House Band featuring Nollaig Casey - Sult Theme (03:28)


Exact Audio Copy V0.99 prebeta 5 from 4. May 2009

EAC extraction logfile from 6. December 2011, 0:37

Various / Sult - Spirit of the Music

Used drive : _NEC DVD_RW ND-4550A Adapter: 4 ID: 0

Read mode : Secure
Utilize accurate stream : Yes
Defeat audio cache : Yes
Make use of C2 pointers : No

Read offset correction : 48
Overread into Lead-In and Lead-Out : No
Fill up missing offset samples with silence : Yes
Delete leading and trailing silent blocks : No
Null samples used in CRC calculations : Yes
Used interface : Native Win32 interface for Win NT & 2000

Used output format : User Defined Encoder
Selected bitrate : 896 kBit/s
Quality : High
Add ID3 tag : No
Command line compressor : D:\temp\audio\WV\wavpack.exe
Additional command line options : -w "Artist=%a" -w "Title=%t" -w "Album=%g" -w "Year=%y" -w "Track=%n" -w "Genre=%m" -h %s %d


TOC of the extracted CD

Track | Start | Length | Start sector | End sector
––––––––––––––––––––––––––––-
1 | 0:00.00 | 2:20.10 | 0 | 10509
2 | 2:20.10 | 6:48.52 | 10510 | 41161
3 | 9:08.62 | 3:53.38 | 41162 | 58674
4 | 13:02.25 | 3:07.12 | 58675 | 72711
5 | 16:09.37 | 5:33.00 | 72712 | 97686
6 | 21:42.37 | 3:24.10 | 97687 | 112996
7 | 25:06.47 | 4:53.35 | 112997 | 135006
8 | 30:00.07 | 3:29.20 | 135007 | 150701
9 | 33:29.27 | 4:47.38 | 150702 | 172264
10 | 38:16.65 | 4:17.42 | 172265 | 191581
11 | 42:34.32 | 2:59.03 | 191582 | 205009
12 | 45:33.35 | 3:34.57 | 205010 | 221116
13 | 49:08.17 | 3:11.23 | 221117 | 235464
14 | 52:19.40 | 4:33.00 | 235465 | 255939
15 | 56:52.40 | 2:17.60 | 255940 | 266274
16 | 59:10.25 | 4:03.05 | 266275 | 284504
17 | 63:13.30 | 3:28.45 | 284505 | 300149


Range status and errors

Selected range

Filename D:\downloads\torrents\- RAZDACHA\Sult - Spirit of the Music\Various - Sult - Spirit of the Music.wav

Peak level 100.0 %
Range quality 99.9 %
Copy CRC 9DD4E2DA
Copy OK

No errors occurred


AccurateRip summary

Track 1 accurately ripped (confidence 3) [6066D1A5]
Track 2 accurately ripped (confidence 4) [AD6FA921]
Track 3 accurately ripped (confidence 3) [9926E03A]
Track 4 accurately ripped (confidence 3) [DCAAE6A0]
Track 5 accurately ripped (confidence 3) [5DDBDA73]
Track 6 accurately ripped (confidence 3) [C265626C]
Track 7 accurately ripped (confidence 3) [BFDF635A]
Track 8 accurately ripped (confidence 3) [CA5E269A]
Track 9 accurately ripped (confidence 3) [91782410]
Track 10 accurately ripped (confidence 3) [CADE3EB6]
Track 11 accurately ripped (confidence 3) [59EBE421]
Track 12 accurately ripped (confidence 3) [7251C5C3]
Track 13 accurately ripped (confidence 3) [AAAD68C7]
Track 14 accurately ripped (confidence 3) [A7866F5F]
Track 15 accurately ripped (confidence 3) [BB0DB610]
Track 16 accurately ripped (confidence 2) [70AA371E]
Track 17 accurately ripped (confidence 2) [731989CF]

All tracks accurately ripped

End of status report

[CUETools log; Date: 21.10.2015 16:06:29; Version: 2.1.4]
[CTDB TOCID: fBA2OtWy7DvCu6vaHsGUnouqpd4-] found.
Track | CTDB Status
1 | (5/5) Accurately ripped
2 | (5/5) Accurately ripped
3 | (5/5) Accurately ripped
4 | (5/5) Accurately ripped
5 | (5/5) Accurately ripped
6 | (5/5) Accurately ripped
7 | (5/5) Accurately ripped
8 | (5/5) Accurately ripped
9 | (5/5) Accurately ripped
10 | (5/5) Accurately ripped
11 | (5/5) Accurately ripped
12 | (5/5) Accurately ripped
13 | (5/5) Accurately ripped
14 | (5/5) Accurately ripped
15 | (5/5) Accurately ripped
16 | (5/5) Accurately ripped
17 | (5/5) Accurately ripped
[AccurateRip ID: 002ae771-021b7e46-e00fa211] found.
Track [ CRC | V2 ] Status
01 [6066d1a5|15b1bce5] (03+00/15) Accurately ripped
02 [ad6fa921|c5defd41] (04+00/16) Accurately ripped
03 [9926e03a|5ae32322] (03+00/14) Accurately ripped
04 [dcaae6a0|f21c63d0] (03+00/16) Accurately ripped
05 [5ddbda73|9953970a] (03+00/17) Accurately ripped
06 [c265626c|78a1e118] (03+00/16) Accurately ripped
07 [bfdf635a|f0dae7a9] (03+00/16) Accurately ripped
08 [ca5e269a|148a3416] (03+00/16) Accurately ripped
09 [91782410|157472d1] (03+00/16) Accurately ripped
10 [cade3eb6|98565663] (03+00/16) Accurately ripped
11 [59ebe421|ae421621] (03+00/16) Accurately ripped
12 [7251c5c3|91de9ecf] (03+00/16) Accurately ripped
13 [aaad68c7|0a52be79] (03+00/16) Accurately ripped
14 [a7866f5f|f84468c7] (03+00/16) Accurately ripped
15 [bb0db610|229525c4] (03+00/16) Accurately ripped
16 [70aa371e|e5a30795] (02+00/15) Accurately ripped
17 [731989cf|a377c1f8] (02+00/14) Accurately ripped
Offsetted by 272:
01 [bf33822c] (05/15) Accurately ripped
02 [995b0206] (05/16) Accurately ripped
03 [3983792d] (04/14) Accurately ripped
04 [92a0bbc9] (06/16) Accurately ripped
05 [69bead60] (06/17) Accurately ripped
06 [7c3a73d7] (06/16) Accurately ripped
07 [d6a0641d] (06/16) Accurately ripped
08 [f3c96188] (06/16) Accurately ripped
09 [7e71ef3c] (06/16) Accurately ripped
10 [86b697ce] (06/16) Accurately ripped
11 [af484f7f] (06/16) Accurately ripped
12 [ab18359f] (06/16) Accurately ripped
13 [ca7dcf51] (06/16) Accurately ripped
14 [f7770d63] (06/16) Accurately ripped
15 [7bd6c4a4] (06/16) Accurately ripped
16 [5578c989] (06/15) Accurately ripped
17 [391d69ee] (05/14) Accurately ripped

Track Peak [ CRC32 ] [W/O NULL] [ LOG ]
– 100,0 [9DD4E2DA] [A0367155] CRC32
01 65,5 [874B6978] [F40D5766]
02 100,0 [DE30FF19] [EF87D345]
03 31,5 [65B40891] [86708EF2]
04 78,3 [E3032F06] [B42C8062]
05 55,7 [A81E55ED] [4BF9D28A]
06 76,8 [E56BF137] [24198C0B]
07 34,1 [76560851] [22DAF7C4]
08 71,0 [63458CA1] [8634DEB3]
09 47,8 [96F4B7A2] [D90C4F26]
10 89,0 [C0DB564F] [DF773D10]
11 26,1 [8AF36A4C] [38762133]
12 34,0 [7EB6679B] [99DFB34B]
13 42,5 [86FF30B1] [4662240C]
14 77,4 [7BED752C] [785549F5]
15 40,8 [A94728DA] [8C9C2D7F]
16 39,8 [9C00BEC0] [2357EA87]
17 80,1 [46BB1BA7] [3627EBC6]

foobar2000 1.2 / Dynamic Range Meter 1.1.1
log date: 2015-10-21 15:34:08

––––––––––––––––––––––––––––––––––––––––
Analyzed: Brian Kennedy & Anuna / Sult - Spirit of the Music (1)
John Spillane / Sult - Spirit of the Music (2)
Liam O'Flynn / Sult - Spirit of the Music (3)
––––––––––––––––––––––––––––––––––––––––

DR Peak RMS Duration Track
––––––––––––––––––––––––––––––––––––––––
DR14 -7.41 dB -25.31 dB 3:11 13-Crazy Love
DR13 -7.78 dB -23.94 dB 2:18 15-Rinn na Mara
DR12 -8.00 dB -22.79 dB 4:03 16-Cailin na Gruaige Doinne (The Brown Haired Girl)
––––––––––––––––––––––––––––––––––––––––

Number of tracks: 3
Official DR value: DR13

Samplerate: 44100 Hz
Channels: 2
Bits per sample: 16
Bitrate: 712 kbps
Codec: WavPack
================================================================================

––––––––––––––––––––––––––––––––––––––––
Analyzed: Maighread NiDhomhnaill & Iarla O'Lionaird / Sult - Spirit of the Music (1)
Maire Breatnach / Sult - Spirit of the Music (2)
––––––––––––––––––––––––––––––––––––––––

DR Peak RMS Duration Track
––––––––––––––––––––––––––––––––––––––––
DR12 -6.40 dB -22.46 dB 4:48 09-Siuil a Ruin
DR13 -9.35 dB -24.26 dB 3:35 12-Mystic Slip Jigs
––––––––––––––––––––––––––––––––––––––––

Number of tracks: 2
Official DR value: DR12

Samplerate: 44100 Hz
Channels: 2
Bits per sample: 16
Bitrate: 712 kbps
Codec: WavPack
================================================================================

––––––––––––––––––––––––––––––––––––––––
Analyzed: Maire Brennan / Sult - Spirit of the Music (1)
Mairtin O'Connor / Sult - Spirit of the Music (2)
––––––––––––––––––––––––––––––––––––––––

DR Peak RMS Duration Track
––––––––––––––––––––––––––––––––––––––––
DR13 -10.02 dB -28.14 dB 3:54 03-Oro
DR12 -2.97 dB -16.88 dB 3:29 08-Liquid Sunshine
––––––––––––––––––––––––––––––––––––––––

Number of tracks: 2
Official DR value: DR13

Samplerate: 44100 Hz
Channels: 2
Bits per sample: 16
Bitrate: 712 kbps
Codec: WavPack
================================================================================

––––––––––––––––––––––––––––––––––––––––
Analyzed: Mark Knopfler / Sult - Spirit of the Music (1)
Matt Molloy / Sult - Spirit of the Music (2)
––––––––––––––––––––––––––––––––––––––––

DR Peak RMS Duration Track
––––––––––––––––––––––––––––––––––––––––
DR13 -5.07 dB -22.48 dB 5:33 05-On Raglan Road
DR7 -11.65 dB -20.54 dB 2:59 11-Scaruint na gCompanach (The Parting of Friends)
––––––––––––––––––––––––––––––––––––––––

Number of tracks: 2
Official DR value: DR10

Samplerate: 44100 Hz
Channels: 2
Bits per sample: 16
Bitrate: 712 kbps
Codec: WavPack
================================================================================

––––––––––––––––––––––––––––––––––––––––
Analyzed: Nollaig Casey / Sult - Spirit of the Music (1)
Nomos / Sult - Spirit of the Music (2)
––––––––––––––––––––––––––––––––––––––––

DR Peak RMS Duration Track
––––––––––––––––––––––––––––––––––––––––
DR14 -2.12 dB -18.79 dB 3:07 04-Causeway
DR13 -1.01 dB -17.03 dB 4:18 10-Rollicking Boys of Tandagree
––––––––––––––––––––––––––––––––––––––––

Number of tracks: 2
Official DR value: DR14

Samplerate: 44100 Hz
Channels: 2
Bits per sample: 16
Bitrate: 712 kbps
Codec: WavPack
================================================================================

––––––––––––––––––––––––––––––––––––––––
Statistics for: 07-Rocks of Bawn
Number of samples: 12941880
Duration: 4:53
––––––––––––––––––––––––––––––––––––––––

Left Right

Peak Value: -9.41 dB –- -9.33 dB
Avg RMS: -24.82 dB –- -25.17 dB
DR channel: 11.97 dB –- 12.11 dB
––––––––––––––––––––––––––––––––––––––––

Official DR Value: DR12

Samplerate: 44100 Hz
Channels: 2
Bits per sample: 16
Bitrate: 712 kbps
Codec: WavPack
================================================================================
––––––––––––––––––––––––––––––––––––––––
Analyzed: Sharon Shannon & Laoise Kelly / Sult - Spirit of the Music (1)
Stephen Cooney & Seamus Begley / Sult - Spirit of the Music (2)
––––––––––––––––––––––––––––––––––––––––

DR Peak RMS Duration Track
––––––––––––––––––––––––––––––––––––––––
DR15 -2.28 dB -19.07 dB 3:24 06-Murphy Tunes
DR16 -2.22 dB -22.07 dB 4:33 14-Bridin Bheasaigh, Peata an Mhaoir, Sweet Biddy Daly, Far from Home
––––––––––––––––––––––––––––––––––––––––

Number of tracks: 2
Official DR value: DR15

Samplerate: 44100 Hz
Channels: 2
Bits per sample: 16
Bitrate: 712 kbps
Codec: WavPack
================================================================================

––––––––––––––––––––––––––––––––––––––––
Analyzed: The Sult House Band featuring John McSherry / Sult - Spirit of the Music (1)
The Sult House Band featuring Nollaig Casey / Sult - Spirit of the Music (2)
––––––––––––––––––––––––––––––––––––––––

DR Peak RMS Duration Track
––––––––––––––––––––––––––––––––––––––––
DR13 -3.67 dB -17.88 dB 2:20 01-Sult Theme
DR15 -1.93 dB -20.45 dB 3:29 17-Sult Theme
––––––––––––––––––––––––––––––––––––––––

Number of tracks: 2
Official DR value: DR14

Samplerate: 44100 Hz
Channels: 2
Bits per sample: 16
Bitrate: 712 kbps
Codec: WavPack
================================================================================

––––––––––––––––––––––––––––––––––––––––
Statistics for: 02-St. Dominic's Preview
Number of samples: 18023376
Duration: 6:49
––––––––––––––––––––––––––––––––––––––––

Left Right

Peak Value: 0.00 dB –- 0.00 dB
Avg RMS: -16.88 dB –- -16.45 dB
DR channel: 13.34 dB –- 13.25 dB
––––––––––––––––––––––––––––––––––––––––

Official DR Value: DR13

Samplerate: 44100 Hz
Channels: 2
Bits per sample: 16
Bitrate: 712 kbps
Codec: WavPack
================================================================================

VA - Sult: Spirit of the Music (1996)

VA - Sult: Spirit of the Music (1996)

All thanks to original releaser - alvisch

More interesting music in My Blog

VA - Celtic Spirit (2001)