Subcategories

VA - Celtic Spirit (2001) [Re-Up]

Posted By: Designol
VA - Celtic Spirit (2001) [Re-Up]

VA - Celtic Spirit (2001)
EAC | FLAC | Tracks (Cue&Log) ~ 474 Mb | Mp3 (CBR320) ~ 186 Mb | Scans included
Genre: Celtic Pop/Rock, Celtic Folk | Label: Warner | # 9548-39684-2 | Time: 01:19:12

19 tracks. Lorena Mckennitt, The Corrs, Clannad & Bono, Sarah Brightman, Kate Bush, Luar Na Lubre, Mike Oldfield, Maire Brennan, Mary Black, Christie Moore, Eliza Carthy, Caroline Lavelle, Sinéad O'Connor, Altan, Eddi Reader, Sharon Shannon & Hothouse Flowers, Eimear Quinn, Simple Minds.

VA - Celtic Spirit (2001) [Re-Up]


Tracklist:

01. Lorena Mckennitt - The Mummers Dance (06:09)
02. The Corrs - Runaway (04:25)
03. Clannad & Bono - In A Lifetime (03:05)
04. Sarah Brightman - Eden (04:01)
05. Kate Bush - Mna Na H-Eireann (02:53)
06. Luar Na Lubre - Romeiro Ao Lonxe (04:01)
07. Mike Oldfield - The Inner Child (04:43)
08. Maire Brennan - Perfect Time (04:46)
09. Mary Black - No Frontiers (03:58)
10. Christie Moore - Ride On (04:05)
11. Clannad - Theme From Harry's Game (02:28)
12. Eliza Carthy - Train Song (04:00)
13. Caroline Lavelle - Anima Rising (03:54)
14. Sinead O'Connor - Emma's Song (03:21)
15. Altan - The Flower Of Magherally (04:17)
16. Eddi Reader - Glasgow Star (04:52)
17. Sharon Shannon & Hothouse Flowers - On The Banks Of The Old Pontchertrain (04:26)
18. Eimear Quinn - The Voice (03:01)
19. Simple Minds - Belfast Child (06:39)


Exact Audio Copy V1.0 beta 3 from 29. August 2011

EAC extraction logfile from 9. May 2014, 19:36

Various / Celtic Spirit

Used drive : HL-DT-STDVDRAM GSA-4163B Adapter: 0 ID: 0

Read mode : Secure
Utilize accurate stream : Yes
Defeat audio cache : Yes
Make use of C2 pointers : No

Read offset correction : 667
Overread into Lead-In and Lead-Out : No
Fill up missing offset samples with silence : Yes
Delete leading and trailing silent blocks : No
Null samples used in CRC calculations : Yes
Used interface : Installed external ASPI interface
Gap handling : Appended to previous track

Used output format : User Defined Encoder
Selected bitrate : 896 kBit/s
Quality : High
Add ID3 tag : No
Command line compressor : C:\Program Files\Exact Audio Copy\Flac\flac.exe
Additional command line options : -6 -V -T "ARTIST=%artist%" -T "TITLE=%title%" -T "ALBUM=%albumtitle%" -T "DATE=%year%" -T "TRACKNUMBER=%tracknr%" -T "GENRE=%genre%" -T "COMMENT=%comment%" -T "BAND=%albuminterpret%" -T "ALBUMARTIST=%albuminterpret%" -T "COMPOSER=%composer%" %haslyrics%–tag-from-file=LYRICS="%lyricsfile%"%haslyrics% -T "DISCNUMBER=%cdnumber%" -T "TOTALDISCS=%totalcds%" -T "TOTALTRACKS=%numtracks%" %hascover%–picture="%coverfile%"%hascover% %source% -o %dest%


TOC of the extracted CD

Track | Start | Length | Start sector | End sector
––––––––––––––––––––––––––––-
1 | 0:00.00 | 6:09.07 | 0 | 27681
2 | 6:09.07 | 4:25.60 | 27682 | 47616
3 | 10:34.67 | 3:05.50 | 47617 | 61541
4 | 13:40.42 | 4:01.20 | 61542 | 79636
5 | 17:41.62 | 2:53.65 | 79637 | 92676
6 | 20:35.52 | 4:01.50 | 92677 | 110801
7 | 24:37.27 | 4:43.40 | 110802 | 132066
8 | 29:20.67 | 4:46.20 | 132067 | 153536
9 | 34:07.12 | 3:58.28 | 153537 | 171414
10 | 38:05.40 | 4:05.15 | 171415 | 189804
11 | 42:10.55 | 2:28.45 | 189805 | 200949
12 | 44:39.25 | 4:00.00 | 200950 | 218949
13 | 48:39.25 | 3:54.40 | 218950 | 236539
14 | 52:33.65 | 3:21.62 | 236540 | 251676
15 | 55:55.52 | 4:17.23 | 251677 | 270974
16 | 60:13.00 | 4:52.62 | 270975 | 292936
17 | 65:05.62 | 4:26.50 | 292937 | 312936
18 | 69:32.37 | 3:01.18 | 312937 | 326529
19 | 72:33.55 | 6:39.05 | 326530 | 356459


Track 1

Filename E:\EAC\01. Lorena McKennitt - The mummers dance.wav

Pre-gap length 0:00:02.00

Peak level 98.8 %
Extraction speed 4.4 X
Track quality 100.0 %
Test CRC C9A59B41
Copy CRC C9A59B41
Accurately ripped (confidence 3) [849D0502] (AR v1)
Copy OK

Track 2

Filename E:\EAC\02. The Corrs - Runaway.wav

Pre-gap length 0:00:01.66

Peak level 87.9 %
Extraction speed 4.9 X
Track quality 100.0 %
Test CRC 921D3252
Copy CRC 921D3252
Accurately ripped (confidence 4) [1A9B708B] (AR v1)
Copy OK

Track 3

Filename E:\EAC\03. Clannad & Bono - In a lifetime.wav

Pre-gap length 0:00:01.80

Peak level 98.8 %
Extraction speed 4.9 X
Track quality 100.0 %
Test CRC DF3C997F
Copy CRC DF3C997F
Accurately ripped (confidence 4) [809F49EA] (AR v1)
Copy OK

Track 4

Filename E:\EAC\04. Sarah Brightman - Eden.wav

Pre-gap length 0:00:01.60

Peak level 79.4 %
Extraction speed 5.1 X
Track quality 100.0 %
Test CRC 2F407D48
Copy CRC 2F407D48
Accurately ripped (confidence 4) [7CCF7B00] (AR v1)
Copy OK

Track 5

Filename E:\EAC\05. Kate Bush-Mna na H - Eireann.wav

Pre-gap length 0:00:01.53

Peak level 98.4 %
Extraction speed 5.1 X
Track quality 100.0 %
Test CRC B6D9F52B
Copy CRC B6D9F52B
Accurately ripped (confidence 4) [7568EBF5] (AR v1)
Copy OK

Track 6

Filename E:\EAC\06. Luar Na Lubre - Romeiro ao lonxe.wav

Pre-gap length 0:00:01.22

Peak level 92.9 %
Extraction speed 5.2 X
Track quality 99.9 %
Test CRC E9DBAB03
Copy CRC E9DBAB03
Accurately ripped (confidence 4) [049CBA64] (AR v1)
Copy OK

Track 7

Filename E:\EAC\07. Mike Oldfield - The inner child.wav

Pre-gap length 0:00:01.53

Peak level 82.2 %
Extraction speed 5.9 X
Track quality 99.9 %
Test CRC 0D9A959E
Copy CRC 0D9A959E
Accurately ripped (confidence 4) [F41DEBEB] (AR v1)
Copy OK

Track 8

Filename E:\EAC\08. Maire Brennam - Perfect time.wav

Pre-gap length 0:00:01.46

Peak level 88.9 %
Extraction speed 6.6 X
Track quality 100.0 %
Test CRC 584DF2B0
Copy CRC 584DF2B0
Accurately ripped (confidence 4) [882A7694] (AR v1)
Copy OK

Track 9

Filename E:\EAC\09. Mary Black - No frontiers.wav

Pre-gap length 0:00:01.40

Peak level 98.8 %
Extraction speed 6.2 X
Track quality 99.9 %
Test CRC CE5A190A
Copy CRC CE5A190A
Accurately ripped (confidence 4) [303E404F] (AR v1)
Copy OK

Track 10

Filename E:\EAC\10. Christie Moore - Ride on.wav

Pre-gap length 0:00:01.37

Peak level 80.6 %
Extraction speed 7.2 X
Track quality 100.0 %
Test CRC 86561583
Copy CRC 86561583
Accurately ripped (confidence 4) [420F9DC7] (AR v1)
Copy OK

Track 11

Filename E:\EAC\11. Clannad - Theme from Harry's game.wav

Pre-gap length 0:00:01.64

Peak level 98.8 %
Extraction speed 6.7 X
Track quality 100.0 %
Test CRC DEB0F255
Copy CRC DEB0F255
Accurately ripped (confidence 4) [CADA0873] (AR v1)
Copy OK

Track 12

Filename E:\EAC\12. Eliza Carthy - Train song.wav

Pre-gap length 0:00:01.44

Peak level 69.1 %
Extraction speed 6.6 X
Track quality 99.9 %
Test CRC E2F9B546
Copy CRC E2F9B546
Accurately ripped (confidence 4) [84FDCED6] (AR v1)
Copy OK

Track 13

Filename E:\EAC\13. Caroline Lavelle - Anima rising.wav

Pre-gap length 0:00:01.57

Peak level 83.0 %
Extraction speed 6.7 X
Track quality 100.0 %
Test CRC F1576E69
Copy CRC F1576E69
Accurately ripped (confidence 4) [FF992DC5] (AR v1)
Copy OK

Track 14

Filename E:\EAC\14. Sinead O'Connor - Emma's song.wav

Pre-gap length 0:00:01.46

Peak level 78.5 %
Extraction speed 6.6 X
Track quality 99.9 %
Test CRC DE01D6A1
Copy CRC DE01D6A1
Accurately ripped (confidence 4) [26FC1D32] (AR v1)
Copy OK

Track 15

Filename E:\EAC\15. Altam - The flower of Magherally.wav

Pre-gap length 0:00:01.49

Peak level 98.8 %
Extraction speed 7.0 X
Track quality 99.9 %
Test CRC BEA921F5
Copy CRC BEA921F5
Accurately ripped (confidence 4) [FB7203F9] (AR v1)
Copy OK

Track 16

Filename E:\EAC\16. Eddi Reader - Glasgow star.wav

Pre-gap length 0:00:01.50

Peak level 87.6 %
Extraction speed 7.2 X
Track quality 99.9 %
Test CRC 6C7428C5
Copy CRC 6C7428C5
Accurately ripped (confidence 4) [7691045E] (AR v1)
Copy OK

Track 17

Filename E:\EAC\17. Sharon Shannon & Hothouse Flowers - On the banks of the old Pontchertrain.wav

Pre-gap length 0:00:01.53

Peak level 74.0 %
Extraction speed 8.7 X
Track quality 100.0 %
Test CRC FA6F4B58
Copy CRC FA6F4B58
Accurately ripped (confidence 4) [8E1EBA6C] (AR v1)
Copy OK

Track 18

Filename E:\EAC\18. Eimear Quinn - The voice.wav

Pre-gap length 0:00:01.49

Peak level 98.6 %
Extraction speed 7.0 X
Track quality 99.9 %
Test CRC BFAAFAF9
Copy CRC BFAAFAF9
Accurately ripped (confidence 4) [8EEE2972] (AR v1)
Copy OK

Track 19

Filename E:\EAC\19. Simple Minds - Belfast child.wav

Pre-gap length 0:00:01.50

Peak level 87.3 %
Extraction speed 7.8 X
Track quality 99.9 %
Test CRC 12A47293
Copy CRC 12A47293
Accurately ripped (confidence 3) [DD4645B6] (AR v1)
Copy OK


All tracks accurately ripped

No errors occurred

End of status report

–– CUETools DB Plugin V2.1.3

[CTDB TOCID: KgTxuD1M6O7gX4EZpJ_l69VB4is-] found, Submit result: already submitted
[7ef31aaf] (2/2) Accurately ripped


==== Log checksum B35090AECA6E77D40D982E2537C896E2CBA9099C7B3644FCB37370C6C0F2A729 ====

foobar2000 1.2 / Dynamic Range Meter 1.1.1
log date: 2015-10-20 17:01:21

––––––––––––––––––––––––––––––––––––––––
Analyzed: Altam / Celtic Spirit (1)
Caroline Lavelle / Celtic Spirit (2)
Christie Moore / Celtic Spirit (3)
Clannad & Bono / Celtic Spirit (4)
Clannad / Celtic Spirit (5)
Eddi Reader / Celtic Spirit (6)
Eimear Quinn / Celtic Spirit (7)
Eliza Carthy / Celtic Spirit (8)
Kate Bush-Mna na H / Celtic Spirit (9)
Lorena McKennitt / Celtic Spirit (10)
Luar Na Lubre / Celtic Spirit (11)
Maire Brennam / Celtic Spirit (12)
Mary Black / Celtic Spirit (13)
Mike Oldfield / Celtic Spirit (14)
Sarah Brightman / Celtic Spirit (15)
Sharon Shannon & Hothouse Flowers / Celtic Spirit (16)
Simple Minds / Celtic Spirit (17)
Sinead O'Connor / Celtic Spirit (18)
The Corrs / Celtic Spirit (19)
––––––––––––––––––––––––––––––––––––––––

DR Peak RMS Duration Track
––––––––––––––––––––––––––––––––––––––––
DR12 -0.10 dB -16.69 dB 4:17 15-The flower of Magherally
DR11 -1.62 dB -16.10 dB 3:55 13-Anima rising
DR10 -1.87 dB -14.40 dB 4:05 10-Ride on
DR9 -0.10 dB -11.61 dB 3:06 03-In a lifetime
DR11 -0.10 dB -14.70 dB 2:29 11-Theme from Harry's game
DR10 -1.14 dB -12.67 dB 4:53 16-Glasgow star
DR7 -0.11 dB -10.06 dB 3:01 18-The voice
DR6 -3.20 dB -10.41 dB 4:00 12-Train song
DR9 -0.14 dB -12.12 dB 2:54 05-Eireann
DR9 -0.10 dB -10.74 dB 6:09 01-The mummers dance
DR8 -0.63 dB -11.28 dB 4:02 06-Romeiro ao lonxe
DR9 -1.02 dB -12.08 dB 4:46 08-Perfect time
DR11 -0.10 dB -14.16 dB 3:58 09-No frontiers
DR8 -1.70 dB -13.72 dB 4:44 07-The inner child
DR7 -2.00 dB -10.97 dB 4:01 04-Eden
DR9 -2.61 dB -13.76 dB 4:27 17-On the banks of the old Pontchertrain
DR7 -1.17 dB -12.84 dB 6:39 19-Belfast child
DR7 -2.10 dB -11.04 dB 3:22 14-Emma's song
DR8 -1.12 dB -11.14 dB 4:26 02-Runaway
––––––––––––––––––––––––––––––––––––––––

Number of tracks: 19
Official DR value: DR9

Samplerate: 44100 Hz
Channels: 2
Bits per sample: 16
Bitrate: 950 kbps
Codec: FLAC
================================================================================

VA - Celtic Spirit (2001) [Re-Up]

VA - Celtic Spirit (2001) [Re-Up]

All thanks to original releaser

More interesting music in My Blog