Subcategories
Tags
Language
Tags

Japan - Life in Tokyo (EP) (2021)

Posted By: delpotro
Japan - Life in Tokyo (EP) (2021)

Japan - Life in Tokyo (EP) (2021)
XLD Rip | FLAC (tracks+log+.cue) - 260 Mb | MP3 CBR 320 kbps - 94 Mb | 00:41:23
Electronic, New Wave | Label: BMG Rights Management

"Life in Tokyo" is a song by the British band Japan. A collaboration with disco producer Giorgio Moroder, who also co-wrote the song with David Sylvian, it marked a change of direction from the band's previous sound. Originally released as a single in 1979, it was reissued twice before it finally became a hit on the UK Singles Chart in 1982.
Tracklist:
1. Life In Tokyo (Original 7" Mix 1979) (03:31)
2. Life In Tokyo (Original 7" Mix Part 2 1979) (03:21)
3. Life In Tokyo (Original 12" Version 1979) (07:08)
4. Life In Tokyo ('Assemblage' 7" Remix 1981) (04:02)
5. Life In Tokyo ('Assemblage' 12" Remix 1981) (06:16)
6. Life In Tokyo (Steve Nye 7" Special Remix 1982) (04:03)
7. Life In Tokyo (Steve Nye 12" Special Remix Version 1982) (07:06)
8. Life In Tokyo (Steve Nye Theme 1982) (03:55)
9. Life In Tokyo (Steve Nye Theme 'Correct Pitch' 1982) (01:57)

X Lossless Decoder version 20210101 (153.1)

XLD extraction logfile from 2021-03-15 20:21:18 +0100

Japan / Life in Tokyo

Used drive : MATSHITA DVD-R UJ-868 (revision KB19)
Media type : Pressed CD

Ripper mode : XLD Secure Ripper
Disable audio cache : OK for the drive with a cache less than 1375KiB
Make use of C2 pointers : NO
Read offset correction : 102
Max retry count : 20
Gap status : Analyzed, Appended (except HTOA)

TOC of the extracted CD
Track | Start | Length | Start sector | End sector
––––––––––––––––––––––––––––-
1 | 00:00:00 | 03:31:44 | 0 | 15868
2 | 03:31:44 | 03:21:71 | 15869 | 31014
3 | 06:53:40 | 07:08:25 | 31015 | 63139
4 | 14:01:65 | 04:02:33 | 63140 | 81322
5 | 18:04:23 | 06:16:18 | 81323 | 109540
6 | 24:20:41 | 04:03:21 | 109541 | 127786
7 | 28:23:62 | 07:06:24 | 127787 | 159760
8 | 35:30:11 | 03:55:66 | 159761 | 177451
9 | 39:26:02 | 01:57:67 | 177452 | 186293

AccurateRip Summary
Disc not found in AccurateRip DB.

All Tracks
Album gain : -5.91 dB
Peak : 0.943939
Statistics
Read error : 0
Jitter error (maybe fixed) : 0
Retry sector count : 0
Damaged sector count : 0

Track 01
Filename : /Users/Lily/[FLAC]/Japan - 2021 - Life in Tokyo - FLAC/01 - Life in Tokyo (Original 7" Mix 1979).flac
Pre-gap length : 00:02:00

Track gain : -6.15 dB
Peak : 0.943939
CRC32 hash (test run) : 524727D0
CRC32 hash : 524727D0
CRC32 hash (skip zero) : 3131F6F8
AccurateRip v1 signature : DC9F3A19
AccurateRip v2 signature : 00F5B9DA
->Track not present in AccurateRip database.
Statistics
Read error : 0
Jitter error (maybe fixed) : 0
Retry sector count : 0
Damaged sector count : 0

Track 02
Filename : /Users/Lily/[FLAC]/Japan - 2021 - Life in Tokyo - FLAC/02 - Life in Tokyo (Original 7" Mix Part 2 1979).flac

Track gain : -5.82 dB
Peak : 0.923767
CRC32 hash (test run) : FEAF6287
CRC32 hash : FEAF6287
CRC32 hash (skip zero) : 6BBC345E
AccurateRip v1 signature : 9CA51F53
AccurateRip v2 signature : 3DCCD8CA
->Track not present in AccurateRip database.
Statistics
Read error : 0
Jitter error (maybe fixed) : 0
Retry sector count : 0
Damaged sector count : 0

Track 03
Filename : /Users/Lily/[FLAC]/Japan - 2021 - Life in Tokyo - FLAC/03 - Life in Tokyo (Original 12" Version 1979).flac

Track gain : -6.07 dB
Peak : 0.943939
CRC32 hash (test run) : E3582B99
CRC32 hash : E3582B99
CRC32 hash (skip zero) : F6B3DDFC
AccurateRip v1 signature : ED5F6CF4
AccurateRip v2 signature : FD7CC904
->Track not present in AccurateRip database.
Statistics
Read error : 0
Jitter error (maybe fixed) : 0
Retry sector count : 0
Damaged sector count : 0

Track 04
Filename : /Users/Lily/[FLAC]/Japan - 2021 - Life in Tokyo - FLAC/04 - Life in Tokyo ('Assemblage' 7" Remix 1981).flac

Track gain : -5.66 dB
Peak : 0.922638
CRC32 hash (test run) : 6205CD86
CRC32 hash : 6205CD86
CRC32 hash (skip zero) : 0E1E4561
AccurateRip v1 signature : B31677DE
AccurateRip v2 signature : 091B8F2F
->Track not present in AccurateRip database.
Statistics
Read error : 0
Jitter error (maybe fixed) : 0
Retry sector count : 0
Damaged sector count : 0

Track 05
Filename : /Users/Lily/[FLAC]/Japan - 2021 - Life in Tokyo - FLAC/05 - Life in Tokyo ('Assemblage' 12" Remix 1981).flac

Track gain : -4.66 dB
Peak : 0.943939
CRC32 hash (test run) : 1AE94BE1
CRC32 hash : 1AE94BE1
CRC32 hash (skip zero) : 39438C0A
AccurateRip v1 signature : C2D18BCB
AccurateRip v2 signature : 57D839A5
->Track not present in AccurateRip database.
Statistics
Read error : 0
Jitter error (maybe fixed) : 0
Retry sector count : 0
Damaged sector count : 0

Track 06
Filename : /Users/Lily/[FLAC]/Japan - 2021 - Life in Tokyo - FLAC/06 - Life in Tokyo (Steve Nye 7" Special Remix 1982).flac

Track gain : -6.30 dB
Peak : 0.943939
CRC32 hash (test run) : DAA26E18
CRC32 hash : DAA26E18
CRC32 hash (skip zero) : 082B0B04
AccurateRip v1 signature : F7FD802E
AccurateRip v2 signature : D1AC134E
->Track not present in AccurateRip database.
Statistics
Read error : 0
Jitter error (maybe fixed) : 0
Retry sector count : 0
Damaged sector count : 0

Track 07
Filename : /Users/Lily/[FLAC]/Japan - 2021 - Life in Tokyo - FLAC/07 - Life in Tokyo (Steve Nye 12" Special Remix Version 1982).flac

Track gain : -7.27 dB
Peak : 0.943939
CRC32 hash (test run) : EE9476AB
CRC32 hash : EE9476AB
CRC32 hash (skip zero) : 469D56BC
AccurateRip v1 signature : E643E9CB
AccurateRip v2 signature : 5F1C82F0
->Track not present in AccurateRip database.
Statistics
Read error : 0
Jitter error (maybe fixed) : 0
Retry sector count : 0
Damaged sector count : 0

Track 08
Filename : /Users/Lily/[FLAC]/Japan - 2021 - Life in Tokyo - FLAC/08 - Life in Tokyo (Steve Nye Theme 1982).flac

Track gain : -2.11 dB
Peak : 0.943939
CRC32 hash (test run) : 73BA07E6
CRC32 hash : 73BA07E6
CRC32 hash (skip zero) : 08503945
AccurateRip v1 signature : 2C66931B
AccurateRip v2 signature : 31195FF0
->Track not present in AccurateRip database.
Statistics
Read error : 0
Jitter error (maybe fixed) : 0
Retry sector count : 0
Damaged sector count : 0

Track 09
Filename : /Users/Lily/[FLAC]/Japan - 2021 - Life in Tokyo - FLAC/09 - Life in Tokyo (Steve Nye Theme 'Correct Pitch' 1982).flac

Track gain : -5.53 dB
Peak : 0.943939
CRC32 hash (test run) : 5FCBB5DB
CRC32 hash : 5FCBB5DB
CRC32 hash (skip zero) : 2E38E395
AccurateRip v1 signature : 8620FB98
AccurateRip v2 signature : 585442F8
->Track not present in AccurateRip database.
Statistics
Read error : 0
Jitter error (maybe fixed) : 0
Retry sector count : 0
Damaged sector count : 0

No errors occurred

End of status report

––-BEGIN XLD SIGNATURE––-
.pXgNQEjH19TwP_7MlIqOoEyOUxeBLyoCI5j6Ih6fBeZgKB.Dm93VyzUGtglmH5Zr8Bx08Z6q_K_n4BM3I6wdpMFp0fufGu2w6yXX.4
––-END XLD SIGNATURE––-

Thanks to the Original ripper !