Subcategories
Tags
Language
Tags

My Bloody Valentine - EP’s 1988-1991 and Rare Tracks (Japanese Reissue With Bonus Tracks) (2012/2021)

Posted By: delpotro
My Bloody Valentine - EP’s 1988-1991 and Rare Tracks (Japanese Reissue With Bonus Tracks) (2012/2021)

My Bloody Valentine - EP’s 1988-1991 and Rare Tracks (Japanese Reissue With Bonus Tracks) (2012/2021)
EAC Rip | FLAC (tracks+log+.cue) - 721 Mb | MP3 CBR 320 kbps - 250 Mb | 01:48:39
Shoegaze, Psychedelic Rock, Noise Rock | Label: MBV Records, Domino

my bloody valentine, the quartet of Bilinda Butcher, Kevin Shields, Deb Googe and Colm Ó Cíosóig, are widely revered as one of the most ground-breaking and influential groups of the past forty years. During an era in which guitar bands denoted, at best, a retro-classicism, not only did my bloody valentine sound unlike any of their contemporaries, the band achieved the rare feat of sounding like the future.

With their debut album, Isn’t Anything (originally released in 1988), my bloody valentine revolutionised alternative music and heralded a new approach to guitar music for generations to come. The album birthed a sound which became a template for thousands of new subgenres, heralding a new approach to guitar music and studio production. Not only was it a new type of music, it paved the way for a new type of journalism; inciting comparisons to elemental phenomenon, tapping into how the music affected the psyche. Shields and Butcher frequently sang in a similar vocal range that allowed their voices to blend together. This had the effect of making their gender indistinguishable, to the point where their voices could be used as another melodic layer to complement the vertigo-inducing sounds made by Shields’ guitars.

The second my bloody valentine album, loveless, was released in 1991. Musically, it took an unexpected leap forwards, standing ahead of anything released at the time. Shields and the band moved further towards a music of pure sensation, creating textures and tones that could be felt as much as heard; with loveless the band created an album that overwhelmed the senses. loveless is widely considered a flawless whole and rightly regarded as a masterpiece; a 1990s equivalent to Pet Sounds, In A Silent Way or Innervisions, a record constructed by exploring the edges of what a recording studio is capable of. It is a record best experienced as a whole, in one sitting - a listening experience like no other and unmatchable in its sonic brevity.

ep’s 1988-1991 and rare tracks compiles the group’s four EPs, wherein many of their devoted fans’ favourite music lies. You Made Me Realise and Feed Me With Your Kiss both preceded the band’s debut album in 1988 in quick succession. In the gap between Isn’t Anything and loveless, the band released two further EPs; Glider (1990) and Tremolo (1991).

Finally re-emerging in 2013 after two full decades in relative hiding, their third album m b v is by turns their most experimental record but also their most melodic and immediate; proof real of their unerring desire for re-invention. Continuing to push boundaries of both music and genre, m b v is an album of astonishing music, some of which could lay claim to being of a type never been made before. Otherworldly, intimate and a visceral listen, m b v is a startling and beautiful metamorphosis of what was known of the my bloody valentine sound, pushing the boundaries of genre unlike any other band. The album’s closer, “Wonder 2” is an example of this, seeing Shields meld hypnotic guitar with drum’n’bass to astonishing result."
Tracklist:
Disc 1 (49:10)
1. You Made Me Realise (03:47)
2. Slow (03:12)
3. Thorn (03:38)
4. Cigarette In Your Bed (03:30)
5. Drive It All Over Me (03:07)
6. Feed Me With Your Kiss (03:57)
7. I Believe (03:02)
8. Emptiness Inside (02:50)
9. I Need No Trust (03:37)
10. Soon (06:59)
11. Glider (03:11)
12. Don't Ask Why (04:04)
13. Off Your Face (04:16)

Disc 2 (59:28)
1. To Here Knows When (05:50)
2. Swallow (04:54)
3. Honey Power (04:34)
4. Moon Song (03:28)
5. Instrumental No. 2 (04:45)
6. Instrumental No. 1 (03:22)
7. Glider (Full Length Version) (10:16)
8. Sugar (04:16)
9. Angel (04:43)
10. Good For You (02:31)
11. How Do You Do It (03:33)
12. Untitled (03:11)
13. Untitled (04:05)

Exact Audio Copy V1.3 from 2. September 2016

EAC extraction logfile from 7. June 2021, 14:52

My Bloody Valentine / EP's 1988–1991

Used drive : HL-DT-STBD-RE WH16NS40 Adapter: 1 ID: 0

Read mode : Secure
Utilize accurate stream : Yes
Defeat audio cache : Yes
Make use of C2 pointers : No

Read offset correction : 6
Overread into Lead-In and Lead-Out : No
Fill up missing offset samples with silence : Yes
Delete leading and trailing silent blocks : No
Null samples used in CRC calculations : Yes
Used interface : Native Win32 interface for Win NT & 2000
Gap handling : Appended to previous track

Used output format : User Defined Encoder
Selected bitrate : 1024 kBit/s
Quality : High
Add ID3 tag : No
Command line compressor : E:\flac-1.3.2-win\win64\flac.exe
Additional command line options : -8 -e -p -V -T "ARTIST=%artist%" -T "TITLE=%title%" -T "ALBUM=%albumtitle%" -T "DATE=%year%" -T "TRACKNUMBER=%tracknr%" -T "GENRE=%genre%" -T "PERFORMER=%albuminterpret%" -T "COMPOSER=%composer%" %haslyrics%–tag-from-file=LYRICS="%lyricsfile%"%haslyrics% -T "ALBUMARTIST=%albumartist%" -T "DISCNUMBER=%cdnumber%" -T "TOTALDISCS=%totalcds%" -T "TOTALTRACKS=%numtracks%" -T "COMMENT=%comment%" %source% -o %dest%


TOC of the extracted CD

Track | Start | Length | Start sector | End sector
––––––––––––––––––––––––––––-
1 | 0:00.00 | 3:47.12 | 0 | 17036
2 | 3:47.12 | 3:12.35 | 17037 | 31471
3 | 6:59.47 | 3:37.43 | 31472 | 47789
4 | 10:37.15 | 3:30.27 | 47790 | 63566
5 | 14:07.42 | 3:06.64 | 63567 | 77580
6 | 17:14.31 | 3:57.20 | 77581 | 95375
7 | 21:11.51 | 3:02.00 | 95376 | 109025
8 | 24:13.51 | 2:50.18 | 109026 | 121793
9 | 27:03.69 | 3:37.36 | 121794 | 138104
10 | 30:41.30 | 6:59.30 | 138105 | 169559
11 | 37:40.60 | 3:11.12 | 169560 | 183896
12 | 40:51.72 | 4:03.40 | 183897 | 202161
13 | 44:55.37 | 4:16.07 | 202162 | 221368


Track 1

Filename E:\EAC Rips\My Bloody Valentine - EP's 1988-1991 (2012) [FLAC] {2021 REWIGCD162}\CD 1\01. You Made Me Realise.wav

Pre-gap length 0:00:02.00

Peak level 84.6 %
Extraction speed 1.9 X
Track quality 100.0 %
Test CRC 4921494C
Copy CRC 4921494C
Accurately ripped (confidence 2) [15B54D62] (AR v2)
Copy OK

Track 2

Filename E:\EAC Rips\My Bloody Valentine - EP's 1988-1991 (2012) [FLAC] {2021 REWIGCD162}\CD 1\02. Slow.wav

Pre-gap length 0:00:02.78

Peak level 93.2 %
Extraction speed 2.1 X
Track quality 100.0 %
Test CRC 0CCF73CC
Copy CRC 0CCF73CC
Accurately ripped (confidence 190) [A891521D] (AR v2)
Copy OK

Track 3

Filename E:\EAC Rips\My Bloody Valentine - EP's 1988-1991 (2012) [FLAC] {2021 REWIGCD162}\CD 1\03. Thorn.wav

Pre-gap length 0:00:02.61

Peak level 93.9 %
Extraction speed 2.3 X
Track quality 100.0 %
Test CRC E5EE9047
Copy CRC E5EE9047
Accurately ripped (confidence 190) [09011524] (AR v2)
Copy OK

Track 4

Filename E:\EAC Rips\My Bloody Valentine - EP's 1988-1991 (2012) [FLAC] {2021 REWIGCD162}\CD 1\04. Cigarette in Your Bed.wav

Pre-gap length 0:00:02.88

Peak level 95.3 %
Extraction speed 2.5 X
Track quality 100.0 %
Test CRC E7BE4972
Copy CRC E7BE4972
Accurately ripped (confidence 190) [EBD9C65B] (AR v2)
Copy OK

Track 5

Filename E:\EAC Rips\My Bloody Valentine - EP's 1988-1991 (2012) [FLAC] {2021 REWIGCD162}\CD 1\05. Drive It All Over Me.wav

Pre-gap length 0:00:02.69

Peak level 96.4 %
Extraction speed 2.6 X
Track quality 100.0 %
Test CRC 48A1C3B9
Copy CRC 48A1C3B9
Accurately ripped (confidence 190) [130F8E2A] (AR v2)
Copy OK

Track 6

Filename E:\EAC Rips\My Bloody Valentine - EP's 1988-1991 (2012) [FLAC] {2021 REWIGCD162}\CD 1\06. Feed Me With Your Kiss.wav

Pre-gap length 0:00:02.24

Peak level 94.6 %
Extraction speed 2.8 X
Track quality 100.0 %
Test CRC 6B30CE76
Copy CRC 6B30CE76
Accurately ripped (confidence 190) [E5A7DB17] (AR v2)
Copy OK

Track 7

Filename E:\EAC Rips\My Bloody Valentine - EP's 1988-1991 (2012) [FLAC] {2021 REWIGCD162}\CD 1\07. I Believe.wav

Pre-gap length 0:00:01.41

Peak level 99.3 %
Extraction speed 2.8 X
Track quality 100.0 %
Test CRC 341BBCF8
Copy CRC 341BBCF8
Accurately ripped (confidence 190) [E5EB01F3] (AR v2)
Copy OK

Track 8

Filename E:\EAC Rips\My Bloody Valentine - EP's 1988-1991 (2012) [FLAC] {2021 REWIGCD162}\CD 1\08. Emptiness Inside.wav

Pre-gap length 0:00:01.34

Peak level 88.9 %
Extraction speed 2.9 X
Track quality 100.0 %
Test CRC B7F9647D
Copy CRC B7F9647D
Accurately ripped (confidence 190) [7FB56786] (AR v2)
Copy OK

Track 9

Filename E:\EAC Rips\My Bloody Valentine - EP's 1988-1991 (2012) [FLAC] {2021 REWIGCD162}\CD 1\09. I Need No Trust.wav

Pre-gap length 0:00:02.65

Peak level 86.3 %
Extraction speed 2.2 X
Track quality 99.9 %
Test CRC 83D32F10
Copy CRC 83D32F10
Accurately ripped (confidence 190) [DB623D0B] (AR v2)
Copy OK

Track 10

Filename E:\EAC Rips\My Bloody Valentine - EP's 1988-1991 (2012) [FLAC] {2021 REWIGCD162}\CD 1\10. Soon.wav

Pre-gap length 0:00:02.90

Peak level 99.9 %
Extraction speed 3.6 X
Track quality 100.0 %
Test CRC B1E2C952
Copy CRC B1E2C952
Accurately ripped (confidence 190) [AD91D181] (AR v2)
Copy OK

Track 11

Filename E:\EAC Rips\My Bloody Valentine - EP's 1988-1991 (2012) [FLAC] {2021 REWIGCD162}\CD 1\11. Glider.wav

Pre-gap length 0:00:01.65

Peak level 90.4 %
Extraction speed 3.5 X
Track quality 100.0 %
Test CRC 52AD8E38
Copy CRC 52AD8E38
Accurately ripped (confidence 191) [B219E80D] (AR v2)
Copy OK

Track 12

Filename E:\EAC Rips\My Bloody Valentine - EP's 1988-1991 (2012) [FLAC] {2021 REWIGCD162}\CD 1\12. Don’t Ask Why.wav

Pre-gap length 0:00:00.89

Peak level 86.9 %
Extraction speed 3.7 X
Track quality 100.0 %
Test CRC 14A3D6CD
Copy CRC 14A3D6CD
Accurately ripped (confidence 189) [649E8239] (AR v2)
Copy OK

Track 13

Filename E:\EAC Rips\My Bloody Valentine - EP's 1988-1991 (2012) [FLAC] {2021 REWIGCD162}\CD 1\13. Off Your Face.wav

Pre-gap length 0:00:01.41

Peak level 94.3 %
Extraction speed 3.8 X
Track quality 100.0 %
Test CRC 32DB629E
Copy CRC 32DB629E
Accurately ripped (confidence 191) [B73B5AE1] (AR v2)
Copy OK


All tracks accurately ripped

No errors occurred

End of status report

–– CUETools DB Plugin V2.1.6

[CTDB TOCID: BzCDbLMhe2TxlWWrVdjL4Mi4K48-] found
Submit result: BzCDbLMhe2TxlWWrVdjL4Mi4K48- has been confirmed
Track | CTDB Status
1 | ( 20/497) Accurately ripped, or (473/497) differs in 11 samples @00:01:00
2 | (496/497) Accurately ripped
3 | (496/497) Accurately ripped
4 | (496/497) Accurately ripped
5 | (496/497) Accurately ripped
6 | (495/497) Accurately ripped
7 | (495/497) Accurately ripped
8 | (495/497) Accurately ripped
9 | (496/497) Accurately ripped
10 | (494/497) Accurately ripped
11 | (495/497) Accurately ripped
12 | (496/497) Accurately ripped
13 | (496/497) Accurately ripped
If you are sure that your rip contains errors, you can use CUETools to repair it.


==== Log checksum CC8D56E7F9254EC173DB7C0093B6E32B9BB0ED15184DA55551F116D3A8F4D65A ====
Exact Audio Copy V1.3 from 2. September 2016

EAC extraction logfile from 7. June 2021, 16:04

My Bloody Valentine / EP's 1988–1991

Used drive : HL-DT-STBD-RE WH16NS40 Adapter: 1 ID: 0

Read mode : Secure
Utilize accurate stream : Yes
Defeat audio cache : Yes
Make use of C2 pointers : No

Read offset correction : 6
Overread into Lead-In and Lead-Out : No
Fill up missing offset samples with silence : Yes
Delete leading and trailing silent blocks : No
Null samples used in CRC calculations : Yes
Used interface : Native Win32 interface for Win NT & 2000
Gap handling : Appended to previous track

Used output format : User Defined Encoder
Selected bitrate : 1024 kBit/s
Quality : High
Add ID3 tag : No
Command line compressor : E:\flac-1.3.2-win\win64\flac.exe
Additional command line options : -8 -e -p -V -T "ARTIST=%artist%" -T "TITLE=%title%" -T "ALBUM=%albumtitle%" -T "DATE=%year%" -T "TRACKNUMBER=%tracknr%" -T "GENRE=%genre%" -T "PERFORMER=%albuminterpret%" -T "COMPOSER=%composer%" %haslyrics%–tag-from-file=LYRICS="%lyricsfile%"%haslyrics% -T "ALBUMARTIST=%albumartist%" -T "DISCNUMBER=%cdnumber%" -T "TOTALDISCS=%totalcds%" -T "TOTALTRACKS=%numtracks%" -T "COMMENT=%comment%" %source% -o %dest%


TOC of the extracted CD

Track | Start | Length | Start sector | End sector
––––––––––––––––––––––––––––-
1 | 0:00.00 | 5:49.56 | 0 | 26230
2 | 5:49.56 | 4:53.56 | 26231 | 48261
3 | 10:43.37 | 4:33.38 | 48262 | 68774
4 | 15:17.00 | 3:28.00 | 68775 | 84374
5 | 18:45.00 | 4:44.42 | 84375 | 105716
6 | 23:29.42 | 3:22.14 | 105717 | 120880
7 | 26:51.56 | 10:15.59 | 120881 | 167064
8 | 37:07.40 | 4:16.34 | 167065 | 186298
9 | 41:23.74 | 4:42.59 | 186299 | 207507
10 | 46:06.58 | 2:31.33 | 207508 | 218865
11 | 48:38.16 | 3:33.22 | 218866 | 234862
12 | 52:11.38 | 3:11.11 | 234863 | 249198
13 | 55:22.49 | 4:05.29 | 249199 | 267602


Track 1

Filename E:\EAC Rips\My Bloody Valentine - EP's 1988-1991 (2012) [FLAC] {2021 REWIGCD162}\CD 2\01. To Here Knows When.wav

Pre-gap length 0:00:02.00

Peak level 99.9 %
Extraction speed 2.1 X
Track quality 100.0 %
Test CRC E12A4771
Copy CRC E12A4771
Accurately ripped (confidence 2) [FE9EF0E7] (AR v2)
Copy OK

Track 2

Filename E:\EAC Rips\My Bloody Valentine - EP's 1988-1991 (2012) [FLAC] {2021 REWIGCD162}\CD 2\02. Swallow.wav

Peak level 99.9 %
Extraction speed 2.4 X
Track quality 100.0 %
Test CRC 880F5D73
Copy CRC 880F5D73
Accurately ripped (confidence 2) [8D5124FE] (AR v2)
Copy OK

Track 3

Filename E:\EAC Rips\My Bloody Valentine - EP's 1988-1991 (2012) [FLAC] {2021 REWIGCD162}\CD 2\03. Honey Power.wav

Peak level 99.9 %
Extraction speed 2.6 X
Track quality 100.0 %
Test CRC 1E388B46
Copy CRC 1E388B46
Accurately ripped (confidence 2) [BCBE665C] (AR v2)
Copy OK

Track 4

Filename E:\EAC Rips\My Bloody Valentine - EP's 1988-1991 (2012) [FLAC] {2021 REWIGCD162}\CD 2\04. Moon Song.wav

Peak level 99.9 %
Extraction speed 2.7 X
Track quality 100.0 %
Test CRC 2784D6D5
Copy CRC 2784D6D5
Accurately ripped (confidence 2) [E5DF9A07] (AR v2)
Copy OK

Track 5

Filename E:\EAC Rips\My Bloody Valentine - EP's 1988-1991 (2012) [FLAC] {2021 REWIGCD162}\CD 2\05. Instrumental No. 2.wav

Pre-gap length 0:00:02.22

Peak level 99.8 %
Extraction speed 3.0 X
Track quality 100.0 %
Test CRC 6E433B5D
Copy CRC 6E433B5D
Accurately ripped (confidence 2) [83DDBF3C] (AR v2)
Copy OK

Track 6

Filename E:\EAC Rips\My Bloody Valentine - EP's 1988-1991 (2012) [FLAC] {2021 REWIGCD162}\CD 2\06. Instrumental No. 1.wav

Pre-gap length 0:00:00.76

Peak level 99.9 %
Extraction speed 2.1 X
Track quality 99.9 %
Test CRC 44CFA591
Copy CRC 44CFA591
Accurately ripped (confidence 2) [8D1F962D] (AR v2)
Copy OK

Track 7

Filename E:\EAC Rips\My Bloody Valentine - EP's 1988-1991 (2012) [FLAC] {2021 REWIGCD162}\CD 2\07. Glider (Full Length Version).wav

Pre-gap length 0:00:02.38

Peak level 99.9 %
Extraction speed 3.6 X
Track quality 100.0 %
Test CRC 9CDC07D7
Copy CRC 9CDC07D7
Accurately ripped (confidence 2) [9BF1DF4A] (AR v2)
Copy OK

Track 8

Filename E:\EAC Rips\My Bloody Valentine - EP's 1988-1991 (2012) [FLAC] {2021 REWIGCD162}\CD 2\08. Sugar.wav

Pre-gap length 0:00:00.30

Peak level 99.9 %
Extraction speed 3.6 X
Track quality 100.0 %
Test CRC 3C77E523
Copy CRC 3C77E523
Accurately ripped (confidence 2) [FBA32698] (AR v2)
Copy OK

Track 9

Filename E:\EAC Rips\My Bloody Valentine - EP's 1988-1991 (2012) [FLAC] {2021 REWIGCD162}\CD 2\09. Angel.wav

Pre-gap length 0:00:01.00

Peak level 97.8 %
Extraction speed 3.7 X
Track quality 100.0 %
Test CRC 7E3DF60D
Copy CRC 7E3DF60D
Accurately ripped (confidence 2) [8891025F] (AR v2)
Copy OK

Track 10

Filename E:\EAC Rips\My Bloody Valentine - EP's 1988-1991 (2012) [FLAC] {2021 REWIGCD162}\CD 2\10. Good for You.wav

Pre-gap length 0:00:01.44

Peak level 99.8 %
Extraction speed 3.6 X
Track quality 100.0 %
Test CRC 70C290BF
Copy CRC 70C290BF
Accurately ripped (confidence 2) [AC5E3F6C] (AR v2)
Copy OK

Track 11

Filename E:\EAC Rips\My Bloody Valentine - EP's 1988-1991 (2012) [FLAC] {2021 REWIGCD162}\CD 2\11. How Do You Do It.wav

Pre-gap length 0:00:01.16

Peak level 99.6 %
Extraction speed 3.9 X
Track quality 100.0 %
Test CRC CD8C19F3
Copy CRC CD8C19F3
Accurately ripped (confidence 2) [E65D73DF] (AR v2)
Copy OK

Track 12

Filename E:\EAC Rips\My Bloody Valentine - EP's 1988-1991 (2012) [FLAC] {2021 REWIGCD162}\CD 2\12. Untitled.wav

Peak level 99.4 %
Extraction speed 3.9 X
Track quality 100.0 %
Test CRC F39F7B8D
Copy CRC F39F7B8D
Accurately ripped (confidence 2) [D64AEDD3] (AR v2)
Copy OK

Track 13

Filename E:\EAC Rips\My Bloody Valentine - EP's 1988-1991 (2012) [FLAC] {2021 REWIGCD162}\CD 2\13. Untitled.wav

Peak level 99.4 %
Extraction speed 3.0 X
Track quality 99.9 %
Test CRC D6C2FAE0
Copy CRC D6C2FAE0
Accurately ripped (confidence 2) [E697E8E5] (AR v2)
Copy OK


All tracks accurately ripped

No errors occurred

End of status report

–– CUETools DB Plugin V2.1.6

[CTDB TOCID: cUIecwh1_qPCql_CqTQoLiq_gj0-] found
Submit result: cUIecwh1_qPCql_CqTQoLiq_gj0- has been confirmed
Track | CTDB Status
1 | (18/18) Accurately ripped
2 | (18/18) Accurately ripped
3 | (18/18) Accurately ripped
4 | (18/18) Accurately ripped
5 | (18/18) Accurately ripped
6 | (18/18) Accurately ripped
7 | (18/18) Accurately ripped
8 | (18/18) Accurately ripped
9 | (18/18) Accurately ripped
10 | (18/18) Accurately ripped
11 | (18/18) Accurately ripped
12 | (18/18) Accurately ripped
13 | (18/18) Accurately ripped


==== Log checksum 89D1899D9B0E902527F39F89F6A2FF4E378DAE51581FB8E6E4F3D63419FE2923 ====

Thanks to the Original ripper !