Tags
Language
Tags

Noel Gallagher's High Flying Birds - Back The Way We Came: Vol. 1 (2011 - 2021) (2021)

Posted By: delpotro
Noel Gallagher's High Flying Birds - Back The Way We Came: Vol. 1 (2011 - 2021) (2021)

Noel Gallagher's High Flying Birds - Back The Way We Came: Vol. 1 (2011 - 2021) (2021)
XLD Rip | FLAC (tracks+log+.cue) - 965 Mb | MP3 CBR 320 kbps - 328 Mb | 02:23:02
Indie Rock, Alternative Rock, Britpop | Label: Sour Mash Records

The new release from Noel Gallagher's High Flying Birds, "Back The Way We Came: Vol 1 (2011-2021)," celebrates 10 years since the inception of NGHFB. This double album, curated and compiled entirely by Noel, includes tracks from the three albums (‘Noel Gallagher’s High Flying Birds’, ‘Chasing Yesterday’ and ‘Who Built The Moon?’) and the three acclaimed EPs (‘Black Star Dancing’, ‘This Is The Place’ and ‘Blue Moon Rising’) - plus 2 previously unreleased tracks including the brand new single ‘We’re On Our Way Now’.
Tracklist:
Disc 1 (44:51)
1. Everybody's On The Run (05:31)
2. The Death Of You And Me (03:28)
3. AKA… What A Life! (04:23)
4. If I Had A Gun… (04:09)
5. In The Heat Of The Moment (03:30)
6. Riverman (05:43)
7. Lock All The Doors (03:42)
8. The Dying Of The Light (05:08)
9. Ballad Of The Mighty I (05:09)
10. We're On Our Way Now (04:08)

Disc 2 (34:20)
1. Black Star Dancing (04:22)
2. Holy Mountain (Remastered) (03:56)
3. A Dream Is All I Need To Get By (04:08)
4. This Is The Place (04:17)
5. It's A Beautiful World (05:19)
6. Blue Moon Rising (03:44)
7. Dead In The Water (Live at RTÉ 2FM Studios, Dublin) (05:21)
8. Flying On The Ground (03:13)

Disc 3 (01:03:37)
1. It's A Beautiful World (Instrumental) (05:23)
2. If I Had A Gun… (Acoustic Version) (04:07)
3. Black Star Dancing (Skeleton Key Remix) (04:14)
4. Black Star Dancing (12" Mix Instrumental) (04:38)
5. The Man Who Built The Moon (Acoustic Version) (04:31)
6. International Magic (Demo) (05:17)
7. Blue Moon Rising (Sons of the Desert Remix) (07:05)
8. The Dying Of The Light (Acoustic Version) (05:13)
9. This Is The Place (Skeleton Key Remix) (03:05)
10. This Is The Place (Instrumental) (04:17)
11. Black Star Dancing (The Reflex Revision) (10:06)
12. Be Careful What You Wish For (Instrumental) (05:41)

X Lossless Decoder version 20210101 (153.1)

XLD extraction logfile from 2021-06-30 11:34:07 +0200

Noel Gallagher's High Flying Birds / Back The Way We Came: Vol 1 (2011 - 2021)

Used drive : HL-DT-ST DVDRAM GP90EB70 (revision RC00)
Media type : Pressed CD

Ripper mode : XLD Secure Ripper
Disable audio cache : OK for the drive with a cache less than 1375KiB
Make use of C2 pointers : NO
Read offset correction : 6
Max retry count : 100
Gap status : Analyzed, Appended (except HTOA)

TOC of the extracted CD
Track | Start | Length | Start sector | End sector
––––––––––––––––––––––––––––-
1 | 00:00:00 | 05:31:74 | 0 | 24898
2 | 05:31:74 | 03:28:49 | 24899 | 40547
3 | 09:00:48 | 04:23:51 | 40548 | 60323
4 | 13:24:24 | 04:09:57 | 60324 | 79055
5 | 17:34:06 | 03:30:36 | 79056 | 94841
6 | 21:04:42 | 05:43:39 | 94842 | 120605
7 | 26:48:06 | 03:42:68 | 120606 | 137323
8 | 30:30:74 | 05:07:73 | 137324 | 160421
9 | 35:38:72 | 05:09:29 | 160422 | 183625
10 | 40:48:26 | 04:08:00 | 183626 | 202225

AccurateRip Summary
Disc not found in AccurateRip DB.

All Tracks
Album gain : -11.12 dB
Peak : 0.995392
Statistics
Read error : 0
Jitter error (maybe fixed) : 0
Retry sector count : 0
Damaged sector count : 0

Track 01
Filename : /Volumes/LaCieD2 1 DL/Noel Gallagher's High Flying Birds -2021- Back The Way We Came Vol. 1 (2011-2021) (FLAC)/CD1/01 - Everybody's On The Run.flac
Pre-gap length : 00:02:00

Track gain : -11.21 dB
Peak : 0.995392
CRC32 hash (test run) : FE7A4A3B
CRC32 hash : FE7A4A3B
CRC32 hash (skip zero) : 2A9D0C27
AccurateRip v1 signature : C3422882
AccurateRip v2 signature : 7F746A5E
->Track not present in AccurateRip database.
Statistics
Read error : 0
Jitter error (maybe fixed) : 0
Retry sector count : 0
Damaged sector count : 0

Track 02
Filename : /Volumes/LaCieD2 1 DL/Noel Gallagher's High Flying Birds -2021- Back The Way We Came Vol. 1 (2011-2021) (FLAC)/CD1/02 - The Death Of You and Me.flac
Pre-gap length : 00:00:57

Track gain : -10.51 dB
Peak : 0.995392
CRC32 hash (test run) : 3FB08245
CRC32 hash : 3FB08245
CRC32 hash (skip zero) : 7AA64CCC
AccurateRip v1 signature : F7E45A9A
AccurateRip v2 signature : 71B3A7ED
->Track not present in AccurateRip database.
Statistics
Read error : 0
Jitter error (maybe fixed) : 0
Retry sector count : 0
Damaged sector count : 0

Track 03
Filename : /Volumes/LaCieD2 1 DL/Noel Gallagher's High Flying Birds -2021- Back The Way We Came Vol. 1 (2011-2021) (FLAC)/CD1/03 - AKA … What A Life!.flac

Track gain : -10.95 dB
Peak : 0.933838
CRC32 hash (test run) : A8B3D3AB
CRC32 hash : A8B3D3AB
CRC32 hash (skip zero) : 67C6E479
AccurateRip v1 signature : 52F9239B
AccurateRip v2 signature : 84ABBDBF
->Track not present in AccurateRip database.
Statistics
Read error : 0
Jitter error (maybe fixed) : 0
Retry sector count : 0
Damaged sector count : 0

Track 04
Filename : /Volumes/LaCieD2 1 DL/Noel Gallagher's High Flying Birds -2021- Back The Way We Came Vol. 1 (2011-2021) (FLAC)/CD1/04 - If I Had A Gun ….flac
Pre-gap length : 00:01:17

Track gain : -11.09 dB
Peak : 0.871643
CRC32 hash (test run) : B8B6C8B5
CRC32 hash : B8B6C8B5
CRC32 hash (skip zero) : 379530BC
AccurateRip v1 signature : 3C569283
AccurateRip v2 signature : F9A9F4BE
->Track not present in AccurateRip database.
Statistics
Read error : 0
Jitter error (maybe fixed) : 0
Retry sector count : 0
Damaged sector count : 0

Track 05
Filename : /Volumes/LaCieD2 1 DL/Noel Gallagher's High Flying Birds -2021- Back The Way We Came Vol. 1 (2011-2021) (FLAC)/CD1/05 - In The Heat Of The Moment.flac

Track gain : -11.10 dB
Peak : 0.978912
CRC32 hash (test run) : 54E93501
CRC32 hash : 54E93501
CRC32 hash (skip zero) : 74A94D6E
AccurateRip v1 signature : 1557943B
AccurateRip v2 signature : EA620D06
->Track not present in AccurateRip database.
Statistics
Read error : 0
Jitter error (maybe fixed) : 0
Retry sector count : 0
Damaged sector count : 0

Track 06
Filename : /Volumes/LaCieD2 1 DL/Noel Gallagher's High Flying Birds -2021- Back The Way We Came Vol. 1 (2011-2021) (FLAC)/CD1/06 - Riverman.flac

Track gain : -11.02 dB
Peak : 0.995392
CRC32 hash (test run) : D7195AD0
CRC32 hash : D7195AD0
CRC32 hash (skip zero) : 4F8F54D9
AccurateRip v1 signature : AA8BCF32
AccurateRip v2 signature : EA826DEE
->Track not present in AccurateRip database.
Statistics
Read error : 0
Jitter error (maybe fixed) : 0
Retry sector count : 0
Damaged sector count : 0

Track 07
Filename : /Volumes/LaCieD2 1 DL/Noel Gallagher's High Flying Birds -2021- Back The Way We Came Vol. 1 (2011-2021) (FLAC)/CD1/07 - Lock All The Doors.flac
Pre-gap length : 00:01:43

Track gain : -12.03 dB
Peak : 0.940033
CRC32 hash (test run) : B4A3B5DF
CRC32 hash : B4A3B5DF
CRC32 hash (skip zero) : 548F7159
AccurateRip v1 signature : B686CCC6
AccurateRip v2 signature : 2E9B950A
->Track not present in AccurateRip database.
Statistics
Read error : 0
Jitter error (maybe fixed) : 0
Retry sector count : 0
Damaged sector count : 0

Track 08
Filename : /Volumes/LaCieD2 1 DL/Noel Gallagher's High Flying Birds -2021- Back The Way We Came Vol. 1 (2011-2021) (FLAC)/CD1/08 - The Dying Of The Light.flac

Track gain : -11.44 dB
Peak : 0.987335
CRC32 hash (test run) : 520EB817
CRC32 hash : 520EB817
CRC32 hash (skip zero) : 7678948F
AccurateRip v1 signature : 17191548
AccurateRip v2 signature : B31C87C6
->Track not present in AccurateRip database.
Statistics
Read error : 0
Jitter error (maybe fixed) : 0
Retry sector count : 0
Damaged sector count : 0

Track 09
Filename : /Volumes/LaCieD2 1 DL/Noel Gallagher's High Flying Birds -2021- Back The Way We Came Vol. 1 (2011-2021) (FLAC)/CD1/09 - Ballad Of The Mighty I.flac
Pre-gap length : 00:01:15

Track gain : -10.78 dB
Peak : 0.978882
CRC32 hash (test run) : 4CD1FE1C
CRC32 hash : 4CD1FE1C
CRC32 hash (skip zero) : 24738EA6
AccurateRip v1 signature : 86B9D7CD
AccurateRip v2 signature : BAE81F7D
->Track not present in AccurateRip database.
Statistics
Read error : 0
Jitter error (maybe fixed) : 0
Retry sector count : 0
Damaged sector count : 0

Track 10
Filename : /Volumes/LaCieD2 1 DL/Noel Gallagher's High Flying Birds -2021- Back The Way We Came Vol. 1 (2011-2021) (FLAC)/CD1/10 - We're On Our Way Now.flac

Track gain : -10.86 dB
Peak : 0.995331
CRC32 hash (test run) : 8DD363AA
CRC32 hash : 8DD363AA
CRC32 hash (skip zero) : EFDDC7AE
AccurateRip v1 signature : 4C3E1FF3
AccurateRip v2 signature : E025DA78
->Track not present in AccurateRip database.
Statistics
Read error : 0
Jitter error (maybe fixed) : 0
Retry sector count : 0
Damaged sector count : 0

No errors occurred

End of status report

––-BEGIN XLD SIGNATURE––-
sRMvC5cphxdqZCLSiAVjtFe6IJam505rw3_2v.5FTqVhEPKYUpV9aRWYp2qyUDfZfaF8C85pUjjwsRGcoAFwMVOhawz.v6numuoxzKS
––-END XLD SIGNATURE––-
X Lossless Decoder version 20210101 (153.1)

XLD extraction logfile from 2021-06-30 12:00:46 +0200

Noel Gallagher's High Flying Birds / Back The Way We Came: Vol 1 (2011 - 2021)

Used drive : HL-DT-ST DVDRAM GP90EB70 (revision RC00)
Media type : Pressed CD

Ripper mode : XLD Secure Ripper
Disable audio cache : OK for the drive with a cache less than 1375KiB
Make use of C2 pointers : NO
Read offset correction : 6
Max retry count : 100
Gap status : Analyzed, Appended (except HTOA)

TOC of the extracted CD
Track | Start | Length | Start sector | End sector
––––––––––––––––––––––––––––-
1 | 00:00:00 | 04:22:28 | 0 | 19677
2 | 04:22:28 | 03:56:43 | 19678 | 37420
3 | 08:18:71 | 04:08:19 | 37421 | 56039
4 | 12:27:15 | 04:18:00 | 56040 | 75389
5 | 16:45:15 | 05:19:19 | 75390 | 99333
6 | 22:04:34 | 03:44:05 | 99334 | 116138
7 | 25:48:39 | 05:21:54 | 116139 | 140267
8 | 31:10:18 | 03:13:73 | 140268 | 154815

AccurateRip Summary
Disc not found in AccurateRip DB.

All Tracks
Album gain : -10.23 dB
Peak : 0.995392
Statistics
Read error : 0
Jitter error (maybe fixed) : 0
Retry sector count : 1
Damaged sector count : 0

Track 01
Filename : /Volumes/LaCieD2 1 DL/Noel Gallagher's High Flying Birds -2021- Back The Way We Came Vol. 1 (2011-2021) (FLAC)/CD2/01 - Black Star Dancing.flac
Pre-gap length : 00:02:00

Track gain : -9.20 dB
Peak : 0.995392
CRC32 hash (test run) : 3C3387F7
CRC32 hash : 3C3387F7
CRC32 hash (skip zero) : AF882D6F
AccurateRip v1 signature : FEE05964
AccurateRip v2 signature : 84BCCD4D
->Track not present in AccurateRip database.
Statistics
Read error : 0
Jitter error (maybe fixed) : 0
Retry sector count : 0
Damaged sector count : 0

Track 02
Filename : /Volumes/LaCieD2 1 DL/Noel Gallagher's High Flying Birds -2021- Back The Way We Came Vol. 1 (2011-2021) (FLAC)/CD2/02 - Holy Mountain (Remastered).flac

Track gain : -11.67 dB
Peak : 0.995392
CRC32 hash (test run) : F5F26D3A
CRC32 hash : F5F26D3A
CRC32 hash (skip zero) : 22426571
AccurateRip v1 signature : 5422383B
AccurateRip v2 signature : FB49E3EF
->Track not present in AccurateRip database.
Statistics
Read error : 0
Jitter error (maybe fixed) : 0
Retry sector count : 0
Damaged sector count : 0

Track 03
Filename : /Volumes/LaCieD2 1 DL/Noel Gallagher's High Flying Birds -2021- Back The Way We Came Vol. 1 (2011-2021) (FLAC)/CD2/03 - A Dream Is All I Need To Get By.flac

Track gain : -10.11 dB
Peak : 0.937103
CRC32 hash (test run) : 52C33FEE
CRC32 hash : 52C33FEE
CRC32 hash (skip zero) : 8449CE28
AccurateRip v1 signature : 1E0C169F
AccurateRip v2 signature : 82AD3A60
->Track not present in AccurateRip database.
Statistics
Read error : 0
Jitter error (maybe fixed) : 0
Retry sector count : 0
Damaged sector count : 0

Track 04
Filename : /Volumes/LaCieD2 1 DL/Noel Gallagher's High Flying Birds -2021- Back The Way We Came Vol. 1 (2011-2021) (FLAC)/CD2/04 - This Is The Place.flac
Pre-gap length : 00:01:07

Track gain : -11.06 dB
Peak : 0.849396
CRC32 hash (test run) : 611EC2B1
CRC32 hash : 611EC2B1
CRC32 hash (skip zero) : 222FC98D
AccurateRip v1 signature : 39E81BB4
AccurateRip v2 signature : 01DC3ED2
->Track not present in AccurateRip database.
Statistics
Read error : 0
Jitter error (maybe fixed) : 0
Retry sector count : 1
Damaged sector count : 0

Track 05
Filename : /Volumes/LaCieD2 1 DL/Noel Gallagher's High Flying Birds -2021- Back The Way We Came Vol. 1 (2011-2021) (FLAC)/CD2/05 - It's A Beautiful World.flac

Track gain : -10.27 dB
Peak : 0.919189
CRC32 hash (test run) : E5EDDF72
CRC32 hash : E5EDDF72
CRC32 hash (skip zero) : 2A8773B5
AccurateRip v1 signature : 0ACDAE95
AccurateRip v2 signature : 72C40D74
->Track not present in AccurateRip database.
Statistics
Read error : 0
Jitter error (maybe fixed) : 0
Retry sector count : 0
Damaged sector count : 0

Track 06
Filename : /Volumes/LaCieD2 1 DL/Noel Gallagher's High Flying Birds -2021- Back The Way We Came Vol. 1 (2011-2021) (FLAC)/CD2/06 - Blue Moon Rising.flac
Pre-gap length : 00:01:47

Track gain : -9.48 dB
Peak : 0.861115
CRC32 hash (test run) : 8C99F54A
CRC32 hash : 8C99F54A
CRC32 hash (skip zero) : FB26C638
AccurateRip v1 signature : DB0CDCC4
AccurateRip v2 signature : D5D1926E
->Track not present in AccurateRip database.
Statistics
Read error : 0
Jitter error (maybe fixed) : 0
Retry sector count : 0
Damaged sector count : 0

Track 07
Filename : /Volumes/LaCieD2 1 DL/Noel Gallagher's High Flying Birds -2021- Back The Way We Came Vol. 1 (2011-2021) (FLAC)/CD2/07 - Dead In The Water (Live At RTÉ 2FM Studios, Dublin).flac

Track gain : -7.81 dB
Peak : 0.976471
CRC32 hash (test run) : EDFC9994
CRC32 hash : EDFC9994
CRC32 hash (skip zero) : DE843735
AccurateRip v1 signature : C0288270
AccurateRip v2 signature : 95ED07D8
->Track not present in AccurateRip database.
Statistics
Read error : 0
Jitter error (maybe fixed) : 0
Retry sector count : 0
Damaged sector count : 0

Track 08
Filename : /Volumes/LaCieD2 1 DL/Noel Gallagher's High Flying Birds -2021- Back The Way We Came Vol. 1 (2011-2021) (FLAC)/CD2/08 - Flying On The Ground.flac

Track gain : -11.04 dB
Peak : 0.995392
CRC32 hash (test run) : D5E42545
CRC32 hash : D5E42545
CRC32 hash (skip zero) : 33E36E87
AccurateRip v1 signature : 18B41B9A
AccurateRip v2 signature : 389F35B0
->Track not present in AccurateRip database.
Statistics
Read error : 0
Jitter error (maybe fixed) : 0
Retry sector count : 0
Damaged sector count : 0

No errors occurred

End of status report

––-BEGIN XLD SIGNATURE––-
_JbXtInJP7dgHlaNSHaosSnEw.M3Z37KxK1d9PfpggOLSg2TBLImoaubNJuDlJMj6y1icuHigsYrkxqxFjL33uGF0PgokN3v6GHSFRW
––-END XLD SIGNATURE––-
X Lossless Decoder version 20210101 (153.1)

XLD extraction logfile from 2021-06-30 12:16:54 +0200

Noel Gallagher's High Flying Birds / Back The Way We Came: Vol 1 (2011 - 2021)

Used drive : HL-DT-ST DVDRAM GP90EB70 (revision RC00)
Media type : Pressed CD

Ripper mode : XLD Secure Ripper
Disable audio cache : OK for the drive with a cache less than 1375KiB
Make use of C2 pointers : NO
Read offset correction : 6
Max retry count : 100
Gap status : Analyzed, Appended (except HTOA)

TOC of the extracted CD
Track | Start | Length | Start sector | End sector
––––––––––––––––––––––––––––-
1 | 00:00:00 | 05:23:53 | 0 | 24277
2 | 05:23:53 | 04:07:52 | 24278 | 42854
3 | 09:31:30 | 04:14:50 | 42855 | 61954
4 | 13:46:05 | 04:38:54 | 61955 | 82858
5 | 18:24:59 | 04:31:35 | 82859 | 103218
6 | 22:56:19 | 05:17:03 | 103219 | 126996
7 | 28:13:22 | 07:05:08 | 126997 | 158879
8 | 35:18:30 | 05:13:19 | 158880 | 182373
9 | 40:31:49 | 03:05:23 | 182374 | 196271
10 | 43:36:72 | 04:17:20 | 196272 | 215566
11 | 47:54:17 | 10:06:08 | 215567 | 261024
12 | 58:00:25 | 05:41:51 | 261025 | 286650

AccurateRip Summary
Disc not found in AccurateRip DB.

All Tracks
Album gain : -9.40 dB
Peak : 0.995392
Statistics
Read error : 0
Jitter error (maybe fixed) : 0
Retry sector count : 0
Damaged sector count : 0

Track 01
Filename : /Volumes/LaCieD2 1 DL/Noel Gallagher's High Flying Birds -2021- Back The Way We Came Vol. 1 (2011-2021) (FLAC)/CD3/01 - It's A Beautiful World (Instrumental).flac
Pre-gap length : 00:02:00

Track gain : -10.00 dB
Peak : 0.995392
CRC32 hash (test run) : 8FF9F40C
CRC32 hash : 8FF9F40C
CRC32 hash (skip zero) : DB73DA18
AccurateRip v1 signature : 05632A79
AccurateRip v2 signature : 8A7167E8
->Track not present in AccurateRip database.
Statistics
Read error : 0
Jitter error (maybe fixed) : 0
Retry sector count : 0
Damaged sector count : 0

Track 02
Filename : /Volumes/LaCieD2 1 DL/Noel Gallagher's High Flying Birds -2021- Back The Way We Came Vol. 1 (2011-2021) (FLAC)/CD3/02 - If I Had A Gun … (Acoustic Version).flac

Track gain : -9.37 dB
Peak : 0.995392
CRC32 hash (test run) : E9DE36CC
CRC32 hash : E9DE36CC
CRC32 hash (skip zero) : FFBEB4C4
AccurateRip v1 signature : 35F22359
AccurateRip v2 signature : 7FE1F74F
->Track not present in AccurateRip database.
Statistics
Read error : 0
Jitter error (maybe fixed) : 0
Retry sector count : 0
Damaged sector count : 0

Track 03
Filename : /Volumes/LaCieD2 1 DL/Noel Gallagher's High Flying Birds -2021- Back The Way We Came Vol. 1 (2011-2021) (FLAC)/CD3/03 - Black Star Dancing (Skeleton Key Remix).flac

Track gain : -9.02 dB
Peak : 0.995392
CRC32 hash (test run) : B1DCC528
CRC32 hash : B1DCC528
CRC32 hash (skip zero) : 0A9A6588
AccurateRip v1 signature : 991C685B
AccurateRip v2 signature : 81461590
->Track not present in AccurateRip database.
Statistics
Read error : 0
Jitter error (maybe fixed) : 0
Retry sector count : 0
Damaged sector count : 0

Track 04
Filename : /Volumes/LaCieD2 1 DL/Noel Gallagher's High Flying Birds -2021- Back The Way We Came Vol. 1 (2011-2021) (FLAC)/CD3/04 - Black Star Dancing (12- Mix Instrumental).flac

Track gain : -7.98 dB
Peak : 0.914215
CRC32 hash (test run) : 74A3FADA
CRC32 hash : 74A3FADA
CRC32 hash (skip zero) : 1E6DBA82
AccurateRip v1 signature : 69895454
AccurateRip v2 signature : 9D44B869
->Track not present in AccurateRip database.
Statistics
Read error : 0
Jitter error (maybe fixed) : 0
Retry sector count : 0
Damaged sector count : 0

Track 05
Filename : /Volumes/LaCieD2 1 DL/Noel Gallagher's High Flying Birds -2021- Back The Way We Came Vol. 1 (2011-2021) (FLAC)/CD3/05 - The Man Who Built The Moon (Acoustic Version).flac

Track gain : -9.00 dB
Peak : 0.987793
CRC32 hash (test run) : 2A8D4545
CRC32 hash : 2A8D4545
CRC32 hash (skip zero) : F95D1594
AccurateRip v1 signature : A3EF9B5B
AccurateRip v2 signature : 88A0A616
->Track not present in AccurateRip database.
Statistics
Read error : 0
Jitter error (maybe fixed) : 0
Retry sector count : 0
Damaged sector count : 0

Track 06
Filename : /Volumes/LaCieD2 1 DL/Noel Gallagher's High Flying Birds -2021- Back The Way We Came Vol. 1 (2011-2021) (FLAC)/CD3/06 - International Magic (Demo).flac
Pre-gap length : 00:01:04

Track gain : -11.97 dB
Peak : 0.995392
CRC32 hash (test run) : 64E98302
CRC32 hash : 64E98302
CRC32 hash (skip zero) : EECA701D
AccurateRip v1 signature : E5D6D567
AccurateRip v2 signature : A063F6B4
->Track not present in AccurateRip database.
Statistics
Read error : 0
Jitter error (maybe fixed) : 0
Retry sector count : 0
Damaged sector count : 0

Track 07
Filename : /Volumes/LaCieD2 1 DL/Noel Gallagher's High Flying Birds -2021- Back The Way We Came Vol. 1 (2011-2021) (FLAC)/CD3/07 - Blue Moon Rising (Sons Of The Desert Remix).flac
Pre-gap length : 00:00:64

Track gain : -8.41 dB
Peak : 0.995392
CRC32 hash (test run) : 3DBD7F4B
CRC32 hash : 3DBD7F4B
CRC32 hash (skip zero) : DA5F8F66
AccurateRip v1 signature : 756A2219
AccurateRip v2 signature : BBB97303
->Track not present in AccurateRip database.
Statistics
Read error : 0
Jitter error (maybe fixed) : 0
Retry sector count : 0
Damaged sector count : 0

Track 08
Filename : /Volumes/LaCieD2 1 DL/Noel Gallagher's High Flying Birds -2021- Back The Way We Came Vol. 1 (2011-2021) (FLAC)/CD3/08 - The Dying Of The Light (Acoustic Version).flac
Pre-gap length : 00:00:66

Track gain : -9.34 dB
Peak : 0.995392
CRC32 hash (test run) : 7321F4B8
CRC32 hash : 7321F4B8
CRC32 hash (skip zero) : FDD72CE8
AccurateRip v1 signature : 4E054385
AccurateRip v2 signature : C427F447
->Track not present in AccurateRip database.
Statistics
Read error : 0
Jitter error (maybe fixed) : 0
Retry sector count : 0
Damaged sector count : 0

Track 09
Filename : /Volumes/LaCieD2 1 DL/Noel Gallagher's High Flying Birds -2021- Back The Way We Came Vol. 1 (2011-2021) (FLAC)/CD3/09 - This Is The Place (Skeleton Key Remix).flac

Track gain : -10.24 dB
Peak : 0.995392
CRC32 hash (test run) : 3DA54B11
CRC32 hash : 3DA54B11
CRC32 hash (skip zero) : 39CD3D7B
AccurateRip v1 signature : 7EEF47EE
AccurateRip v2 signature : CA608311
->Track not present in AccurateRip database.
Statistics
Read error : 0
Jitter error (maybe fixed) : 0
Retry sector count : 0
Damaged sector count : 0

Track 10
Filename : /Volumes/LaCieD2 1 DL/Noel Gallagher's High Flying Birds -2021- Back The Way We Came Vol. 1 (2011-2021) (FLAC)/CD3/10 - This Is The Place (Instrumental).flac

Track gain : -10.80 dB
Peak : 0.847443
CRC32 hash (test run) : F6292EBA
CRC32 hash : F6292EBA
CRC32 hash (skip zero) : BEB38DC8
AccurateRip v1 signature : 350EB26D
AccurateRip v2 signature : 839B7C4A
->Track not present in AccurateRip database.
Statistics
Read error : 0
Jitter error (maybe fixed) : 0
Retry sector count : 0
Damaged sector count : 0

Track 11
Filename : /Volumes/LaCieD2 1 DL/Noel Gallagher's High Flying Birds -2021- Back The Way We Came Vol. 1 (2011-2021) (FLAC)/CD3/11 - Black Star Dancing (The Reflex Revision).flac
Pre-gap length : 00:00:63

Track gain : -7.62 dB
Peak : 0.920990
CRC32 hash (test run) : AE84D269
CRC32 hash : AE84D269
CRC32 hash (skip zero) : B07DE752
AccurateRip v1 signature : E72CECF5
AccurateRip v2 signature : B1601B98
->Track not present in AccurateRip database.
Statistics
Read error : 0
Jitter error (maybe fixed) : 0
Retry sector count : 0
Damaged sector count : 0

Track 12
Filename : /Volumes/LaCieD2 1 DL/Noel Gallagher's High Flying Birds -2021- Back The Way We Came Vol. 1 (2011-2021) (FLAC)/CD3/12 - Be Careful What You Wish For (Instrumental).flac
Pre-gap length : 00:01:50

Track gain : -9.45 dB
Peak : 0.995392
CRC32 hash (test run) : EE46303C
CRC32 hash : EE46303C
CRC32 hash (skip zero) : 7EA13D3F
AccurateRip v1 signature : 8A39628F
AccurateRip v2 signature : 66182AB0
->Track not present in AccurateRip database.
Statistics
Read error : 0
Jitter error (maybe fixed) : 0
Retry sector count : 0
Damaged sector count : 0

No errors occurred

End of status report

––-BEGIN XLD SIGNATURE––-
Td3lMXPru2O2sEC9_D2DDOeIICUDxxETzPvpVCPkXa5tZFIiKCL4DJjIeg8frFKxCQKyrT.lcxtxeTpeLeY5qBKHsdvowA7Tr0DZ5sG
––-END XLD SIGNATURE––-

Thanks to the Original ripper !