Tags
Language
Tags

Aretha Franklin - Let Me In Your Life (1974) [1994, Remastered Reissue]

Posted By: BlondStyle
Aretha Franklin - Let Me In Your Life (1974) [1994, Remastered Reissue]

Aretha Franklin - Let Me In Your Life (1974) [1994, Remastered Reissue]
R&B, Soul, Blues, Soul-Jazz | EAC Rip | FLAC, Img+CUE+LOG+Scans (PNG) | 43:30 Min | 468,51 Mb
Label: Atlantic/Rhino Records (EU) | Cat.# 8122-71854-2 | Released: 1994-12-13 (1974-02-25)
Aretha Franklin - Let Me In Your Life (1974) [1994, Remastered Reissue]

"Let Me In Your Life" is the twentieth studio album by American singer Aretha Franklin, released on February 25, 1974 by Atlantic Records. This was one of Aretha's top-selling Atlantic Records albums. The album hit #1 on Billboard's R&B albums chart and reached #14 on Billboard's main album chart, missing the Gold standard by a small margin. Featuring three hit singles, it is regarded as one of Franklin's best Atlantic recordings.
~Wikipedia
A nice, if at times overbearing, mid-'70s Franklin set. She was still singing with the stunning delivery, amazing timing, and majestic soul that highlighted her late-'60s releases. Her version of "Until You Come Back to Me (That's What I'm Gonna Do)" is the only one that might be superior to Stevie Wonder's great original, while "I'm in Love" and the title cut are prime Franklin.
~Review by Ron Wynn

Aretha Franklin - Let Me In Your Life (1974) [1994, Remastered Reissue]

Aretha Franklin - Let Me In Your Life (1974) [1994, Remastered Reissue]




Release of this album: 1974, February, 25 [LP Atlantic Records, Cat.# SD 7292, USA]
Release of this CD: 1994, December, 13 [CD Atlantic/Rhino Records (EU), Cat.# 8122-71854-2, UPC: 081227185428]
This reissue ℗ 1974, © 1974 & 1994 Atlantic Recording Corporation.
Manufactured & Marketed by Rhino Records Inc.
Made in Germany by Warner Music Manufacturing Europe.


Note: Remastered Reissue. A part of 'Atlantic & ATCO Remasters' Series.

Credits:

Arranged By – William Eaton (tracks: 3 to 5)
Arranged By [Horns] – Arif Mardin (tracks: 1, 2, 4, 7 to 11)
Arranged By [Strings] – Arif Mardin (tracks: 2, 4, 7 to 11)
Backing Vocals – Ann S. Clark (tracks: 2, 5, 7, 9), Margaret Branch (tracks: 2, 5, 7, 9), Pat Smith (tracks: 2, 5, 7, 9)
Bass – Chuck Rainey (tracks: 2, 5, 6, 8), Stan Clarke (tracks: 1, 3, 4, 6), Willie Weeks (tracks: 8, 10, 11)
Concertmaster – Gene Orloff
Drums – Bernard Purdie (tracks: 2, 5, 7 to 11), Rick Marotta (tracks: 1, 3, 4, 6)
Guitar – Cornell Dupree (tracks: 2, 4, 7 to 11), David Spinozza (tracks: 1, 3, 4, 6)
Mixed By – Arif Mardin
Organ – Richard Tee (tracks: 2, 5, 10,11)
Percussion – Pancho Morales (tracks: 2, 7, 9), Ralph MacDonald (tracks: 1 to 4, 6 to 11)
Piano – Aretha Franklin (tracks: 2, 5, 7 to 9)
Producer [Original Recordings Produced By] – Aretha Franklin, Arif Mardin, Jerry Wexler, Tom Dowd
Recorded By – Gene Paul (tracks: 2, 8 to 11), Phil Ramone (tracks: 1, 3, 4, 6)


Tracklist:

01. Let Me In Your Life (03:31)
(Bill Withers)
02. Every Natural Thing (02:37)
(Eddie Hinton)
03. Ain't Nothing Like The Real Thing (03:50)
(Nick Ashford & Valerie Simpson)
04. I'm In Love (02:51)
(Bobby Womack)
05. Until You Come Back To Me (That's What I'm Gonna Do) (03:28)
(Clarence Paul, Morris Broadnax, Stevie Wonder)
06. The Masquerade Is Over (04:32)
(Allie Wrubel, Herbert Magidson)
07. With Pen In Hand (05:08)
(Bobby Goldsboro)
08. Oh Baby (05:00)
(Aretha Franklin)
09. Eight Days On The Road (03:04)
(Jerry Ragovoy, Michael Gayle)
10. If You Don't Think (03:54)
(Aretha Franklin)
11. A Song For You (05:34)
(Leon Russell)

Exact Audio Copy V1.3 from 2. September 2016

EAC extraction logfile from 22. August 2018, 23:47

Aretha Franklin / Let Me In Your Life

Used drive : PIONEER BD-RW BDR-208D Adapter: 1 ID: 0

Read mode : Secure
Utilize accurate stream : Yes
Defeat audio cache : Yes
Make use of C2 pointers : No

Read offset correction : 667
Overread into Lead-In and Lead-Out : No
Fill up missing offset samples with silence : Yes
Delete leading and trailing silent blocks : No
Null samples used in CRC calculations : Yes
Used interface : Native Win32 interface for Win NT & 2000

Used output format : Internal WAV Routines
Sample format : 44.100 Hz; 16 Bit; Stereo


TOC of the extracted CD

Track | Start | Length | Start sector | End sector
––––––––––––––––––––––––––––-
1 | 0:00.00 | 3:31.02 | 0 | 15826
2 | 3:31.02 | 2:37.15 | 15827 | 27616
3 | 6:08.17 | 3:49.63 | 27617 | 44854
4 | 9:58.05 | 2:51.25 | 44855 | 57704
5 | 12:49.30 | 3:28.37 | 57705 | 73341
6 | 16:17.67 | 4:32.10 | 73342 | 93751
7 | 20:50.02 | 5:07.63 | 93752 | 116839
8 | 25:57.65 | 4:59.72 | 116840 | 139336
9 | 30:57.62 | 3:04.05 | 139337 | 153141
10 | 34:01.67 | 3:53.50 | 153142 | 170666
11 | 37:55.42 | 5:33.73 | 170667 | 195714


Range status and errors

Selected range

Filename D:\BlondStyle\Aretha Franklin - Let Me In Your Life.wav

Peak level 97.2 %
Extraction speed 6.4 X
Range quality 99.9 %
Test CRC A57FE028
Copy CRC A57FE028
Copy OK

No errors occurred


AccurateRip summary

Track 1 accurately ripped (confidence 2) [82A1DDF3] (AR v2)
Track 2 accurately ripped (confidence 2) [CC309B0F] (AR v2)
Track 3 accurately ripped (confidence 2) [2BD154CB] (AR v2)
Track 4 accurately ripped (confidence 2) [55368AC2] (AR v2)
Track 5 accurately ripped (confidence 2) [7ED4EB9C] (AR v2)
Track 6 accurately ripped (confidence 2) [789E8340] (AR v2)
Track 7 accurately ripped (confidence 2) [34704D94] (AR v2)
Track 8 accurately ripped (confidence 2) [0C5002C9] (AR v2)
Track 9 accurately ripped (confidence 2) [40F45432] (AR v2)
Track 10 accurately ripped (confidence 2) [5A17374D] (AR v2)
Track 11 accurately ripped (confidence 2) [6FAD76B7] (AR v2)

All tracks accurately ripped

End of status report

–– CUETools DB Plugin V2.1.6

[CTDB TOCID: Sl_XXeaMfg6X3DbR_onveZQ_YIo-] found
Submit result: Sl_XXeaMfg6X3DbR_onveZQ_YIo- has been confirmed
Track | CTDB Status
1 | (26/27) Accurately ripped
2 | (26/27) Accurately ripped
3 | (26/27) Accurately ripped
4 | (26/27) Accurately ripped
5 | (26/27) Accurately ripped
6 | (26/27) Accurately ripped
7 | (26/27) Accurately ripped
8 | (26/27) Accurately ripped
9 | (26/27) Accurately ripped
10 | (26/27) Accurately ripped
11 | (27/27) Accurately ripped


==== Log checksum 4A7B33192065028D731ABEF97851374F140B834FC536288C9EE81D395D39B256 ====

––––––––––––––––––––––––––––––––––––––––
Analyzed: Aretha Franklin / Let Me In Your Life
––––––––––––––––––––––––––––––––––––––––

DR Peak RMS Duration Track
––––––––––––––––––––––––––––––––––––––––
DR9 -0.24 dB -11.20 dB 3:31 01-Let Me In Your Life
DR9 -0.24 dB -10.64 dB 2:37 02-Every Natural Thing
DR11 -0.24 dB -13.18 dB 3:50 03-Ain't Nothing Like The Real Thing
DR9 -0.24 dB -12.54 dB 2:51 04-I'm In Love
DR7 -0.24 dB -9.56 dB 3:28 05-Until You Come Back To Me (That's What I'm Gonna Do)
DR12 -0.24 dB -15.65 dB 4:32 06-The Masquerade Is Over
DR9 -0.24 dB -11.89 dB 5:08 07-With Pen In Hand
DR7 -0.24 dB -10.43 dB 5:00 08-Oh Baby
DR7 -0.48 dB -10.25 dB 3:04 09-Eight Days On The Road
DR8 -0.24 dB -11.41 dB 3:54 10-If You Don't Think
DR9 -0.24 dB -12.52 dB 5:34 11-A Song For You
––––––––––––––––––––––––––––––––––––––––

Number of tracks: 11
Official DR value: DR9

Samplerate: 44100 Hz
Channels: 2
Bits per sample: 16
Bitrate: 854 kbps
Codec: FLAC
================================================================================

See also:


password: BlondStyle