Tags
Language
Tags

Aretha Franklin - Love All The Hurt Away (1981) [2012, Remastered & Expanded Edition]

Posted By: BlondStyle
Aretha Franklin - Love All The Hurt Away (1981) [2012, Remastered & Expanded Edition]

Aretha Franklin - Love All The Hurt Away (1981) [2012, Remastered & Expanded Edition]
R&B, Soul, Quiet Storm | EAC Rip | FLAC, Tracks+CUE+LOG+Scans (JPEG) | 62:51 Min. | 447,02 Mb
Label: Arista Records/BBR (UK) | Cat.# CDBBR 0189 | Released: 2012-09-24 (1981)
Aretha Franklin - Love All The Hurt Away (1981) [2012, Remastered & Expanded Edition]

"Love All The Hurt Away" is the thirtieth studio album by American singer Aretha Franklin, the singer's second release for Arista Records. Despite strong reviews, it was a sales disappointment, topping off below 250,000 copies. Aretha's cover version of Sam & Dave's classic hit "Hold On! I'm Coming" won Franklin her 11th Grammy Award in the Best R&B Vocal Performance, Female category. It was her first Grammy win since 1974. The album was remastered in 2012 by Big Break Records and included 3 bonus tracks.
~Wikipedia
Aretha Franklin's post-Atlantic material has the same problems as the Columbia cuts. There are too many songs in which the wondrous Franklin voice was simply inserted into otherwise routine situations, with singles issued to take advantage of her hard-earned credibility and reputation. The title cut was a nice duet between Franklin and George Benson, and there were some other decent songs, but this was overall a disappointment.
~Review by Ron Wynn

Aretha Franklin - Love All The Hurt Away (1981) [2012, Remastered & Expanded Edition]

Aretha Franklin - Love All The Hurt Away (1981) [2012, Remastered & Expanded Edition]




Release of the album: 1981, August [LP Arista Records, Cat.# AL 9552, USA]
Release of this CD: 2012, September, 24 [CD Arista Records/BBR (UK), Cat.# CDBBR 0189 / UPC: 5013929048935]
℗ 1981. This compilation ℗ & © 2012 Big Break Records.
All tracks licensed from Sony Music Entertainment UK Ltd.
Marketed and Distributed by Cherry Red Records Ltd.
Made in EC/MCPS


Credits:

Alto Saxophone – Eddie Daniels (tracks: 1)
Art Direction, Design – Ria Lewerke-Shapiro
Backing Vocals – Arnold McCuller (tracks: 4, 5), Cissy Houston (tracks: 2, 4, 6, 7), Darlene Love (tracks: 2, 4, 6, 7), David Lasley (tracks: 4, 5), Estelle Brown (tracks: 2, 4, 6, 7), Jo Ann Harris (tracks: 5, 7, 8), Linda Lawrence (tracks: 7, 8), Marci Levy (tracks: 1, 3 to 5, 7, 8), Margaret Branch (tracks: 2, 4 to 6), Mark Stevens (tracks: 1, 3 to 5), Myrna Smith (tracks: 6, 7)
Bass – Abe Laboriel (tracks: 6), Louis Johnson (tracks: 1, 3), Marcus Miller (tracks: 2, 4, 5, 7 to 10)
Concertmaster – Gene Orloff, Harry Bluestone
Coordinator [Production Assistant] – Chrissy Allerdings
Coordinator [Production] – Frank DeCaro
Design [CD Booklet] – Paul Bevoir
Design Concept [Cover] – Aretha Franklin
Drums – Jeff Porcaro (tracks: 1 to 10)
Electric Piano – David Paich (tracks: 5, 7 to 9)
Engineer [Assistant] – Jim Simon, Michael O'Reilly, Steven McManus, Terry Christian
Engineer [Recording] – Jeremy Smith (2)
Guitar – Buzz Feiten (tracks: 1, 7), David Williams (4) (tracks: 2 to 9, 10), Steve Lukather (tracks: 5 to 9)
Keyboards – David Foster (tracks: 1, 3), Greg Phillinganes (tracks: 2 to 7, 10), Robbie Buchanan (tracks: 2, 4)
Lead Vocals – George Benson (tracks: 1)
Lead Vocals, Backing Vocals, Piano – Aretha Franklin
Liner Notes, Research, Interviewer – Christian John Wikane
Mixed By – Arif Mardin (tracks: 2, 5), Lew Hahn (tracks: 2, 5), Michael O'Reilly (tracks: 2, 5)
Percussion – Paulinho Da Costa (tracks: 1, 3, 5), Steve Ferrone (tracks: 7)
Photography By – George Hurrell
Producer – Aretha Franklin (tracks: 7, 9, 10), Arif Mardin
Recorded By [Additional], Remix – Lew Hahn
Reissue Producer – Wayne A. Dickson
Reissue Producer [Associate] – Christian John Wikane, Leon Fort
Remastered By – Joe Gastwirt, Nick Robins
Remastered By [Additional] – Wayne A. Dickson
Research [Audio] – Michal Bednarek
Research [Repertoire] – Marcus Spehr
Saxophone – Gary Herbig, Jim Horn, Larry Williams, Ronnie Cuber, Seldon Powell, William Slapin
Trombone – Bill Reichenbach, Urbie Green
Trumpet – Gary Grant, Jerry Hey, Joe Shepley, Jon Faddis
Typography [Original Credits Transcribed By] – Leon Fort


Tracklist:

01. Love All The Hurt Away (duet with George Benson) (04:12)
(Sam Dees)
02. Hold On, I'm Comin' (05:14)
(David Porter, Issac Hayes)
03. Living In The Streets (03:55)
(Rod Temperton)
04. There's A Star For Everyone (04:28)
(Allee Willis, Don Yowell, David Lasley )
05. You Can't Always Get What You Want (05:18)
(Mick Jagger, Keith Richards)
06. It's My Turn (05:30)
(Carole Bayer Sager, Michael Masser)
07. Truth And Honesty (04:17)
(Burt Bacharach, Carole Bayer Sager, Peter Allen)
08. Search On (04:49)
(Chuck Jackson)
09. Whole Lot Of Me (03:25)
(Aretha Franklin)
10. Kind Of Man (04:19)
(Aretha Franklin)

Bonus Tracks:

11. Hold On I'm Comin' (12" Extended Version) (06:44)
(David Porter, Issac Hayes)
12. Livin' In The Streets (12" Extended Remix) (06:17)
(Rod Temperton)
13. It's My Turn (Single Version) (04:13)
(Carole Bayer Sager, Michael Masser)

Exact Audio Copy V1.3 from 2. September 2016

EAC extraction logfile from 10. July 2018, 19:12

Aretha Franklin / Love All The Hurt Away [Expanded Edition]

Used drive : PLEXTOR PX-891SAF Adapter: 1 ID: 0

Read mode : Secure
Utilize accurate stream : Yes
Defeat audio cache : Yes
Make use of C2 pointers : No

Read offset correction : 6
Overread into Lead-In and Lead-Out : No
Fill up missing offset samples with silence : Yes
Delete leading and trailing silent blocks : No
Null samples used in CRC calculations : Yes
Used interface : Native Win32 interface for Win NT & 2000
Gap handling : Appended to previous track

Used output format : User Defined Encoder
Selected bitrate : 1024 kBit/s
Quality : High
Add ID3 tag : No
Command line compressor : C:\Program Files (x86)\Exact Audio Copy\Flac\flac.exe
Additional command line options : -8 -V -T "ARTIST=%artist%" -T "TITLE=%title%" -T "ALBUM=%albumtitle%" -T "DATE=%year%" -T "TRACKNUMBER=%tracknr%" -T "GENRE=%genre%" -T "PERFORMER=%albuminterpret%" -T "COMPOSER=%composer%" %haslyrics%–tag-from-file=LYRICS="%lyricsfile%"%haslyrics% -T "ALBUMARTIST=%albumartist%" -T "DISCNUMBER=%cdnumber%" -T "TOTALDISCS=%totalcds%" -T "TOTALTRACKS=%numtracks%" -T "COMMENT=%comment%" %source% -o %dest%


TOC of the extracted CD

Track | Start | Length | Start sector | End sector
––––––––––––––––––––––––––––-
1 | 0:00.00 | 4:11.68 | 0 | 18892
2 | 4:11.68 | 5:16.32 | 18893 | 42624
3 | 9:28.25 | 3:54.58 | 42625 | 60232
4 | 13:23.08 | 4:27.72 | 60233 | 80329
5 | 17:51.05 | 5:19.10 | 80330 | 104264
6 | 23:10.15 | 5:30.29 | 104265 | 129043
7 | 28:40.44 | 4:17.48 | 129044 | 148366
8 | 32:58.17 | 4:50.42 | 148367 | 170158
9 | 37:48.59 | 3:25.45 | 170159 | 185578
10 | 41:14.29 | 4:22.47 | 185579 | 205275
11 | 45:37.01 | 6:44.22 | 205276 | 235597
12 | 52:21.23 | 6:16.44 | 235598 | 263841
13 | 58:37.67 | 4:12.65 | 263842 | 282806


Track 1

Filename I:\#New Rips + FLAC\Aretha Franklin - Love All The Hurt Away {Expanded Remaster}\01. Aretha Franklin - Love All the Hurt Away.wav

Pre-gap length 0:00:02.00

Peak level 96.6 %
Extraction speed 5.2 X
Track quality 100.0 %
Test CRC 9E06048F
Copy CRC 9E06048F
Accurately ripped (confidence 7) [C6EA31F4] (AR v2)
Copy OK

Track 2

Filename I:\#New Rips + FLAC\Aretha Franklin - Love All The Hurt Away {Expanded Remaster}\02. Aretha Franklin - Hold On I'm Comin'.wav

Pre-gap length 0:00:01.17

Peak level 96.6 %
Extraction speed 5.9 X
Track quality 100.0 %
Test CRC 1847D1CE
Copy CRC 1847D1CE
Accurately ripped (confidence 7) [23440672] (AR v2)
Copy OK

Track 3

Filename I:\#New Rips + FLAC\Aretha Franklin - Love All The Hurt Away {Expanded Remaster}\03. Aretha Franklin - Living in the Streets.wav

Pre-gap length 0:00:01.92

Peak level 96.6 %
Extraction speed 6.2 X
Track quality 100.0 %
Test CRC 83A20B95
Copy CRC 83A20B95
Accurately ripped (confidence 7) [029B5001] (AR v2)
Copy OK

Track 4

Filename I:\#New Rips + FLAC\Aretha Franklin - Love All The Hurt Away {Expanded Remaster}\04. Aretha Franklin - There's a Star for Everyone.wav

Peak level 96.6 %
Extraction speed 6.8 X
Track quality 100.0 %
Test CRC B324B824
Copy CRC B324B824
Accurately ripped (confidence 7) [14A16291] (AR v2)
Copy OK

Track 5

Filename I:\#New Rips + FLAC\Aretha Franklin - Love All The Hurt Away {Expanded Remaster}\05. Aretha Franklin - You Can't Always Get What You Want.wav

Pre-gap length 0:00:01.02

Peak level 96.6 %
Extraction speed 7.4 X
Track quality 100.0 %
Test CRC 8D6AF0E8
Copy CRC 8D6AF0E8
Accurately ripped (confidence 7) [2BDFE36F] (AR v2)
Copy OK

Track 6

Filename I:\#New Rips + FLAC\Aretha Franklin - Love All The Hurt Away {Expanded Remaster}\06. Aretha Franklin - It's My Turn.wav

Pre-gap length 0:00:01.32

Peak level 96.6 %
Extraction speed 7.9 X
Track quality 100.0 %
Test CRC 08F12A52
Copy CRC 08F12A52
Accurately ripped (confidence 7) [162A6D11] (AR v2)
Copy OK

Track 7

Filename I:\#New Rips + FLAC\Aretha Franklin - Love All The Hurt Away {Expanded Remaster}\07. Aretha Franklin - Truth and Honesty.wav

Peak level 96.6 %
Extraction speed 6.8 X
Track quality 99.9 %
Test CRC 7FB36053
Copy CRC 7FB36053
Accurately ripped (confidence 7) [A2E262D0] (AR v2)
Copy OK

Track 8

Filename I:\#New Rips + FLAC\Aretha Franklin - Love All The Hurt Away {Expanded Remaster}\08. Aretha Franklin - Search On.wav

Pre-gap length 0:00:01.65

Peak level 96.6 %
Extraction speed 8.5 X
Track quality 100.0 %
Test CRC 3D6FD01F
Copy CRC 3D6FD01F
Accurately ripped (confidence 7) [6F9B6A26] (AR v2)
Copy OK

Track 9

Filename I:\#New Rips + FLAC\Aretha Franklin - Love All The Hurt Away {Expanded Remaster}\09. Aretha Franklin - Whole Lot of Me.wav

Pre-gap length 0:00:01.60

Peak level 96.6 %
Extraction speed 8.5 X
Track quality 100.0 %
Test CRC FA486B16
Copy CRC FA486B16
Accurately ripped (confidence 7) [1F6809C0] (AR v2)
Copy OK

Track 10

Filename I:\#New Rips + FLAC\Aretha Franklin - Love All The Hurt Away {Expanded Remaster}\10. Aretha Franklin - Kind of Man.wav

Pre-gap length 0:00:01.26

Peak level 96.6 %
Extraction speed 7.6 X
Track quality 99.9 %
Test CRC 959AC0A2
Copy CRC 959AC0A2
Accurately ripped (confidence 7) [C8C56EC7] (AR v2)
Copy OK

Track 11

Filename I:\#New Rips + FLAC\Aretha Franklin - Love All The Hurt Away {Expanded Remaster}\11. Aretha Franklin - Hold On I'm Comin' [12'' Extended Version].wav

Pre-gap length 0:00:03.52

Peak level 96.6 %
Extraction speed 9.8 X
Track quality 100.0 %
Test CRC 9FE69D64
Copy CRC 9FE69D64
Accurately ripped (confidence 7) [5D33F198] (AR v2)
Copy OK

Track 12

Filename I:\#New Rips + FLAC\Aretha Franklin - Love All The Hurt Away {Expanded Remaster}\12. Aretha Franklin - Livin' in the Streets [12'' Extended Remix].wav

Pre-gap length 0:00:01.18

Peak level 96.6 %
Extraction speed 10.1 X
Track quality 100.0 %
Test CRC EE251B5D
Copy CRC EE251B5D
Accurately ripped (confidence 7) [71FDDAAC] (AR v2)
Copy OK

Track 13

Filename I:\#New Rips + FLAC\Aretha Franklin - Love All The Hurt Away {Expanded Remaster}\13. Aretha Franklin - It's My Turn [Single Version].wav

Pre-gap length 0:00:01.60

Peak level 96.6 %
Extraction speed 10.0 X
Track quality 100.0 %
Test CRC 996D681B
Copy CRC 996D681B
Accurately ripped (confidence 7) [DB2F5348] (AR v2)
Copy OK


All tracks accurately ripped

No errors occurred

End of status report

–– CUETools DB Plugin V2.1.6

[CTDB TOCID: pG9KF9GpwXRDKkSKI_mwc1Do3Pk-] found
Submit result: pG9KF9GpwXRDKkSKI_mwc1Do3Pk- has been confirmed
Track | CTDB Status
1 | (9/9) Accurately ripped
2 | (9/9) Accurately ripped
3 | (9/9) Accurately ripped
4 | (9/9) Accurately ripped
5 | (9/9) Accurately ripped
6 | (9/9) Accurately ripped
7 | (9/9) Accurately ripped
8 | (9/9) Accurately ripped
9 | (9/9) Accurately ripped
10 | (9/9) Accurately ripped
11 | (9/9) Accurately ripped
12 | (9/9) Accurately ripped
13 | (9/9) Accurately ripped


==== Log checksum D7ACDFECF7B237ECCEFEB6BCFAAF04BCB2887FB14DC26E17B52C4FEBD0AB003C ====

––––––––––––––––––––––––––––––

Exact Audio Copy V1.3 from 2. September 2016

EAC extraction logfile from 10. July 2018, 19:12

Aretha Franklin / Love All The Hurt Away [Expanded Edition]

Used drive : PLEXTOR PX-891SAF Adapter: 1 ID: 0

Read mode : Secure
Utilize accurate stream : Yes
Defeat audio cache : Yes
Make use of C2 pointers : No

Read offset correction : 6
Overread into Lead-In and Lead-Out : No
Fill up missing offset samples with silence : Yes
Delete leading and trailing silent blocks : No
Null samples used in CRC calculations : Yes
Used interface : Native Win32 interface for Win NT & 2000
Gap handling : Appended to previous track

Used output format : User Defined Encoder
Selected bitrate : 1024 kBit/s
Quality : High
Add ID3 tag : No
Command line compressor : C:\Program Files (x86)\Exact Audio Copy\Flac\flac.exe
Additional command line options : -8 -V -T "ARTIST=%artist%" -T "TITLE=%title%" -T "ALBUM=%albumtitle%" -T "DATE=%year%" -T "TRACKNUMBER=%tracknr%" -T "GENRE=%genre%" -T "PERFORMER=%albuminterpret%" -T "COMPOSER=%composer%" %haslyrics%–tag-from-file=LYRICS="%lyricsfile%"%haslyrics% -T "ALBUMARTIST=%albumartist%" -T "DISCNUMBER=%cdnumber%" -T "TOTALDISCS=%totalcds%" -T "TOTALTRACKS=%numtracks%" -T "COMMENT=%comment%" %source% -o %dest%


TOC of the extracted CD

Track | Start | Length | Start sector | End sector
––––––––––––––––––––––––––––-
1 | 0:00.00 | 4:11.68 | 0 | 18892
2 | 4:11.68 | 5:16.32 | 18893 | 42624
3 | 9:28.25 | 3:54.58 | 42625 | 60232
4 | 13:23.08 | 4:27.72 | 60233 | 80329
5 | 17:51.05 | 5:19.10 | 80330 | 104264
6 | 23:10.15 | 5:30.29 | 104265 | 129043
7 | 28:40.44 | 4:17.48 | 129044 | 148366
8 | 32:58.17 | 4:50.42 | 148367 | 170158
9 | 37:48.59 | 3:25.45 | 170159 | 185578
10 | 41:14.29 | 4:22.47 | 185579 | 205275
11 | 45:37.01 | 6:44.22 | 205276 | 235597
12 | 52:21.23 | 6:16.44 | 235598 | 263841
13 | 58:37.67 | 4:12.65 | 263842 | 282806


Track 1

Filename I:\#New Rips + FLAC\Aretha Franklin - Love All The Hurt Away {Expanded Remaster}\01. Aretha Franklin - Love All the Hurt Away.wav

Pre-gap length 0:00:02.00

Peak level 96.6 %
Extraction speed 5.2 X
Track quality 100.0 %
Test CRC 9E06048F
Copy CRC 9E06048F
Accurately ripped (confidence 7) [C6EA31F4] (AR v2)
Copy OK

Track 2

Filename I:\#New Rips + FLAC\Aretha Franklin - Love All The Hurt Away {Expanded Remaster}\02. Aretha Franklin - Hold On I'm Comin'.wav

Pre-gap length 0:00:01.17

Peak level 96.6 %
Extraction speed 5.9 X
Track quality 100.0 %
Test CRC 1847D1CE
Copy CRC 1847D1CE
Accurately ripped (confidence 7) [23440672] (AR v2)
Copy OK

Track 3

Filename I:\#New Rips + FLAC\Aretha Franklin - Love All The Hurt Away {Expanded Remaster}\03. Aretha Franklin - Living in the Streets.wav

Pre-gap length 0:00:01.92

Peak level 96.6 %
Extraction speed 6.2 X
Track quality 100.0 %
Test CRC 83A20B95
Copy CRC 83A20B95
Accurately ripped (confidence 7) [029B5001] (AR v2)
Copy OK

Track 4

Filename I:\#New Rips + FLAC\Aretha Franklin - Love All The Hurt Away {Expanded Remaster}\04. Aretha Franklin - There's a Star for Everyone.wav

Peak level 96.6 %
Extraction speed 6.8 X
Track quality 100.0 %
Test CRC B324B824
Copy CRC B324B824
Accurately ripped (confidence 7) [14A16291] (AR v2)
Copy OK

Track 5

Filename I:\#New Rips + FLAC\Aretha Franklin - Love All The Hurt Away {Expanded Remaster}\05. Aretha Franklin - You Can't Always Get What You Want.wav

Pre-gap length 0:00:01.02

Peak level 96.6 %
Extraction speed 7.4 X
Track quality 100.0 %
Test CRC 8D6AF0E8
Copy CRC 8D6AF0E8
Accurately ripped (confidence 7) [2BDFE36F] (AR v2)
Copy OK

Track 6

Filename I:\#New Rips + FLAC\Aretha Franklin - Love All The Hurt Away {Expanded Remaster}\06. Aretha Franklin - It's My Turn.wav

Pre-gap length 0:00:01.32

Peak level 96.6 %
Extraction speed 7.9 X
Track quality 100.0 %
Test CRC 08F12A52
Copy CRC 08F12A52
Accurately ripped (confidence 7) [162A6D11] (AR v2)
Copy OK

Track 7

Filename I:\#New Rips + FLAC\Aretha Franklin - Love All The Hurt Away {Expanded Remaster}\07. Aretha Franklin - Truth and Honesty.wav

Peak level 96.6 %
Extraction speed 6.8 X
Track quality 99.9 %
Test CRC 7FB36053
Copy CRC 7FB36053
Accurately ripped (confidence 7) [A2E262D0] (AR v2)
Copy OK

Track 8

Filename I:\#New Rips + FLAC\Aretha Franklin - Love All The Hurt Away {Expanded Remaster}\08. Aretha Franklin - Search On.wav

Pre-gap length 0:00:01.65

Peak level 96.6 %
Extraction speed 8.5 X
Track quality 100.0 %
Test CRC 3D6FD01F
Copy CRC 3D6FD01F
Accurately ripped (confidence 7) [6F9B6A26] (AR v2)
Copy OK

Track 9

Filename I:\#New Rips + FLAC\Aretha Franklin - Love All The Hurt Away {Expanded Remaster}\09. Aretha Franklin - Whole Lot of Me.wav

Pre-gap length 0:00:01.60

Peak level 96.6 %
Extraction speed 8.5 X
Track quality 100.0 %
Test CRC FA486B16
Copy CRC FA486B16
Accurately ripped (confidence 7) [1F6809C0] (AR v2)
Copy OK

Track 10

Filename I:\#New Rips + FLAC\Aretha Franklin - Love All The Hurt Away {Expanded Remaster}\10. Aretha Franklin - Kind of Man.wav

Pre-gap length 0:00:01.26

Peak level 96.6 %
Extraction speed 7.6 X
Track quality 99.9 %
Test CRC 959AC0A2
Copy CRC 959AC0A2
Accurately ripped (confidence 7) [C8C56EC7] (AR v2)
Copy OK

Track 11

Filename I:\#New Rips + FLAC\Aretha Franklin - Love All The Hurt Away {Expanded Remaster}\11. Aretha Franklin - Hold On I'm Comin' [12'' Extended Version].wav

Pre-gap length 0:00:03.52

Peak level 96.6 %
Extraction speed 9.8 X
Track quality 100.0 %
Test CRC 9FE69D64
Copy CRC 9FE69D64
Accurately ripped (confidence 7) [5D33F198] (AR v2)
Copy OK

Track 12

Filename I:\#New Rips + FLAC\Aretha Franklin - Love All The Hurt Away {Expanded Remaster}\12. Aretha Franklin - Livin' in the Streets [12'' Extended Remix].wav

Pre-gap length 0:00:01.18

Peak level 96.6 %
Extraction speed 10.1 X
Track quality 100.0 %
Test CRC EE251B5D
Copy CRC EE251B5D
Accurately ripped (confidence 7) [71FDDAAC] (AR v2)
Copy OK

Track 13

Filename I:\#New Rips + FLAC\Aretha Franklin - Love All The Hurt Away {Expanded Remaster}\13. Aretha Franklin - It's My Turn [Single Version].wav

Pre-gap length 0:00:01.60

Peak level 96.6 %
Extraction speed 10.0 X
Track quality 100.0 %
Test CRC 996D681B
Copy CRC 996D681B
Accurately ripped (confidence 7) [DB2F5348] (AR v2)
Copy OK


All tracks accurately ripped

No errors occurred

End of status report

–– CUETools DB Plugin V2.1.6

[CTDB TOCID: pG9KF9GpwXRDKkSKI_mwc1Do3Pk-] found
Submit result: pG9KF9GpwXRDKkSKI_mwc1Do3Pk- has been confirmed
Track | CTDB Status
1 | (9/9) Accurately ripped
2 | (9/9) Accurately ripped
3 | (9/9) Accurately ripped
4 | (9/9) Accurately ripped
5 | (9/9) Accurately ripped
6 | (9/9) Accurately ripped
7 | (9/9) Accurately ripped
8 | (9/9) Accurately ripped
9 | (9/9) Accurately ripped
10 | (9/9) Accurately ripped
11 | (9/9) Accurately ripped
12 | (9/9) Accurately ripped
13 | (9/9) Accurately ripped


==== Log checksum D7ACDFECF7B237ECCEFEB6BCFAAF04BCB2887FB14DC26E17B52C4FEBD0AB003C ====

––––––––––––––––––––––––––––––––––––––––
Analyzed: Aretha Franklin / Love All The Hurt Away [Expanded Edition]
––––––––––––––––––––––––––––––––––––––––

DR Peak RMS Duration Track
––––––––––––––––––––––––––––––––––––––––
DR10 -0.30 dB -12.19 dB 4:12 01-Love All the Hurt Away
DR10 -0.30 dB -12.02 dB 5:16 02-Hold On I'm Comin'
DR11 -0.30 dB -12.92 dB 3:55 03-Living in the Streets
DR11 -0.30 dB -13.96 dB 4:28 04-There's a Star for Everyone
DR11 -0.30 dB -13.00 dB 5:19 05-You Can't Always Get What You Want
DR10 -0.30 dB -12.99 dB 5:30 06-It's My Turn
DR10 -0.30 dB -12.41 dB 4:18 07-Truth and Honesty
DR11 -0.30 dB -14.33 dB 4:51 08-Search On
DR11 -0.30 dB -12.62 dB 3:26 09-Whole Lot of Me
DR12 -0.30 dB -14.81 dB 4:23 10-Kind of Man
DR11 -0.30 dB -12.92 dB 6:44 11-Hold On I'm Comin' [12' Extended Version]
DR11 -0.30 dB -12.92 dB 6:17 12-Livin' in the Streets [12' Extended Remix]
DR10 -0.30 dB -12.96 dB 4:13 13-It's My Turn [Single Version]
––––––––––––––––––––––––––––––––––––––––

Number of tracks: 13
Official DR value: DR11

Samplerate: 44100 Hz
Channels: 2
Bits per sample: 16
Bitrate: 931 kbps
Codec: FLAC
================================================================================

Thanks to original releaser

See also:


password: BlondStyle