Subcategories

VA - Cafe del Mar XXIII (Volume 23) (2017) 2CDs, Compiled by Toni Simonen

Posted By: Designol
VA - Cafe del Mar XXIII (Volume 23) (2017) 2CDs, Compiled by Toni Simonen

VA - Café del Mar XXIII (Volumen Veintitres) (2017) 2CDs, Compiled by Toni Simonen
EAC | FLAC | Tracks (Cue&Log) ~ 747 Mb | Scans ~ 72 Mb | Time: 02:13:31
Electonic, Lounge, Chillout, Downtempo | Label: Café del Mar | # 01-2017-120

Café del Mar returns with truly exceptional volume this year. The album starts with a new rendition of Télépopmusik’s all time classic “Breathe” and takes the listener to an eclectic journey filled with Balearic beats. Volume 23 welcomes such legends as Brian Eno, The Cinematic Orchestra, Zero 7, Sasha and Bibio to the iconic series. Seasoned Café del Mar favorites Moby, Bonobo, Goldfrapp, Penguin Café and Blank & Jones are also present with brand new material. Expect a lot of sunshine, the best what downtempo has to offer and the reason why there’s nothing alike Café del Mar.

VA - Cafe del Mar XXIII (Volume 23) (2017) 2CDs, Compiled by Toni Simonen



Tracklist:

CD1:

01. Télépopmusik - Breathe (Kartell Slow remix) (3:25)
02. Vincenzo - Today (3:37)
03. Lord Echo - In Your Life (5:14)
04. Arms and Sleepers - Pan Am (4:35)
05. Kraak & Smaak & Parcels - Stumble (Blue Motel remix) (5:23)
06. Blue States - Vision Trail (5:25)
07. Flo Morrissey & Matthew E. White - Everybody Loves the Sunshine (4:46)
08. Bibio - Petals (2:32)
09. Zero 7 - Last Light (3:58)
10. Penguin Cafe - Cantorum (7:22)
11. Ben Lukas Boysen - Nocturne 3 (3:44)
12. Bonobo - Second Sun (3:43)
13. The Cinematic Orchestra - To Believe (5:29)
14. Brian Eno - Fickle Sun (III) I’m Set Free (5:08)

CD2:

01. Sasha - Vapour Trails (3:03)
02. Goldfrapp - Beast That Never Was (4:36)
03. Blank & Jones - Snappiness (Afterlife mix) (4:50)
04. DJ Day - Four Hills (3:15)
05. Stimulator Jones - La Mano (4:11)
06. White Elephant - Sir John (5:08)
07. Calibre - Gentle Push (4:35)
08. Moby & The Void Pacific Choir - Are You Lost in the World Like Me (Moby remix) (5:58)
09. Jimmy Whoo - Outro (3:27)
10. Song Sung - I’m Not in Love (extended mix) (11:19)
11. Gabin & Stefano di Battista - Urban Night (6:23)
12. Still Life & Tim Laverack - Milieu (4:15)
13. Afterlife - Blue Bar (Chris Coco remix) (4:22)
14. Sacha Puttnam - Abraham’s Theme (On-U Sound dub) (3:47)


Exact Audio Copy V1.3 from 2. September 2016

EAC extraction logfile from 30. August 2017, 22:14

Various Artists / Cafe del Mar XXIII - CD1

Used drive : ASUS DRW-24B3ST Adapter: 1 ID: 0

Read mode : Secure
Utilize accurate stream : Yes
Defeat audio cache : Yes
Make use of C2 pointers : No

Read offset correction : 6
Overread into Lead-In and Lead-Out : No
Fill up missing offset samples with silence : Yes
Delete leading and trailing silent blocks : No
Null samples used in CRC calculations : Yes
Used interface : Native Win32 interface for Win NT & 2000
Gap handling : Appended to previous track

Used output format : User Defined Encoder
Selected bitrate : 896 kBit/s
Quality : High
Add ID3 tag : No
Command line compressor : C:\Program Files (x86)\Exact Audio Copy\Flac\flac.exe
Additional command line options : -8 -V -T "ARTIST=%artist%" -T "TITLE=%title%" -T "ALBUM=%albumtitle%" -T "DATE=%year%" -T "TRACKNUMBER=%tracknr%" -T "GENRE=%genre%" -T "COMMENT=ripped by Oleandris" %source%


TOC of the extracted CD

Track | Start | Length | Start sector | End sector
––––––––––––––––––––––––––––-
1 | 0:00.00 | 3:24.69 | 0 | 15368
2 | 3:24.69 | 3:37.24 | 15369 | 31667
3 | 7:02.18 | 5:14.37 | 31668 | 55254
4 | 12:16.55 | 4:35.36 | 55255 | 75915
5 | 16:52.16 | 5:22.46 | 75916 | 100111
6 | 22:14.62 | 5:24.61 | 100112 | 124472
7 | 27:39.48 | 4:45.71 | 124473 | 145918
8 | 32:25.44 | 2:31.38 | 145919 | 157281
9 | 34:57.07 | 3:58.25 | 157282 | 175156
10 | 38:55.32 | 7:21.66 | 175157 | 208297
11 | 46:17.23 | 3:44.17 | 208298 | 225114
12 | 50:01.40 | 3:42.56 | 225115 | 241820
13 | 53:44.21 | 5:29.08 | 241821 | 266503
14 | 59:13.29 | 5:07.47 | 266504 | 289575


Track 1

Filename I:\AUDIO I\Ambient - Chill Out - Lounge - Easy Listening - Electronic (исполнители и сборники)\ Cafe Del Mar Collection I-XXII (1994-2016) + The Best (2004, 2012)\2017 - Cafe Del Mar XXIII (Volumen Veintitres) 2CD\CD1\01. Télépopmusik - Breat

Pre-gap length 0:00:02.00

Peak level 88.7 %
Extraction speed 4.8 X
Track quality 100.0 %
Test CRC C1FDD5FB
Copy CRC C1FDD5FB
Accurately ripped (confidence 1) [6B1A0FA0] (AR v2)
Copy OK

Track 2

Filename I:\AUDIO I\Ambient - Chill Out - Lounge - Easy Listening - Electronic (исполнители и сборники)\ Cafe Del Mar Collection I-XXII (1994-2016) + The Best (2004, 2012)\2017 - Cafe Del Mar XXIII (Volumen Veintitres) 2CD\CD1\02. Vincenzo - Today.wav

Peak level 70.6 %
Extraction speed 5.3 X
Track quality 100.0 %
Test CRC DCC8C857
Copy CRC DCC8C857
Accurately ripped (confidence 1) [9D58B0A8] (AR v2)
Copy OK

Track 3

Filename I:\AUDIO I\Ambient - Chill Out - Lounge - Easy Listening - Electronic (исполнители и сборники)\ Cafe Del Mar Collection I-XXII (1994-2016) + The Best (2004, 2012)\2017 - Cafe Del Mar XXIII (Volumen Veintitres) 2CD\CD1\03. Lord Echo - In Your

Peak level 88.4 %
Extraction speed 6.1 X
Track quality 100.0 %
Test CRC DD742B16
Copy CRC DD742B16
Accurately ripped (confidence 1) [FB319D1D] (AR v2)
Copy OK

Track 4

Filename I:\AUDIO I\Ambient - Chill Out - Lounge - Easy Listening - Electronic (исполнители и сборники)\ Cafe Del Mar Collection I-XXII (1994-2016) + The Best (2004, 2012)\2017 - Cafe Del Mar XXIII (Volumen Veintitres) 2CD\CD1\04. Arms and Sleepers -

Peak level 88.6 %
Extraction speed 6.6 X
Track quality 100.0 %
Test CRC 6EFE9863
Copy CRC 6EFE9863
Accurately ripped (confidence 1) [8582106A] (AR v2)
Copy OK

Track 5

Filename I:\AUDIO I\Ambient - Chill Out - Lounge - Easy Listening - Electronic (исполнители и сборники)\ Cafe Del Mar Collection I-XXII (1994-2016) + The Best (2004, 2012)\2017 - Cafe Del Mar XXIII (Volumen Veintitres) 2CD\CD1\05. Kraak & Smaak & Parc

Peak level 88.8 %
Extraction speed 7.1 X
Track quality 100.0 %
Test CRC 583056FB
Copy CRC 583056FB
Accurately ripped (confidence 1) [8C3F5F2E] (AR v2)
Copy OK

Track 6

Filename I:\AUDIO I\Ambient - Chill Out - Lounge - Easy Listening - Electronic (исполнители и сборники)\ Cafe Del Mar Collection I-XXII (1994-2016) + The Best (2004, 2012)\2017 - Cafe Del Mar XXIII (Volumen Veintitres) 2CD\CD1\06. Blue States - Vision

Peak level 88.6 %
Extraction speed 7.7 X
Track quality 100.0 %
Test CRC A421F7BF
Copy CRC A421F7BF
Accurately ripped (confidence 1) [7CEED348] (AR v2)
Copy OK

Track 7

Filename I:\AUDIO I\Ambient - Chill Out - Lounge - Easy Listening - Electronic (исполнители и сборники)\ Cafe Del Mar Collection I-XXII (1994-2016) + The Best (2004, 2012)\2017 - Cafe Del Mar XXIII (Volumen Veintitres) 2CD\CD1\07. Flo Morrissey & Matt

Peak level 88.6 %
Extraction speed 8.0 X
Track quality 100.0 %
Test CRC 6555B702
Copy CRC 6555B702
Accurately ripped (confidence 1) [669B8BF2] (AR v2)
Copy OK

Track 8

Filename I:\AUDIO I\Ambient - Chill Out - Lounge - Easy Listening - Electronic (исполнители и сборники)\ Cafe Del Mar Collection I-XXII (1994-2016) + The Best (2004, 2012)\2017 - Cafe Del Mar XXIII (Volumen Veintitres) 2CD\CD1\08. Bibio - Petals.wav

Peak level 82.4 %
Extraction speed 7.5 X
Track quality 100.0 %
Test CRC E941F168
Copy CRC E941F168
Accurately ripped (confidence 1) [2C17397B] (AR v2)
Copy OK

Track 9

Filename I:\AUDIO I\Ambient - Chill Out - Lounge - Easy Listening - Electronic (исполнители и сборники)\ Cafe Del Mar Collection I-XXII (1994-2016) + The Best (2004, 2012)\2017 - Cafe Del Mar XXIII (Volumen Veintitres) 2CD\CD1\09. Zero 7 - Last Light.

Peak level 89.8 %
Extraction speed 8.3 X
Track quality 100.0 %
Test CRC 60983C30
Copy CRC 60983C30
Accurately ripped (confidence 1) [6CA45E2B] (AR v2)
Copy OK

Track 10

Filename I:\AUDIO I\Ambient - Chill Out - Lounge - Easy Listening - Electronic (исполнители и сборники)\ Cafe Del Mar Collection I-XXII (1994-2016) + The Best (2004, 2012)\2017 - Cafe Del Mar XXIII (Volumen Veintitres) 2CD\CD1\10. Penguin Cafe - Canto

Peak level 88.7 %
Extraction speed 8.3 X
Track quality 99.9 %
Test CRC 1A5DA11B
Copy CRC 1A5DA11B
Accurately ripped (confidence 1) [1447A193] (AR v2)
Copy OK

Track 11

Filename I:\AUDIO I\Ambient - Chill Out - Lounge - Easy Listening - Electronic (исполнители и сборники)\ Cafe Del Mar Collection I-XXII (1994-2016) + The Best (2004, 2012)\2017 - Cafe Del Mar XXIII (Volumen Veintitres) 2CD\CD1\11. Ben Lukas Boysen - N

Peak level 88.5 %
Extraction speed 9.1 X
Track quality 100.0 %
Test CRC 271A3B5A
Copy CRC 271A3B5A
Accurately ripped (confidence 1) [0A5D76B1] (AR v2)
Copy OK

Track 12

Filename I:\AUDIO I\Ambient - Chill Out - Lounge - Easy Listening - Electronic (исполнители и сборники)\ Cafe Del Mar Collection I-XXII (1994-2016) + The Best (2004, 2012)\2017 - Cafe Del Mar XXIII (Volumen Veintitres) 2CD\CD1\12. Bonobo - Second Sun.

Peak level 88.6 %
Extraction speed 7.4 X
Track quality 99.9 %
Test CRC D6E51E25
Copy CRC D6E51E25
Accurately ripped (confidence 1) [E5894F3B] (AR v2)
Copy OK

Track 13

Filename I:\AUDIO I\Ambient - Chill Out - Lounge - Easy Listening - Electronic (исполнители и сборники)\ Cafe Del Mar Collection I-XXII (1994-2016) + The Best (2004, 2012)\2017 - Cafe Del Mar XXIII (Volumen Veintitres) 2CD\CD1\13. The Cinematic Orches

Peak level 85.3 %
Extraction speed 10.1 X
Track quality 100.0 %
Test CRC 685EBAB3
Copy CRC 685EBAB3
Accurately ripped (confidence 1) [27256783] (AR v2)
Copy OK

Track 14

Filename I:\AUDIO I\Ambient - Chill Out - Lounge - Easy Listening - Electronic (исполнители и сборники)\ Cafe Del Mar Collection I-XXII (1994-2016) + The Best (2004, 2012)\2017 - Cafe Del Mar XXIII (Volumen Veintitres) 2CD\CD1\14. Brian Eno - Fickle S

Peak level 80.6 %
Extraction speed 10.3 X
Track quality 100.0 %
Test CRC 6D475FEC
Copy CRC 6D475FEC
Accurately ripped (confidence 1) [9C23BB48] (AR v2)
Copy OK


All tracks accurately ripped

No errors occurred

End of status report

–– CUETools DB Plugin V2.1.6

[CTDB TOCID: PmU7MYQllNvN0VZ.DUz1eJkgUtg-] found
Submit result: PmU7MYQllNvN0VZ.DUz1eJkgUtg- has been confirmed
Track | CTDB Status
1 | (19/19) Accurately ripped
2 | (19/19) Accurately ripped
3 | (19/19) Accurately ripped
4 | (19/19) Accurately ripped
5 | (19/19) Accurately ripped
6 | (19/19) Accurately ripped
7 | (19/19) Accurately ripped
8 | (19/19) Accurately ripped
9 | (19/19) Accurately ripped
10 | (19/19) Accurately ripped
11 | (19/19) Accurately ripped
12 | (19/19) Accurately ripped
13 | (19/19) Accurately ripped
14 | (18/19) Accurately ripped


==== Log checksum 1EC77FF57C9D594E040F011FA9FC1B09C8F490D9AADB23983EC294229875DF51 ====

foobar2000 1.2 / Dynamic Range Meter 1.1.1
log date: 2017-08-31 23:58:01

––––––––––––––––––––––––––––––––––––––––
Analyzed: Arms and Sleepers / Cafe del Mar XXIII - CD1 (1)
Ben Lukas Boysen / Cafe del Mar XXIII - CD1 (2)
Bibio / Cafe del Mar XXIII - CD1 (3)
Blue States / Cafe del Mar XXIII - CD1 (4)
Bonobo / Cafe del Mar XXIII - CD1 (5)
Brian Eno / Cafe del Mar XXIII - CD1 (6)
Flo Morrissey & Matthew E. White / Cafe del Mar XXIII - CD1 (7)
Kraak & Smaak & Parcels / Cafe del Mar XXIII - CD1 (8)
Lord Echo / Cafe del Mar XXIII - CD1 (9)
Penguin Cafe / Cafe del Mar XXIII - CD1 (10)
Télépopmusik / Cafe del Mar XXIII - CD1 (11)
The Cinematic Orchestra / Cafe del Mar XXIII - CD1 (12)
Vincenzo / Cafe del Mar XXIII - CD1 (13)
Zero 7 / Cafe del Mar XXIII - CD1 (14)
––––––––––––––––––––––––––––––––––––––––

DR Peak RMS Duration Track
––––––––––––––––––––––––––––––––––––––––
DR10 -1.05 dB -13.19 dB 4:35 04-Pan Am
DR8 -1.05 dB -13.23 dB 3:44 11-Nocturne 3
DR9 -1.68 dB -13.04 dB 2:32 08-Petals
DR9 -1.05 dB -12.00 dB 5:25 06-Vision Trail
DR10 -1.05 dB -14.61 dB 3:43 12-Second Sun
DR10 -1.86 dB -16.04 dB 5:08 14-Fickle Sun (III) I’m Set Free
DR10 -1.05 dB -13.01 dB 4:46 07-Everybody Loves the Sunshine
DR9 -1.03 dB -12.59 dB 5:23 05-Stumble (Blue Motel remix)
DR10 -1.07 dB -12.42 dB 5:14 03-In Your Life
DR10 -1.04 dB -12.77 dB 7:22 10-Cantorum
DR9 -1.04 dB -11.76 dB 3:25 01-Breathe (Kartell Slow remix)
DR10 -1.38 dB -17.26 dB 5:29 13-To Believe
DR8 -3.02 dB -13.60 dB 3:37 02-Today
DR10 -0.93 dB -13.79 dB 3:58 09-Last Light
––––––––––––––––––––––––––––––––––––––––

Number of tracks: 14
Official DR value: DR9

Samplerate: 44100 Hz
Channels: 2
Bits per sample: 16
Bitrate: 712 kbps
Codec: FLAC
================================================================================


Exact Audio Copy V1.3 from 2. September 2016

EAC extraction logfile from 30. August 2017, 22:45

Cafe Del Mar / Cafe del Mar XXIII - CD2

Used drive : PLEXTOR DVDR PX-891SA Adapter: 1 ID: 1

Read mode : Secure
Utilize accurate stream : Yes
Defeat audio cache : Yes
Make use of C2 pointers : No

Read offset correction : 6
Overread into Lead-In and Lead-Out : No
Fill up missing offset samples with silence : Yes
Delete leading and trailing silent blocks : No
Null samples used in CRC calculations : Yes
Used interface : Native Win32 interface for Win NT & 2000
Gap handling : Appended to previous track

Used output format : User Defined Encoder
Selected bitrate : 896 kBit/s
Quality : High
Add ID3 tag : No
Command line compressor : C:\Program Files (x86)\Exact Audio Copy\Flac\flac.exe
Additional command line options : -8 -V -T "ARTIST=%artist%" -T "TITLE=%title%" -T "ALBUM=%albumtitle%" -T "DATE=%year%" -T "TRACKNUMBER=%tracknr%" -T "GENRE=%genre%" -T "COMMENT=ripped by Oleandris" %source%


TOC of the extracted CD

Track | Start | Length | Start sector | End sector
––––––––––––––––––––––––––––-
1 | 0:00.00 | 3:02.42 | 0 | 13691
2 | 3:02.42 | 4:35.52 | 13692 | 34368
3 | 7:38.19 | 4:50.36 | 34369 | 56154
4 | 12:28.55 | 3:14.73 | 56155 | 70777
5 | 15:43.53 | 4:11.23 | 70778 | 89625
6 | 19:55.01 | 5:08.35 | 89626 | 112760
7 | 25:03.36 | 4:34.48 | 112761 | 133358
8 | 29:38.09 | 5:57.70 | 133359 | 160203
9 | 35:36.04 | 3:27.22 | 160204 | 175750
10 | 39:03.26 | 11:18.62 | 175751 | 226662
11 | 50:22.13 | 6:23.13 | 226663 | 255400
12 | 56:45.26 | 4:15.28 | 255401 | 274553
13 | 61:00.54 | 4:22.01 | 274554 | 294204
14 | 65:22.55 | 3:47.07 | 294205 | 311236


Track 1

Filename I:\AUDIO I\Ambient - Chill Out - Lounge - Easy Listening - Electronic (исполнители и сборники)\ Cafe Del Mar Collection I-XXII (1994-2016) + The Best (2004, 2012)\2017 - Cafe Del Mar XXIII (Volumen Veintitres) 2CD\CD2\01. Sasha - Vapour Trail

Pre-gap length 0:00:02.00

Peak level 87.7 %
Extraction speed 1.2 X
Track quality 99.9 %
Test CRC 6C31F9F0
Copy CRC 6C31F9F0
Track not present in AccurateRip database
Copy OK

Track 2

Filename I:\AUDIO I\Ambient - Chill Out - Lounge - Easy Listening - Electronic (исполнители и сборники)\ Cafe Del Mar Collection I-XXII (1994-2016) + The Best (2004, 2012)\2017 - Cafe Del Mar XXIII (Volumen Veintitres) 2CD\CD2\02. Goldfrapp - Beast Th

Peak level 88.5 %
Extraction speed 2.1 X
Track quality 100.0 %
Test CRC DC547A8F
Copy CRC DC547A8F
Track not present in AccurateRip database
Copy OK

Track 3

Filename I:\AUDIO I\Ambient - Chill Out - Lounge - Easy Listening - Electronic (исполнители и сборники)\ Cafe Del Mar Collection I-XXII (1994-2016) + The Best (2004, 2012)\2017 - Cafe Del Mar XXIII (Volumen Veintitres) 2CD\CD2\03. Blank & Jones - Snap

Peak level 88.8 %
Extraction speed 1.8 X
Track quality 99.9 %
Test CRC E13338A7
Copy CRC E13338A7
Track not present in AccurateRip database
Copy OK

Track 4

Filename I:\AUDIO I\Ambient - Chill Out - Lounge - Easy Listening - Electronic (исполнители и сборники)\ Cafe Del Mar Collection I-XXII (1994-2016) + The Best (2004, 2012)\2017 - Cafe Del Mar XXIII (Volumen Veintitres) 2CD\CD2\04. DJ Day - Four Hills.

Peak level 88.6 %
Extraction speed 2.4 X
Track quality 100.0 %
Test CRC C8CE26D2
Copy CRC C8CE26D2
Track not present in AccurateRip database
Copy OK

Track 5

Filename I:\AUDIO I\Ambient - Chill Out - Lounge - Easy Listening - Electronic (исполнители и сборники)\ Cafe Del Mar Collection I-XXII (1994-2016) + The Best (2004, 2012)\2017 - Cafe Del Mar XXIII (Volumen Veintitres) 2CD\CD2\05. Stimulator Jones - L

Peak level 88.7 %
Extraction speed 2.0 X
Track quality 99.9 %
Test CRC E727D8FE
Copy CRC E727D8FE
Track not present in AccurateRip database
Copy OK

Track 6

Filename I:\AUDIO I\Ambient - Chill Out - Lounge - Easy Listening - Electronic (исполнители и сборники)\ Cafe Del Mar Collection I-XXII (1994-2016) + The Best (2004, 2012)\2017 - Cafe Del Mar XXIII (Volumen Veintitres) 2CD\CD2\06. White Elephant - Sir

Peak level 88.9 %
Extraction speed 2.8 X
Track quality 100.0 %
Test CRC C85DF214
Copy CRC C85DF214
Track not present in AccurateRip database
Copy OK

Track 7

Filename I:\AUDIO I\Ambient - Chill Out - Lounge - Easy Listening - Electronic (исполнители и сборники)\ Cafe Del Mar Collection I-XXII (1994-2016) + The Best (2004, 2012)\2017 - Cafe Del Mar XXIII (Volumen Veintitres) 2CD\CD2\07. Calibre - Gentle Pus

Peak level 78.9 %
Extraction speed 3.0 X
Track quality 100.0 %
Test CRC 578ED569
Copy CRC 578ED569
Track not present in AccurateRip database
Copy OK

Track 8

Filename I:\AUDIO I\Ambient - Chill Out - Lounge - Easy Listening - Electronic (исполнители и сборники)\ Cafe Del Mar Collection I-XXII (1994-2016) + The Best (2004, 2012)\2017 - Cafe Del Mar XXIII (Volumen Veintitres) 2CD\CD2\08. Moby & The Void Paci

Peak level 88.6 %
Extraction speed 3.2 X
Track quality 100.0 %
Test CRC B138CD35
Copy CRC B138CD35
Track not present in AccurateRip database
Copy OK

Track 9

Filename I:\AUDIO I\Ambient - Chill Out - Lounge - Easy Listening - Electronic (исполнители и сборники)\ Cafe Del Mar Collection I-XXII (1994-2016) + The Best (2004, 2012)\2017 - Cafe Del Mar XXIII (Volumen Veintitres) 2CD\CD2\09. Jimmy Whoo - Outro.w

Peak level 88.7 %
Extraction speed 3.2 X
Track quality 100.0 %
Test CRC 6B0F2F1C
Copy CRC 6B0F2F1C
Track not present in AccurateRip database
Copy OK

Track 10

Filename I:\AUDIO I\Ambient - Chill Out - Lounge - Easy Listening - Electronic (исполнители и сборники)\ Cafe Del Mar Collection I-XXII (1994-2016) + The Best (2004, 2012)\2017 - Cafe Del Mar XXIII (Volumen Veintitres) 2CD\CD2\10. Song Sung - I’m Not

Peak level 88.5 %
Extraction speed 3.8 X
Track quality 100.0 %
Test CRC 6A48F94C
Copy CRC 6A48F94C
Track not present in AccurateRip database
Copy OK

Track 11

Filename I:\AUDIO I\Ambient - Chill Out - Lounge - Easy Listening - Electronic (исполнители и сборники)\ Cafe Del Mar Collection I-XXII (1994-2016) + The Best (2004, 2012)\2017 - Cafe Del Mar XXIII (Volumen Veintitres) 2CD\CD2\11. Gabin & Stefano di B

Peak level 76.1 %
Extraction speed 3.9 X
Track quality 100.0 %
Test CRC 1F43798F
Copy CRC 1F43798F
Track not present in AccurateRip database
Copy OK

Track 12

Filename I:\AUDIO I\Ambient - Chill Out - Lounge - Easy Listening - Electronic (исполнители и сборники)\ Cafe Del Mar Collection I-XXII (1994-2016) + The Best (2004, 2012)\2017 - Cafe Del Mar XXIII (Volumen Veintitres) 2CD\CD2\12. Still Life & Tim Lav

Peak level 89.3 %
Extraction speed 3.8 X
Track quality 100.0 %
Test CRC 84ECAAD5
Copy CRC 84ECAAD5
Track not present in AccurateRip database
Copy OK

Track 13

Filename I:\AUDIO I\Ambient - Chill Out - Lounge - Easy Listening - Electronic (исполнители и сборники)\ Cafe Del Mar Collection I-XXII (1994-2016) + The Best (2004, 2012)\2017 - Cafe Del Mar XXIII (Volumen Veintitres) 2CD\CD2\13. Afterlife - Blue Bar

Peak level 82.9 %
Extraction speed 4.0 X
Track quality 100.0 %
Test CRC 6F6494A8
Copy CRC 6F6494A8
Track not present in AccurateRip database
Copy OK

Track 14

Filename I:\AUDIO I\Ambient - Chill Out - Lounge - Easy Listening - Electronic (исполнители и сборники)\ Cafe Del Mar Collection I-XXII (1994-2016) + The Best (2004, 2012)\2017 - Cafe Del Mar XXIII (Volumen Veintitres) 2CD\CD2\14. Sacha Puttnam - Abra

Peak level 88.4 %
Extraction speed 2.9 X
Track quality 99.9 %
Test CRC 7678A25E
Copy CRC 7678A25E
Track not present in AccurateRip database
Copy OK


None of the tracks are present in the AccurateRip database

No errors occurred

End of status report

–– CUETools DB Plugin V2.1.6

[CTDB TOCID: CsHo2y5nb3PwkIajRhgrm26SMeU-] found
Submit result: CsHo2y5nb3PwkIajRhgrm26SMeU- has been confirmed
Track | CTDB Status
1 | (19/19) Accurately ripped
2 | (19/19) Accurately ripped
3 | (19/19) Accurately ripped
4 | (19/19) Accurately ripped
5 | (19/19) Accurately ripped
6 | (19/19) Accurately ripped
7 | (19/19) Accurately ripped
8 | (19/19) Accurately ripped
9 | (19/19) Accurately ripped
10 | (19/19) Accurately ripped
11 | (19/19) Accurately ripped
12 | (19/19) Accurately ripped
13 | (19/19) Accurately ripped
14 | (19/19) Accurately ripped


==== Log checksum 4F4830441F4C304AAFDCBB4D820492335F31A60C678613213F8BF18DC2D517C1 ====

foobar2000 1.2 / Dynamic Range Meter 1.1.1
log date: 2017-08-31 23:58:27

––––––––––––––––––––––––––––––––––––––––
Analyzed: Afterlife / Cafe del Mar XXIII - CD2 (1)
Blank & Jones / Cafe del Mar XXIII - CD2 (2)
Calibre / Cafe del Mar XXIII - CD2 (3)
DJ Day / Cafe del Mar XXIII - CD2 (4)
Gabin & Stefano di Battista / Cafe del Mar XXIII - CD2 (5)
Goldfrapp / Cafe del Mar XXIII - CD2 (6)
Jimmy Whoo / Cafe del Mar XXIII - CD2 (7)
Moby & The Void Pacific Choir / Cafe del Mar XXIII - CD2 (8)
Sacha Puttnam / Cafe del Mar XXIII - CD2 (9)
Sasha / Cafe del Mar XXIII - CD2 (10)
Song Sung / Cafe del Mar XXIII - CD2 (11)
Still Life & Tim Laverack / Cafe del Mar XXIII - CD2 (12)
Stimulator Jones / Cafe del Mar XXIII - CD2 (13)
White Elephant / Cafe del Mar XXIII - CD2 (14)
––––––––––––––––––––––––––––––––––––––––

DR Peak RMS Duration Track
––––––––––––––––––––––––––––––––––––––––
DR10 -1.63 dB -15.70 dB 4:22 13-Blue Bar (Chris Coco remix)
DR7 -1.02 dB -9.04 dB 4:50 03-Snappiness (Afterlife mix)
DR7 -2.06 dB -11.32 dB 4:35 07-Gentle Push
DR10 -1.05 dB -13.58 dB 3:15 04-Four Hills
DR10 -2.37 dB -14.94 dB 6:23 11-Urban Night
DR9 -1.06 dB -12.14 dB 4:36 02-Beast That Never Was
DR10 -1.03 dB -14.59 dB 3:27 09-Outro
DR10 -1.04 dB -11.84 dB 5:58 08-Are You Lost in the World Like Me (Moby remix)
DR11 -1.06 dB -16.86 dB 3:47 14-Abraham’s Theme (On-U Sound dub)
DR9 -1.13 dB -14.42 dB 3:03 01-Vapour Trails
DR10 -1.05 dB -15.69 dB 11:19 10-I’m Not in Love (extended mix)
DR9 -0.98 dB -14.34 dB 4:15 12-Milieu
DR11 -1.03 dB -14.34 dB 4:11 05-La Mano
DR9 -1.02 dB -11.84 dB 5:08 06-Sir John
––––––––––––––––––––––––––––––––––––––––

Number of tracks: 14
Official DR value: DR9

Samplerate: 44100 Hz
Channels: 2
Bits per sample: 16
Bitrate: 875 kbps
Codec: FLAC
================================================================================

VA - Cafe del Mar XXIII (Volume 23) (2017) 2CDs, Compiled by Toni Simonen

All thanks to original releaser - Oleandris

More interesting music in My Blog