Tags
Language
Tags
June 2024
Su Mo Tu We Th Fr Sa
26 27 28 29 30 31 1
2 3 4 5 6 7 8
9 10 11 12 13 14 15
16 17 18 19 20 21 22
23 24 25 26 27 28 29
30 1 2 3 4 5 6

Charles Mingus - The Great Concert Of Charles Mingus (1971) [Reissue 2003]

Posted By: gribovar
Charles Mingus - The Great Concert Of Charles Mingus (1971) [Reissue 2003]

Charles Mingus - The Great Concert Of Charles Mingus (1971) [Reissue 2003]
EAC Rip | FLAC (image+.cue+log) - 374 MB | MP3 CBR 320 kbps (LAME 3.93) - 299 MB | Covers - 37 MB
Genre: Jazz, Post-Bop, Avant-garde Jazz | RAR 3% Rec. | Label: Universal Music (980 691-3)

This set is the finest recording by one of Charles Mingus' greatest bands, his sextet with Eric Dolphy (on alto, bass clarinet, and flute), tenor saxophonist Clifford Jordan, trumpeter Johnny Coles, pianist Jaki Byard, and drummer Dannie Richmond. Taken from their somewhat tumultuous but very musical tour of Europe, most of these rather lengthy workouts actually just feature a quintet because Coles took sick (he is only heard on "So Long Eric," which here is mistitled "Goodbye Pork Pie Hat"), but the playing is at such a high level that the trumpeter is not really missed. "Orange Was the Color of Her Dress" is given definitive treatment, and the nearly 29-minute "Fables of Faubus" and Mingus' relatively brief feature on "Sophisticated Lady" are impressive, but it is the passionate "Meditations on Integration" (an utterly fascinating performance) and "Parkeriana" (a tribute to Charlie Parker that features some stride piano from Byard and what may very well have been Dolphy's greatest alto solo) that make this gem truly essential in all jazz collections.
CD 1 Tracklist:
01. A.T.F.W. (Art Tatum Fats Waller)
02. Presentation of Musicians: Johnny Coles' Trumpet
03. So Long Eric (Don't Stay Over There Too Long)
04. Orange Was the Color of Her Dress, Then Blue Silk
05. Fables of Faubus

Total time: 01:09:30

CD 2 Tracklist:
01. Sophisticated Lady
02. Parkeriana (Dedicated To A Genius)
03. Meditations of Integration (Or for a Pair of Wire Cutters)

Total time: 57:45

Exact Audio Copy V0.99 prebeta 4 from 23. January 2008

Отчёт EAC об извлечении, выполненном 2. февраля 2009, 19:56

Charles Mingus / The Great Concert Of Charles Mingus

Дисковод: _NEC NR-7900A Adapter: 3 ID: 1

Режим чтения : Достоверность
Использование точного потока : Да
Отключение кэша аудио : Да
Использование указателей C2 : Нет

Коррекция смещения при чтении : 685
Способность читать области Lead-in и Lead-out : Нет
Заполнение пропущенных сэмплов тишиной : Да
Удаление блоков с тишиной в начале и конце : Нет
При вычислениях CRC использовались нулевые сэмплы : Да
Интерфейс : Установленный внешний ASPI-интерфейс

Выходной формат : Пользовательский кодировщик
Выбранный битрейт : 768 kBit/s
Качество : Высокий
Добавление ID3-тэга : Нет
Утилита сжатия : C:\Program Files\Exact Audio Copy\FLAC\FLAC.EXE
Дополнительные параметры : -6 -V -T "ARTIST=%a" -T "TITLE=%t" -T "ALBUM=%g" -T "DATE=%y" -T "TRACKNUMBER=%n" -T "GENRE=%m" -T "COMMENT=%e" %s -o %d


TOC извлечённого CD

Трек | Старт | Длительность | Начальный сектор | Конечный сектор
––––––––––––––––––––––––––––––––––-
1 | 0:00.00 | 4:17.21 | 0 | 19295
2 | 4:17.21 | 1:08.13 | 19296 | 24408
3 | 5:25.34 | 21:46.71 | 24409 | 122429
4 | 27:12.30 | 14:28.74 | 122430 | 187603
5 | 41:41.29 | 27:48.49 | 187604 | 312752


Характеристики диапазона извлечения и сообщения об ошибках

Выбранный диапазон

Имя файла D:\My Music\ext\Архивы\Charles Mingus - The Great Concert Of Charles Mingus\Charles Mingus - The Great Concert Of Charles Mingus.wav

Пиковый уровень 98.1 %
Качество диапазона 100.0 %
CRC копии A996D029
Копирование… OK

Ошибок не произошло

Конец отчёта

[CUETools log; Date: 09.09.2021 19:47:28; Version: 2.1.4]
[CTDB TOCID: ohBym.bHFHJF5OCN5mJh7_UPHDQ-] found.
Track | CTDB Status
1 | (65/65) Accurately ripped
2 | (65/65) Accurately ripped
3 | (62/65) Accurately ripped
4 | (60/65) Accurately ripped
5 | (61/65) Accurately ripped
[AccurateRip ID: 000a2b7c-0034200e-36104a05] found.
Track [ CRC | V2 ] Status
01 [634a9fad|6ba10f81] (06+05/36) Accurately ripped
02 [1b4462d5|c5c6d62f] (06+05/37) Accurately ripped
03 [3202c1a0|5c36a77d] (06+05/37) Accurately ripped
04 [6a0c5314|07d758de] (06+05/33) Accurately ripped
05 [b9d05d5b|ad255b1b] (06+05/36) Accurately ripped
Offsetted by 1363:
01 [ca2c78a6] (05/36) Accurately ripped
02 [369546c3] (06/37) Accurately ripped
03 [cc663c81] (06/37) Accurately ripped
04 [ece798d7] (06/33) Accurately ripped
05 [242fe49c] (05/36) Accurately ripped
Offsetted by 664:
01 [082c2610] (00/36) No match (V2 was not tested)
02 [6636aaa7] (00/37) No match (V2 was not tested)
03 [0c5a6462] (00/37) No match (V2 was not tested)
04 [d31d2cae] (00/33) No match (V2 was not tested)
05 [eff3bd76] (00/36) No match (V2 was not tested)
Offsetted by 846:
01 [85b1c175] (00/36) No match (V2 was not tested)
02 [855b71d8] (00/37) No match (V2 was not tested)
03 [3dd61b81] (00/37) No match (V2 was not tested)
04 [82a5a6e7] (00/33) No match (V2 was not tested)
05 [b3a584dc] (00/36) No match (V2 was not tested)
Offsetted by 1328:
01 [bd607930] (00/36) No match (V2 was not tested)
02 [0a13530a] (00/37) No match (V2 was not tested)
03 [a2502913] (00/37) No match (V2 was not tested)
04 [f9698cee] (00/33) No match (V2 was not tested)
05 [b61e2afe] (00/36) No match (V2 was not tested)

Track Peak [ CRC32 ] [W/O NULL] [ LOG ]
– 98,1 [A996D029] [6849A677] CRC32
01 79,1 [327E9819] [8E9DBCC1]
02 52,5 [9891706A] [84131A19]
03 92,1 [0526698F] [04B863F5]
04 69,7 [B4964845] [91FF9857]
05 98,1 [6640C023] [B2D3E105]

Exact Audio Copy V0.99 prebeta 4 from 23. January 2008

Отчёт EAC об извлечении, выполненном 2. февраля 2009, 20:34

Charles Mingus / The Great Concert Of Charles Mingus cd2

Дисковод: _NEC NR-7900A Adapter: 3 ID: 1

Режим чтения : Достоверность
Использование точного потока : Да
Отключение кэша аудио : Да
Использование указателей C2 : Нет

Коррекция смещения при чтении : 685
Способность читать области Lead-in и Lead-out : Нет
Заполнение пропущенных сэмплов тишиной : Да
Удаление блоков с тишиной в начале и конце : Нет
При вычислениях CRC использовались нулевые сэмплы : Да
Интерфейс : Установленный внешний ASPI-интерфейс

Выходной формат : Пользовательский кодировщик
Выбранный битрейт : 768 kBit/s
Качество : Высокий
Добавление ID3-тэга : Нет
Утилита сжатия : C:\Program Files\Exact Audio Copy\FLAC\FLAC.EXE
Дополнительные параметры : -6 -V -T "ARTIST=%a" -T "TITLE=%t" -T "ALBUM=%g" -T "DATE=%y" -T "TRACKNUMBER=%n" -T "GENRE=%m" -T "COMMENT=%e" %s -o %d


TOC извлечённого CD

Трек | Старт | Длительность | Начальный сектор | Конечный сектор
––––––––––––––––––––––––––––––––––-
1 | 0:00.00 | 7:54.46 | 0 | 35595
2 | 7:54.46 | 27:03.58 | 35596 | 157378
3 | 34:58.29 | 22:47.08 | 157379 | 259911


Характеристики диапазона извлечения и сообщения об ошибках

Выбранный диапазон

Имя файла D:\My Music\ext\Архивы\Charles Mingus - The Great Concert Of Charles Mingus cd2\Charles Mingus - The Great Concert Of Charles Mingus cd2.wav

Пиковый уровень 91.5 %
Качество диапазона 100.0 %
CRC копии 21776979
Копирование… OK

Ошибок не произошло

Конец отчёта

[CUETools log; Date: 09.09.2021 19:47:51; Version: 2.1.4]
[CTDB TOCID: 1Kshv5klsXouw91jHHuA.GfwXlI-] found.
Track | CTDB Status
1 | (130/132) Accurately ripped
2 | (118/132) Accurately ripped
3 | (116/132) Accurately ripped
[AccurateRip ID: 0006e917-00182782-160d8903] found.
Track [ CRC | V2 ] Status
01 [141c7b56|18257b8c] (24+33/84) Accurately ripped
02 [175b0bcb|7cbf9a6a] (22+32/80) Accurately ripped
03 [f44255b9|17021d44] (24+31/81) Accurately ripped
Offsetted by 35:
01 [229f6f77] (04/84) Accurately ripped
02 [2da68528] (04/80) Accurately ripped
03 [9011dd27] (04/81) Accurately ripped
Offsetted by -664:
01 [21c80305] (00/84) No match (V2 was not tested)
02 [aec3c089] (00/80) No match (V2 was not tested)
03 [fcf8fc54] (00/81) No match (V2 was not tested)
Offsetted by -482:
01 [f836b030] (00/84) No match (V2 was not tested)
02 [a53179e9] (00/80) No match (V2 was not tested)
03 [7ef5c97d] (00/81) No match (V2 was not tested)

Track Peak [ CRC32 ] [W/O NULL] [ LOG ]
– 91,5 [21776979] [16032676] CRC32
01 78,8 [BFE1AF55] [39F95F49]
02 91,5 [88BDA84E] [D82A545F]
03 89,9 [A59B0836] [DC59F968]

Thanks to strizh64

See also: