Tags
Language
Tags
June 2024
Su Mo Tu We Th Fr Sa
26 27 28 29 30 31 1
2 3 4 5 6 7 8
9 10 11 12 13 14 15
16 17 18 19 20 21 22
23 24 25 26 27 28 29
30 1 2 3 4 5 6

DeBarge - Time Will Reveal: The Complete Motown Albums [3CD] (2011)

Posted By: BlondStyle
DeBarge - Time Will Reveal: The Complete Motown Albums [3CD] (2011)

DeBarge - Time Will Reveal: The Complete Motown Albums [3CD] (2011)
R&B, Soul/Funk, Pop, Motown | EAC Rip | FLAC, Img+CUE+LOG+Scans (JPEG) | 03:28:29 | 1,63 Gb
Label: Motown Records/Hip-O Select (USA) | Cat.# B0015820-02 | Released: 2011-09-20

Motown considered this Michigan family to be the heirs apparent to the Jacksons; they even let them write, produce and arrange their songs (a luxury they did not afford the Jacksons). Here are the four LPs born of that fruitful relationship, all in print for the first time in years, plus remixes and unissued versions of their key dance cuts and ballads. The Debarges ('81) and the Top 40 LPs All This Love ('82), in a Special Way ('83) and Rhythm of the Night ('85) include the R&B hits Stop! Don't Tease Me; I Like It; All This Love; Time Will Reveal; Rhythm of the Night; Who's Holding Donna Now; Love Me in a Special Way; You Wear It Well; the Heart Is Not So Smart, and more, and you also get extended, instrumental and alternate mixes of their biggest hits!
~Amazon

DeBarge - Time Will Reveal: The Complete Motown Albums [3CD] (2011)

From late 1982 through 1985, DeBarge were a regular presence on the singles charts. They also placed three albums in the Top Five of the R&B chart all of which crossed into the Top 40 of the Billboard 200. While the siblings have been the subject of a few hits compilations, their catalog was otherwise neglected for decades, until Hip-O Select released this thorough anthology. Discs one and two of Time Will Reveal: The Complete Motown Albums contain the four DeBarge albums: The DeBarges (the undervalued if somewhat tepid debut), All This Love (the 1982 breakthrough featuring “I Like It” and the title track), In a Special Way (one of the finest albums of the early ‘80s), and Rhythm of the Night (the heavily synthesized patchwork finale). Disc three collects 12” mixes, a flowery and inferior alternate mix of “All This Love,” and four instrumental versions. What gets lost in the DeBarge family drama and image the glamorous clothes, elaborate hairstyles, and suspect facial hair is that they wrote, produced, and arranged the majority of their material and all of their best work. Their several hits, along with album cuts like “Strange Romance,” “Stay with Me,” and “A Dream,” are among the most heavenly, impeccably constructed pop-R&B music of any era. Odds are good that 2Pac, the Notorious B.I.G., Blackstreet, and Ashanti didn’t feel guilty about making hits with DeBarge-sampling records. Therefore, no listener should ever feel guilty about deriving pleasure from the source.
~Review by Andy Kellman

DeBarge - Time Will Reveal: The Complete Motown Albums [3CD] (2011)

DeBarge - Time Will Reveal: The Complete Motown Albums [3CD] (2011)




Release of these albums:
- "The DeBarges" - 1981, April, 6 [LP Gordy, Cat.# G8 1003MI, USA];
- "All This Love" - 1982, April, 22 [LP Gordy, Cat.# 6012GL, USA];
- "In A Special Way" - 1983, September, 24 [LP Gordy, Cat.# 6061GL, USA];
- "Rhythm Of The Night" - 1985, March, 14 [LP Gordy, Cat.# 6123GL, USA].

Release of this 3CD-Set: 2011, September, 20 [CDs Motown Records / Hip-O Select (USA), Cat.# B0015820-02 / UPC: 602527767314]
℗© 2011 Motown Records, a Division of UMG Recordings, Inc.
Distributed by Universal Music Distribution.
Made in U.S.A.


Notes: This Edition limited to 4000 copies worldwide.

Credits:

Compilation produced by – Harry Weinger
Mastered by – Kevin Reeves at Sterling Sound, New York
Tape vault research and A&R assistance – Andrew Skurow
Additional A&R assistance – Edward Fequiere
Art Direction & Production – Michele Horie
Package Design – Ryan Rogers / Oddopolis
Photo Coordination – Ryan Null and Jo Almeida
Photo Credits – Bobby Holland, Ron Slenzak and Motown Records Archives
Original album artwork courtesy of Motown Records Archives


Tracklist:

Disc 1

"The DeBarges" (1981)

01. What's Your Name (04:23)
02. Dance The Night Away (04:23)
03. Youre So Gentle, So Kind (04:45)
04. Queen Of My Heart (03:51)
05. Hesitated (03:46)
06. Saving Up (All My Love) (04:21)
07. Share My World (05:40)
08. Strange Romance (05:11)

"All This Love" (1982)

09. I'll Never Fall In Love Again (04:38)
10. Stop! Don't Tease Me (05:51)
11. I Like It (04:41)
12. Can't Stop (04:07)
13. All This Love (05:52)
14. It's Getting Stronger (04:01)
15. Life Begins With You (04:48)
16. I'm In Love With You (03:36)

Disc 2

"In A Special Way" (1983)

01. Be My Lady (04:15)
02. Stay With Me (03:48)
03. Time Will Reveal [Long Version] (05:03)
04. Need Somebody (04:53)
05. Love Me In A Special Way (04:16)
06. Baby, Won't Cha Come Quick (04:37)
07. I Give Up On You (03:47)
08. A Dream (05:17)

"Rhythm Of The Night" (1985)

09. Prime Time (04:28)
10. The Heart Is Not So Smart (04:37)
11. Who's Holding Donna Now (04:30)
12. Give It Up (04:19)
13. Single Heart (03:34)
14. You Wear It Well (04:46)
15. The Walls (Came Tumbling Down) (06:45)
16. Share My World (05:36)
17. Rhythm Of The Night (03:48)

Disc 3

"Bonus Disc: Remixes & Rarities" (2011)

01. Rhythm Of The Night (Long Version) (06:43)
02. You Wear It Well (M&M Club Mix) (06:53)
03. You Wear It Well (M&M Dub Mix) (05:20)
04. The Heart Is Not So Smart (M&M Club Mix) (06:28)
05. The Heart Is Not So Smart (M&M Dub Mix) (06:01)
06. All This Love (Alternative Version) (05:25)
07. Love Me In A Special Day (Instrumental) (04:59)
08. Stay With Me (Instrumental) (03:56)
09. A Dream (Instrumental) (06:11)
10. Be My Lady (Instrumental) (04:23)

Exact Audio Copy V1.3 from 2. September 2016

EAC extraction logfile from 5. October 2020, 17:43

DeBarge / Time Will Reveal: The Complete Motown Albums - Disc 1

Used drive : PIONEER BD-RW BDR-208D Adapter: 1 ID: 0

Read mode : Secure
Utilize accurate stream : Yes
Defeat audio cache : Yes
Make use of C2 pointers : No

Read offset correction : 667
Overread into Lead-In and Lead-Out : No
Fill up missing offset samples with silence : Yes
Delete leading and trailing silent blocks : No
Null samples used in CRC calculations : Yes
Used interface : Native Win32 interface for Win NT & 2000

Used output format : Internal WAV Routines
Sample format : 44.100 Hz; 16 Bit; Stereo


TOC of the extracted CD

Track | Start | Length | Start sector | End sector
––––––––––––––––––––––––––––-
1 | 0:00.00 | 4:22.38 | 0 | 19687
2 | 4:22.38 | 4:22.67 | 19688 | 39404
3 | 8:45.30 | 4:44.41 | 39405 | 60745
4 | 13:29.71 | 3:50.58 | 60746 | 78053
5 | 17:20.54 | 3:45.42 | 78054 | 94970
6 | 21:06.21 | 4:21.33 | 94971 | 114578
7 | 25:27.54 | 5:39.66 | 114579 | 140069
8 | 31:07.45 | 5:10.42 | 140070 | 163361
9 | 36:18.12 | 4:37.71 | 163362 | 184207
10 | 40:56.08 | 5:50.60 | 184208 | 210517
11 | 46:46.68 | 4:40.46 | 210518 | 231563
12 | 51:27.39 | 4:06.73 | 231564 | 250086
13 | 55:34.37 | 5:52.02 | 250087 | 276488
14 | 61:26.39 | 4:01.02 | 276489 | 294565
15 | 65:27.41 | 4:47.69 | 294566 | 316159
16 | 70:15.35 | 3:36.18 | 316160 | 332377


Range status and errors

Selected range

Filename D:\BlondStyle\Disc 1.wav

Peak level 99.9 %
Extraction speed 7.6 X
Range quality 100.0 %
Test CRC 5A2330AF
Copy CRC 5A2330AF
Copy OK

No errors occurred


AccurateRip summary

Track 1 accurately ripped (confidence 6) [250B5C85] (AR v2)
Track 2 accurately ripped (confidence 6) [DD330402] (AR v2)
Track 3 accurately ripped (confidence 6) [433F967E] (AR v2)
Track 4 accurately ripped (confidence 6) [34DAEB7A] (AR v2)
Track 5 accurately ripped (confidence 6) [39AF7063] (AR v2)
Track 6 accurately ripped (confidence 6) [5FAB9A32] (AR v2)
Track 7 accurately ripped (confidence 6) [DA1C4C67] (AR v2)
Track 8 accurately ripped (confidence 6) [6508A5C7] (AR v2)
Track 9 accurately ripped (confidence 6) [BF365ADC] (AR v2)
Track 10 accurately ripped (confidence 6) [A3B2DCA9] (AR v2)
Track 11 accurately ripped (confidence 6) [8BA6D82D] (AR v2)
Track 12 accurately ripped (confidence 6) [61C415F0] (AR v2)
Track 13 accurately ripped (confidence 6) [D17A5D1E] (AR v2)
Track 14 accurately ripped (confidence 6) [4E2BD63B] (AR v2)
Track 15 accurately ripped (confidence 6) [00A39F23] (AR v2)
Track 16 accurately ripped (confidence 5) [142F29D2] (AR v2)

All tracks accurately ripped

End of status report

–– CUETools DB Plugin V2.1.6

[CTDB TOCID: Ara6fEExArZeolfRqjMaG23JeIM-] found
Submit result: Ara6fEExArZeolfRqjMaG23JeIM- has been confirmed
Track | CTDB Status
1 | (14/14) Accurately ripped
2 | (14/14) Accurately ripped
3 | (14/14) Accurately ripped
4 | (14/14) Accurately ripped
5 | (14/14) Accurately ripped
6 | (14/14) Accurately ripped
7 | (14/14) Accurately ripped
8 | (14/14) Accurately ripped
9 | (14/14) Accurately ripped
10 | (14/14) Accurately ripped
11 | (14/14) Accurately ripped
12 | (14/14) Accurately ripped
13 | (14/14) Accurately ripped
14 | (14/14) Accurately ripped
15 | (14/14) Accurately ripped
16 | (14/14) Accurately ripped


==== Log checksum 201807CF5250C71097244A9B9D327A9673A58A49C8E83C4E6597F168D9754576 ====

––––––––––––––––––––––––––––––––––––––––
Analyzed: DeBarge / Time Will Reveal: The Complete Motown Albums - Disc 1
––––––––––––––––––––––––––––––––––––––––

DR Peak RMS Duration Track
––––––––––––––––––––––––––––––––––––––––
DR9 0.00 dB -11.27 dB 4:23 01-What's Your Name
DR9 0.00 dB -10.02 dB 4:23 02-Dance The Night Away
DR9 0.00 dB -10.51 dB 4:45 03-You're So Gentle, So Kind
DR8 0.00 dB -10.09 dB 3:51 04-Queen Of My Heart
DR10 0.00 dB -11.34 dB 3:46 05-Hesitated
DR8 0.00 dB -10.30 dB 4:21 06-Saving Up (All My Love)
DR9 0.00 dB -12.27 dB 5:40 07-Share My World
DR9 0.00 dB -9.69 dB 5:11 08-Strange Romance
DR9 0.00 dB -10.14 dB 4:38 09-I'll Never Fall In Love Again
DR8 0.00 dB -9.02 dB 5:51 10-Stop! Don't Tease Me
DR9 0.00 dB -11.38 dB 4:41 11-I Like It
DR9 0.00 dB -10.23 dB 4:07 12-Can't Stop
DR8 0.00 dB -9.69 dB 5:52 13-All This Love
DR9 0.00 dB -10.80 dB 4:01 14-It's Getting Stronger
DR7 0.00 dB -9.94 dB 4:48 15-Life Begins With You
DR8 0.00 dB -10.33 dB 3:36 16-I'm In Love With You
––––––––––––––––––––––––––––––––––––––––

Number of tracks: 16
Official DR value: DR9

Samplerate: 44100 Hz
Channels: 2
Bits per sample: 16
Bitrate: 953 kbps
Codec: FLAC
================================================================================

Exact Audio Copy V1.3 from 2. September 2016

EAC extraction logfile from 5. October 2020, 18:28

DeBarge / Time Will Reveal: The Complete Motown Albums - Disc 2

Used drive : PIONEER BD-RW BDR-208D Adapter: 1 ID: 0

Read mode : Secure
Utilize accurate stream : Yes
Defeat audio cache : Yes
Make use of C2 pointers : No

Read offset correction : 667
Overread into Lead-In and Lead-Out : No
Fill up missing offset samples with silence : Yes
Delete leading and trailing silent blocks : No
Null samples used in CRC calculations : Yes
Used interface : Native Win32 interface for Win NT & 2000

Used output format : Internal WAV Routines
Sample format : 44.100 Hz; 16 Bit; Stereo


TOC of the extracted CD

Track | Start | Length | Start sector | End sector
––––––––––––––––––––––––––––-
1 | 0:00.00 | 4:15.08 | 0 | 19132
2 | 4:15.08 | 3:48.05 | 19133 | 36237
3 | 8:03.13 | 5:02.39 | 36238 | 58926
4 | 13:05.52 | 4:52.47 | 58927 | 80873
5 | 17:58.24 | 4:15.53 | 80874 | 100051
6 | 22:14.02 | 4:37.31 | 100052 | 120857
7 | 26:51.33 | 3:46.49 | 120858 | 137856
8 | 30:38.07 | 5:16.53 | 137857 | 161609
9 | 35:54.60 | 4:28.33 | 161610 | 181742
10 | 40:23.18 | 4:36.59 | 181743 | 202501
11 | 45:00.02 | 4:29.61 | 202502 | 222737
12 | 49:29.63 | 4:18.67 | 222738 | 242154
13 | 53:48.55 | 3:34.32 | 242155 | 258236
14 | 57:23.12 | 4:45.53 | 258237 | 279664
15 | 62:08.65 | 6:44.56 | 279665 | 310020
16 | 68:53.46 | 5:36.03 | 310021 | 335223
17 | 74:29.49 | 3:48.02 | 335224 | 352325


Range status and errors

Selected range

Filename D:\BlondStyle\Disc 2.wav

Peak level 99.9 %
Extraction speed 7.7 X
Range quality 100.0 %
Test CRC A9FC045F
Copy CRC A9FC045F
Copy OK

No errors occurred


AccurateRip summary

Track 1 accurately ripped (confidence 6) [3F0C124B] (AR v2)
Track 2 accurately ripped (confidence 6) [D281BE41] (AR v2)
Track 3 accurately ripped (confidence 6) [F3A142BD] (AR v2)
Track 4 accurately ripped (confidence 6) [A7ABE24D] (AR v2)
Track 5 accurately ripped (confidence 6) [7A424CC0] (AR v2)
Track 6 accurately ripped (confidence 6) [A9010F07] (AR v2)
Track 7 accurately ripped (confidence 6) [0FC3374B] (AR v2)
Track 8 accurately ripped (confidence 6) [E0A53A19] (AR v2)
Track 9 accurately ripped (confidence 6) [A8C3C448] (AR v2)
Track 10 accurately ripped (confidence 6) [91C4E4E0] (AR v2)
Track 11 accurately ripped (confidence 6) [02551023] (AR v2)
Track 12 accurately ripped (confidence 6) [B19B836D] (AR v2)
Track 13 accurately ripped (confidence 6) [B8D90DA8] (AR v2)
Track 14 accurately ripped (confidence 6) [BCDD5E40] (AR v2)
Track 15 accurately ripped (confidence 6) [13A41E9A] (AR v2)
Track 16 accurately ripped (confidence 6) [DBCBACD2] (AR v2)
Track 17 accurately ripped (confidence 6) [C773F163] (AR v2)

All tracks accurately ripped

End of status report

–– CUETools DB Plugin V2.1.6

[CTDB TOCID: jMVFdbbMUtC_bnweVfmr41dvKx0-] found
Submit result: jMVFdbbMUtC_bnweVfmr41dvKx0- has been confirmed
Track | CTDB Status
1 | (13/13) Accurately ripped
2 | (13/13) Accurately ripped
3 | (13/13) Accurately ripped
4 | (13/13) Accurately ripped
5 | (13/13) Accurately ripped
6 | (13/13) Accurately ripped
7 | (13/13) Accurately ripped
8 | (13/13) Accurately ripped
9 | (13/13) Accurately ripped
10 | (13/13) Accurately ripped
11 | (13/13) Accurately ripped
12 | (13/13) Accurately ripped
13 | (13/13) Accurately ripped
14 | (13/13) Accurately ripped
15 | (13/13) Accurately ripped
16 | (13/13) Accurately ripped
17 | (13/13) Accurately ripped


==== Log checksum CEDED400BB83262AA02125AFBABACAE843B24202A34E52E93D197251834512B3 ====

––––––––––––––––––––––––––––––––––––––––
Analyzed: DeBarge / Time Will Reveal: The Complete Motown Albums - Disc 2
––––––––––––––––––––––––––––––––––––––––

DR Peak RMS Duration Track
––––––––––––––––––––––––––––––––––––––––
DR8 0.00 dB -9.84 dB 4:15 01-Be My Lady
DR8 0.00 dB -11.06 dB 3:48 02-Stay With Me
DR8 0.00 dB -10.33 dB 5:03 03-Time Will Reveal (Long Version)
DR9 0.00 dB -10.12 dB 4:53 04-Need Somebody
DR8 0.00 dB -10.55 dB 4:16 05-Love Me In A Special Way
DR9 0.00 dB -10.23 dB 4:37 06-Baby, Won't Cha Come Quick
DR9 0.00 dB -9.80 dB 3:47 07-I Give Up On You
DR8 0.00 dB -10.06 dB 5:17 08-A Dream
DR7 0.00 dB -9.30 dB 4:28 09-Prime Time
DR7 0.00 dB -9.74 dB 4:37 10-The Heart Is Not So Smart
DR8 0.00 dB -10.29 dB 4:30 11-Who's Holding Donna Now
DR8 0.00 dB -9.88 dB 4:19 12-Give It Up
DR8 0.00 dB -9.26 dB 3:34 13-Single Heart
DR8 0.00 dB -9.77 dB 4:46 14-You Wear It Well
DR9 0.00 dB -11.18 dB 6:45 15-The Walls (Came Tumbling Down)
DR9 0.00 dB -11.55 dB 5:36 16-Share My World
DR7 0.00 dB -8.80 dB 3:48 17-Rhythm Of The Night
––––––––––––––––––––––––––––––––––––––––

Number of tracks: 17
Official DR value: DR8

Samplerate: 44100 Hz
Channels: 2
Bits per sample: 16
Bitrate: 967 kbps
Codec: FLAC
================================================================================

Exact Audio Copy V1.3 from 2. September 2016

EAC extraction logfile from 5. October 2020, 19:01

DeBarge / Time Will Reveal: The Complete Motown Albums - Disc 3

Used drive : PIONEER BD-RW BDR-208D Adapter: 1 ID: 0

Read mode : Secure
Utilize accurate stream : Yes
Defeat audio cache : Yes
Make use of C2 pointers : No

Read offset correction : 667
Overread into Lead-In and Lead-Out : No
Fill up missing offset samples with silence : Yes
Delete leading and trailing silent blocks : No
Null samples used in CRC calculations : Yes
Used interface : Native Win32 interface for Win NT & 2000

Used output format : Internal WAV Routines
Sample format : 44.100 Hz; 16 Bit; Stereo


TOC of the extracted CD

Track | Start | Length | Start sector | End sector
––––––––––––––––––––––––––––-
1 | 0:00.00 | 6:42.53 | 0 | 30202
2 | 6:42.53 | 6:53.15 | 30203 | 61192
3 | 13:35.68 | 5:20.17 | 61193 | 85209
4 | 18:56.10 | 6:28.02 | 85210 | 114311
5 | 25:24.12 | 6:01.32 | 114312 | 141418
6 | 31:25.44 | 5:24.40 | 141419 | 165758
7 | 36:50.09 | 4:58.62 | 165759 | 188170
8 | 41:48.71 | 3:56.27 | 188171 | 205897
9 | 45:45.23 | 6:11.01 | 205898 | 233723
10 | 51:56.24 | 4:22.71 | 233724 | 253444


Range status and errors

Selected range

Filename D:\BlondStyle\Disc 3.wav

Peak level 99.9 %
Extraction speed 7.1 X
Range quality 100.0 %
Test CRC C8F07FE9
Copy CRC C8F07FE9
Copy OK

No errors occurred


AccurateRip summary

Track 1 accurately ripped (confidence 5) [3D9C3285] (AR v2)
Track 2 accurately ripped (confidence 5) [D72B56B3] (AR v2)
Track 3 accurately ripped (confidence 5) [047597FF] (AR v2)
Track 4 accurately ripped (confidence 5) [38CC0DC3] (AR v2)
Track 5 accurately ripped (confidence 5) [B65D0D5D] (AR v2)
Track 6 accurately ripped (confidence 5) [390422BC] (AR v2)
Track 7 accurately ripped (confidence 5) [E9BFA300] (AR v2)
Track 8 accurately ripped (confidence 5) [0B8DFAE5] (AR v2)
Track 9 accurately ripped (confidence 5) [A1F3111B] (AR v2)
Track 10 accurately ripped (confidence 5) [8EA2A2BF] (AR v2)

All tracks accurately ripped

End of status report

–– CUETools DB Plugin V2.1.6

[CTDB TOCID: i1kG2C1X6UFqevJb6tDHuwC5rQ8-] found
Submit result: i1kG2C1X6UFqevJb6tDHuwC5rQ8- has been confirmed
Track | CTDB Status
1 | (12/12) Accurately ripped
2 | (12/12) Accurately ripped
3 | (12/12) Accurately ripped
4 | (12/12) Accurately ripped
5 | (12/12) Accurately ripped
6 | (12/12) Accurately ripped
7 | (12/12) Accurately ripped
8 | (12/12) Accurately ripped
9 | (12/12) Accurately ripped
10 | (12/12) Accurately ripped


==== Log checksum 2A7AFA356C876BCE3DE4778982443D961BC776367CFD4F93C186FC6C9530AC37 ====

––––––––––––––––––––––––––––––––––––––––
Analyzed: DeBarge / Time Will Reveal: The Complete Motown Albums - Disc 3
––––––––––––––––––––––––––––––––––––––––

DR Peak RMS Duration Track
––––––––––––––––––––––––––––––––––––––––
DR8 0.00 dB -9.94 dB 6:43 01-Rhythm Of The Night (Long Version)
DR8 0.00 dB -9.66 dB 6:53 02-You Wear It Well (M&M Club Mix)
DR9 0.00 dB -10.17 dB 5:20 03-You Wear It Well (M&M Dub Mix)
DR8 0.00 dB -9.28 dB 6:28 04-The Heart Is Not So Smart (M&M Club Mix)
DR8 0.00 dB -10.38 dB 6:01 05-The Heart Is Not So Smart (M&M Dub Mix)
DR8 0.00 dB -9.21 dB 5:25 06-All This Love (Alternative Version)
DR9 0.00 dB -11.38 dB 4:59 07-Love Me In A Special Way (Instrumental)
DR9 0.00 dB -11.55 dB 3:56 08-Stay With Me (Instrumental)
DR10 0.00 dB -11.55 dB 6:11 09-A Dream (Instrumental)
DR10 0.00 dB -11.62 dB 4:23 10-Be My Lady (Instrumental)
––––––––––––––––––––––––––––––––––––––––

Number of tracks: 10
Official DR value: DR9

Samplerate: 44100 Hz
Channels: 2
Bits per sample: 16
Bitrate: 959 kbps
Codec: FLAC
================================================================================

See also:
DeBarge - Bad Boys (1987)

♫~Welcome To My Blog~♫

password: BlondStyle