Tags
Language
Tags

Gods of Guitar (2010) Re-up

Posted By:
Gods of Guitar (2010) Re-up

Gods of Guitar (2010)
Rock | EAC Rip | Flac(Image) + Cue + Log & MP3 CBR 320Kbps
Universal, 460502670727 | CIS | ~ 1028 or 363 Mb
2CD | Scans (JPG) -> 12 Mb

Not many true guitar gods have walked this earth. In the hands of these rare beings, the guitar is more than a six stringed musical instrument; it is a source of immense power, a weapon of mass destruction, a light saber, the most magical of wands, capable of removing a groupy’s panties with a single note.

To be a guitar god, you have to be a lead guitarist. You have to be able to rip into a solo that slices through a song like a chainsaw through butter. Ideally you should be able to play a million notes a second, but some are able to sore equally as high with half as many notes. Clapton, Page and Hendrix spring to mind. In some ways these ones are the most special. They’re the ones that really make the guitar speak a language that we all understand, but don’t understand why. Speed demons like Van Halen, Randy Rhodes, Slash and Hammett boggle the mind; the aforementioned boggle the heart.

Guitar gods are what fighter pilots are to aviators. Bass players will always claim that the bass guitar is “cooler”, but deep down inside they know they’re just flying cargo planes, while the lead guitarists are pulling 3G inverted dives and vertical take-offs in their F14 Tomcats. Only the fighter pilots have a shot at being the Top Gun. It’s the same with lead guitarists. And let’s not even get into the fact that these men are caressing large phallic objects protruding from their crotches…

Other prerequisites of being a guitar god are that you have to have a repressed childhood, ideally with few social skills as a teenager, brought on by debilitating acne or late development, thus making practicing the guitar in your bedroom the most attractive means of killing time.

They’ve just released a compilation album called Gods of Guitar. On it you’ll find Keith Richards (Stones), Paul Kossoff (Free), Richy Blackmore (Deep Purple), Eric Clapton (Cream and Derek & The Dominoes), John Frusciante (Chilli Peppers), Josh Homme (Queens of the Stone Age) amongst others, making sweet love to their fret boards.

It’s great to tick a few of those boxes that need ticking in your iTunes library. You don’t have Smoke On The Water by Deep Purple? Weird. That’s like not having a toaster. It’s one of the greatest riffs ever written. Certainly the most iconic. Wild Thing by The Troggs? Done. Rebel Rebel by David Bowie, tick! Paranoid by Black Sabbath, Layla by Derek & the Dominoes, Who Are You by The Who, Ace of Spades by Motorhead, Free Bird by Lynyrd Skynrd. This is bread and butter stuff. Rock n’ roll 101. It doesn’t even matter if you don’t actually like some of these tracks, as an informed human being living on the planet earth, you must own these songs. Rules are rules. I don’t personally feel much for Thin Lizzy’s The Boys Are Back In Town, or You Ain’t Seen Nothing Yet by Bartman-Turner Overdrive, or Jessica by The Allman Brothers. I think of Castle ads when I hear them. But at least I can say it is an educated decision not to like these songs. I have them in my library, just in case I wake up from a coma one day and find them to be a wonderful soundtrack to the beginning of the rest of my life.

But look, like any compilation, this disc is not perfect. Nickelback, Bryan Adams, Fall Out Boy… WTF? There are also songs on here that make for good music but don’t necessarily belong on an album with this title. Beautiful Day by U2, Blitzkrieg Bop by The Ramones (another obligatory track for your library nevertheless), and perhaps the most ill fitting of all: When You Were Young by the Killers. However, none of these tracks will pollute your music collection irrevocably.

In conclusion, Gods of Guitar may feature some demigods of guitar, the occasional “nice enough bloke” of guitar and one or two absolute stinkers of guitar, but the majority of its track listing is taken up by bona fide gods of guitar. So if you’re the kind of guy or girl that has a thing for a face melting solo, and your music library has a few gaps, then this is not a bad way of filling those gaps. And if you’re just a beginner, then a compilation such as this is a great “gateway drug”, and may inspire you to delve deeper into the mysterious powers of rock n’ roll. You may even venture so far as to buy an entire Hendrix or Stones album. That, as they say, would really be something. On a final note, they say that the greatest guitar god of them all is, in fact, Jeff Beck.

by G-Man


В этот сборник вошли почти четыре десятка главных рок-хитов всех времен и народов – от проверенных временем “Smoke On the Water” Deep Purple и “Ace of Spades” Motorhead до “Epic” Faith No More и “Rockstar” Nickelback.
Диск будет интересен не только знатокам рок-музыки, но и тем, кто только собирается открыть для себя этот жанр – представленные на сборнике треки уже зарекомендовали себя в мировых хит-парадах, на рок-фестивалях, в радиоротациях и в коллекциях ценителей жанра.

Дополнительным аргументом в пользу этого сборника будет звездный список имен – Queen, The Rolling Stones, ZZ Top, Bon Jovi, U2, Bryan Adams, Black Sabbath, Paul McCartney м многие другие.

~ yakaboo
Gods of Guitar (2010):

Gods of Guitar (2010) Re-up

Tracklist CD1:

1. Queen - One Vision 4:01
2. The Rolling Stones - Start Me Up 3:33
3. Dire Straits - Money For Nothing 4:05
4. Thin Lizzy - The Boys Are Back In Town 4:24
5. Kiss - Crazy Nights 3:45
6. The Buzzcocks - Ever Fallen In Love 2:41
7. Bachman Turner - You Aint Seen Nothing Yet 3:54
8. Free - All Right Now 3:48
9. Cream - White Room 4:11
10. Queens Of The Stoneage - Feel Good Hit Of The Summer 2:44
11. The Stranglers - Peaches 4:05
12. The Allman Brothers - Jessica 4:00
13. Gary Moore - Parisienne Walkway 3:19
14. Faith No More - Epic 4:52
15. The Killers - When You Were Young 3:39
16. The White Stripes - Seven Nation Army 3:51
17. Zz Top - Gimme All Your Lovin 3:59
18. Rush - The Spirit of Radio 2:36
19. Lynyrd Skynyrd - Free Bird 3:21

Exact Audio Copy V1.0 beta 2 from 29. April 2011

EAC extraction logfile from 16. October 2011, 11:34

Various / Gods of Guitar CD1

Used drive : ASUS DRW-2014L1T Adapter: 2 ID: 0

Read mode : Secure
Utilize accurate stream : Yes
Defeat audio cache : Yes
Make use of C2 pointers : No

Read offset correction : 6
Overread into Lead-In and Lead-Out : No
Fill up missing offset samples with silence : Yes
Delete leading and trailing silent blocks : No
Null samples used in CRC calculations : Yes
Used interface : Native Win32 interface for Win NT & 2000

Used output format : User Defined Encoder
Selected bitrate : 768 kBit/s
Quality : High
Add ID3 tag : No
Command line compressor : I:\Program Files\Exact Audio Copy\FLAC\FLAC.EXE
Additional command line options : -V -8 -T "Date=%year%" -T "Genre=%genre%" %source%


TOC of the extracted CD

Track | Start | Length | Start sector | End sector
––––––––––––––––––––––––––––-
1 | 0:00.00 | 4:03.69 | 0 | 18293
2 | 4:03.69 | 3:34.66 | 18294 | 34409
3 | 7:38.60 | 4:07.06 | 34410 | 52940
4 | 11:45.66 | 4:26.29 | 52941 | 72919
5 | 16:12.20 | 3:47.43 | 72920 | 89987
6 | 19:59.63 | 2:41.61 | 89988 | 102123
7 | 22:41.49 | 3:55.61 | 102124 | 119809
8 | 26:37.35 | 3:49.32 | 119810 | 137016
9 | 30:26.67 | 4:12.18 | 137017 | 155934
10 | 34:39.10 | 2:44.72 | 155935 | 168306
11 | 37:24.07 | 4:06.14 | 168307 | 186770
12 | 41:30.21 | 4:02.20 | 186771 | 204940
13 | 45:32.41 | 3:20.66 | 204941 | 220006
14 | 48:53.32 | 3:58.39 | 220007 | 237895
15 | 52:51.71 | 3:40.29 | 237896 | 254424
16 | 56:32.25 | 4:02.51 | 254425 | 272625
17 | 60:35.01 | 2:38.07 | 272626 | 284482
18 | 63:13.08 | 4:59.13 | 284483 | 306920
19 | 68:12.21 | 4:20.27 | 306921 | 326447


Range status and errors

Selected range

Filename D:\EAC\By v3122\Various - Gods of Guitar CD1\Various - Gods of Guitar CD1.wav

Suspicious position 0:02:31

Peak level 100.0 %
Extraction speed 4.1 X
Range quality 99.9 %
Test CRC A686A89A
Copy CRC 76BFE8F5
Copy finished

There were errors


AccurateRip summary

Track 1 not present in database
Track 2 not present in database
Track 3 not present in database
Track 4 not present in database
Track 5 not present in database
Track 6 not present in database
Track 7 not present in database
Track 8 not present in database
Track 9 not present in database
Track 10 not present in database
Track 11 not present in database
Track 12 not present in database
Track 13 not present in database
Track 14 not present in database
Track 15 not present in database
Track 16 not present in database
Track 17 not present in database
Track 18 not present in database
Track 19 not present in database

None of the tracks are present in the AccurateRip database

End of status report

==== Log checksum EA4C6933DFC710AE8BB8DE9430430CA8EA4800FD02DBC2E37DE03F4E5B88322F ====

AUDIOCHECKER v2.0 beta (build 457) - by Dester - opdester@freemail.hu
~~~~~~~~~~~~~~~~~~~~~~~~~~~~~~~~~~
-=== DO NOT EDIT THIS FILE! ===-

Path: …\Various - 2010 - Gods of Guitar CD1

1 -=- Various - Gods of Guitar CD1.flac -=- CDDA (100%)

17767220

[Verification date: 16.10.2011 20:12:01]
[Disc ID: 003188b8-02b36fa5-20110013]
Track [ CRC ] Status
01 [d5d2acf0] (00/00) No matches
02 [8b5c546a] (00/00) No matches
03 [1f6375e0] (00/00) No matches
04 [af433c58] (00/00) No matches
05 [49d3d492] (00/00) No matches
06 [6e701951] (00/00) No matches
07 [bd5826d1] (00/00) No matches
08 [4641d6d8] (00/00) No matches
09 [ea3b373a] (00/00) No matches
10 [335bc23d] (00/00) No matches
11 [889ab001] (00/00) No matches
12 [9a0efde5] (00/00) No matches
13 [a5c2055a] (00/00) No matches
14 [d05329ff] (00/00) No matches
15 [2c1692ab] (00/00) No matches
16 [51135e8c] (00/00) No matches
17 [5f88afeb] (00/00) No matches
18 [4715596c] (00/00) No matches
19 [ffcd7b02] (00/00) No matches

Track [ CRC32 ] [W/O NULL] [ LOG ]
– [76BFE8F5] [6AEDE8F1] CRC32
01 [11988AC4] [F75258B4]
02 [AD0F37BA] [A12A2087]
03 [878B797C] [CC6AA6AD]
04 [1F4CCDDC] [4C530DDE]
05 [E8AB6AF2] [E1A7BFB8]
06 [2A4AAAB6] [E39EA963]
07 [74844DE3] [16EF364F]
08 [9162942A] [B9027F5A]
09 [DFB37270] [BB215C39]
10 [A98FE208] [D917DA2D]
11 [32A74F21] [D1147AA7]
12 [9E87E210] [3A4D02D9]
13 [60C74286] [094F04BF]
14 [E71E9FF6] [1E26A82A]
15 [C5C8759C] [ECF640B6]
16 [799D52CA] [E5646367]
17 [270EBC2D] [42B0B534]
18 [03F8D3F1] [FE1849D7]
19 [8EFF0FFB] [C1943B75]

Gods of Guitar (2010) Re-up

Tracklist CD2:

20. Bon Jovi - These Days 4:32
21. U2 - Beautiful Day 4:06
22. David Bowie - Rebel Rebel 4:29
23. Bryan Adams - The Only Thing That Looks Good On Me Is You 3:36
24. Status Quo - Pictures Of Matchstick Men 3:08
25. The Who - Who Are You 5:08
26. Ramones - Blitzkrieg Bop 2:12
27. Rainbow - Since You Been Gone 3:18
28. Motorhead - Ace Of Spades 2:47
29. Black Sabbath - Paranoid 2:48
30. Red Hot Chilli Peppers - Higher Ground 3:22
31. Wolfmother - Woman 2:56
32. Fall Out Boy - This Aint A Scene Its An Arms Race 3:32
33. Nickelback - Rockstar 4:15
34. Moody Blues - Question 5:45
35. Steppenwolf - Born To Be Wild 3:29
36. Deep Purple - Smoke On The Water 5:36
37. Derek & The Dominos - Layla 7:08
38. Paul Mccartney And Wings - Live And Let Die 3:13

Exact Audio Copy V1.0 beta 2 from 29. April 2011

EAC extraction logfile from 16. October 2011, 12:22

Various / Gods of Guitar CD2

Used drive : ASUS DRW-2014L1T Adapter: 2 ID: 0

Read mode : Secure
Utilize accurate stream : Yes
Defeat audio cache : Yes
Make use of C2 pointers : No

Read offset correction : 6
Overread into Lead-In and Lead-Out : No
Fill up missing offset samples with silence : Yes
Delete leading and trailing silent blocks : No
Null samples used in CRC calculations : Yes
Used interface : Native Win32 interface for Win NT & 2000

Used output format : User Defined Encoder
Selected bitrate : 768 kBit/s
Quality : High
Add ID3 tag : No
Command line compressor : I:\Program Files\Exact Audio Copy\FLAC\FLAC.EXE
Additional command line options : -V -8 -T "Date=%year%" -T "Genre=%genre%" %source%


TOC of the extracted CD

Track | Start | Length | Start sector | End sector
––––––––––––––––––––––––––––-
1 | 0:00.00 | 4:32.72 | 0 | 20471
2 | 4:32.72 | 4:08.26 | 20472 | 39097
3 | 8:41.23 | 4:29.53 | 39098 | 59325
4 | 13:11.01 | 3:39.05 | 59326 | 75755
5 | 16:50.06 | 3:09.31 | 75756 | 89961
6 | 19:59.37 | 5:08.67 | 89962 | 113128
7 | 25:08.29 | 2:14.11 | 113129 | 123189
8 | 27:22.40 | 3:19.04 | 123190 | 138118
9 | 30:41.44 | 2:48.12 | 138119 | 150730
10 | 33:29.56 | 2:49.18 | 150731 | 163423
11 | 36:18.74 | 3:22.37 | 163424 | 178610
12 | 39:41.36 | 2:57.56 | 178611 | 191941
13 | 42:39.17 | 3:34.05 | 191942 | 207996
14 | 46:13.22 | 4:17.00 | 207997 | 227271
15 | 50:30.22 | 5:45.17 | 227272 | 253163
16 | 56:15.39 | 3:31.10 | 253164 | 268998
17 | 59:46.49 | 5:37.10 | 268999 | 294283
18 | 65:23.59 | 2:45.14 | 294284 | 306672
19 | 68:08.73 | 3:13.02 | 306673 | 321149


Range status and errors

Selected range

Filename D:\EAC\By v3122\Various - Gods of Guitar CD2\Various - Gods of Guitar CD2.wav

Peak level 100.0 %
Extraction speed 9.0 X
Range quality 100.0 %
Test CRC 1CF02F92
Copy CRC 1CF02F92
Copy OK

No errors occurred


AccurateRip summary

Track 1 not present in database
Track 2 not present in database
Track 3 not present in database
Track 4 not present in database
Track 5 not present in database
Track 6 not present in database
Track 7 not present in database
Track 8 not present in database
Track 9 not present in database
Track 10 not present in database
Track 11 not present in database
Track 12 not present in database
Track 13 not present in database
Track 14 not present in database
Track 15 not present in database
Track 16 not present in database
Track 17 not present in database
Track 18 not present in database
Track 19 not present in database

None of the tracks are present in the AccurateRip database

End of status report

==== Log checksum 3934FF46E46D3FEFB52CBBC037213F588F78E8254D72360BC6029416D435380E ====

AUDIOCHECKER v2.0 beta (build 457) - by Dester - opdester@freemail.hu
~~~~~~~~~~~~~~~~~~~~~~~~~~~~~~~~~~
-=== DO NOT EDIT THIS FILE! ===-

Path: …\Various - 2010 - Gods of Guitar CD2

1 -=- Various - Gods of Guitar CD2.flac -=- CDDA (100%)

16182068

[Verification date: 16.10.2011 20:12:47]
[Disc ID: 00312f03-02ab2195-f010ba13]
Track [ CRC ] Status
01 [d773d2bc] (00/00) No matches
02 [8d1925b2] (00/00) No matches
03 [ef60a606] (00/00) No matches
04 [9eac5906] (00/00) No matches
05 [a7fcf8cc] (00/00) No matches
06 [9fe36890] (00/00) No matches
07 [7e22ee95] (00/00) No matches
08 [88d8812a] (00/00) No matches
09 [3cc1e461] (00/00) No matches
10 [12fb49c0] (00/00) No matches
11 [b7650443] (00/00) No matches
12 [4647422c] (00/00) No matches
13 [5e136444] (00/00) No matches
14 [d86deed9] (00/00) No matches
15 [bd60ddb1] (00/00) No matches
16 [9a162df4] (00/00) No matches
17 [bb506d2a] (00/00) No matches
18 [7e1dc9db] (00/00) No matches
19 [3f0d7f93] (00/00) No matches

Track [ CRC32 ] [W/O NULL] [ LOG ]
– [1CF02F92] [8A82D194] CRC32
01 [FCEA1568] [488F90AE]
02 [710286A4] [BD9C441C]
03 [39FBF7F2] [ED5E189C]
04 [E330451E] [32091C64]
05 [11B2E0E7] [4D4E8F3A]
06 [C54AD1CF] [E58F6FFB]
07 [53328E53] [A3DF30B4]
08 [C173A467] [607C08DD]
09 [FD4B31D3] [B24A0931]
10 [D4DD011E] [F0802FC8]
11 [394A81C1] [DCD4F285]
12 [183E16CC] [0172C7F7]
13 [A16BA40F] [2F704C50]
14 [C2712F3F] [86895D97]
15 [91539100] [D21D10C1]
16 [75427108] [B6D2352F]
17 [06EA55F9] [001E1667]
18 [0298D51E] [417D8F6D]
19 [37DE5D01] [7AA5AC82]

Gods of Guitar (2010) Re-up

Download Gods of Guitar (2010):