Tags
Language
Tags

KISS - Rock And Roll Over (1976) [Japan (mini LP) 2006] Repost

Posted By: Andi_Deris
KISS - Rock And Roll Over (1976) [Japan (mini LP) 2006] Repost

KISS - Rock And Roll Over (1976) [Japan (mini LP) 2006]
EAC Rip | FLAC: Image+Cue+Log | MP3 CBR 320 kbps | Scans
244 Mb | 78 Mb | 17 Mb | Time: 33:38
Mercury/Universal Music K.K. | UICY-93096
Hard Rock, Heavy Metal, Glam

Rock and Roll Over is the fifth studio album by American rock band Kiss, released in 1976. It was recorded at the Star Theatre, and in order to get the proper drum sound, Peter Criss recorded the drum tracks in a bathroom, communicating via video-link with the rest of the band. Criss' vocals are featured on the tracks "Baby Driver" and "Hard Luck Woman". Paul Stanley, who originally wanted the latter song to be sung by Rod Stewart, gave it to Criss, after Gene Simmons insisted Criss sing the song instead.

KISS - Rock And Roll Over (1976) [Japan (mini LP) 2006] Repost




Track Listing

01. I Want You (03:05)
02. Take Me (02:58)
03. Calling Dr. Love (03:48)
04. Ladies Room (03:28)
05. Baby Driver (03:41)
06. Love 'Em And Leave 'Em (03:48)
07. Mr. Speed (03:22)
08. See You In Your Dreams (02:38)
09. Hard Luck Woman (03:37)
10. Makin' Love (03:15)

Produced by Eddie Kramer

The Band

• Paul Stanley - vocals, rhythm guitar, first guitar solo on "I Want You", acoustic guitar
• Ace Frehley - lead guitar, second guitar solo on "I Want You", backing vocals
• Gene Simmons - vocals, bass guitar, rhythm guitar on "Ladies Room"
• Peter Criss - drums, percussion, vocals
Notes

℗ 1976 The Island Def Jam Group
© 1976 Kiss Catalogue, Ltd.

Limited Edition, Reissue, Remastered, Papersleeve
Comes with an silver mirrored OBI, a printed innersleeve and a sticker showing the cover artwork.


Exact Audio Copy V1.1 from 23. June 2015

EAC extraction logfile from 7. November 2015, 14:20

Kiss / Rock And Roll Over (UICY-93096)

Used drive : PLEXTOR DVDR PX-891SA Adapter: 1 ID: 0

Read mode : Secure
Utilize accurate stream : Yes
Defeat audio cache : Yes
Make use of C2 pointers : No

Read offset correction : 6
Overread into Lead-In and Lead-Out : No
Fill up missing offset samples with silence : Yes
Delete leading and trailing silent blocks : No
Null samples used in CRC calculations : Yes
Used interface : Native Win32 interface for Win NT & 2000

Used output format : User Defined Encoder
Selected bitrate : 128 kBit/s
Quality : High
Add ID3 tag : No
Command line compressor : C:\Program Files (x86)\Exact Audio Copy\Flac\flac.exe
Additional command line options : -V -8 -T "Genre=%genre%" -T "Artist=%artist%" -T "Title=%title%" -T "Album=%albumtitle%" -T "Date=%year%" -T "Tracknumber=%tracknr%" -T "Comment=%comment%" %source%


TOC of the extracted CD

Track | Start | Length | Start sector | End sector
––––––––––––––––––––––––––––-
1 | 0:00.00 | 3:05.00 | 0 | 13874
2 | 3:05.00 | 2:57.50 | 13875 | 27199
3 | 6:02.50 | 3:47.37 | 27200 | 44261
4 | 9:50.12 | 3:27.48 | 44262 | 59834
5 | 13:17.60 | 3:40.35 | 59835 | 76369
6 | 16:58.20 | 3:47.60 | 76370 | 93454
7 | 20:46.05 | 3:21.70 | 93455 | 108599
8 | 24:08.00 | 2:37.37 | 108600 | 120411
9 | 26:45.37 | 3:36.38 | 120412 | 136649
10 | 30:22.00 | 3:14.57 | 136650 | 151256


Range status and errors

Selected range

Filename H:\dafnaplus\Kiss\Rock And Roll Over\Kiss - Rock And Roll Over (UICY-93096).wav

Peak level 100.0 %
Extraction speed 6.8 X
Range quality 100.0 %
Test CRC 844A7AAA
Copy CRC 844A7AAA
Copy OK

No errors occurred


AccurateRip summary

Track 1 accurately ripped (confidence 9) [3E5CBF92] (AR v2)
Track 2 accurately ripped (confidence 8) [DF2215FB] (AR v2)
Track 3 accurately ripped (confidence 9) [96B56B4E] (AR v2)
Track 4 accurately ripped (confidence 8) [0C719DCC] (AR v2)
Track 5 accurately ripped (confidence 8) [05E75521] (AR v2)
Track 6 accurately ripped (confidence 8) [C82BDFE8] (AR v2)
Track 7 accurately ripped (confidence 8) [5607091E] (AR v2)
Track 8 accurately ripped (confidence 8) [C6B8D4AC] (AR v2)
Track 9 accurately ripped (confidence 9) [B7A25E16] (AR v2)
Track 10 accurately ripped (confidence 7) [A3EBEA41] (AR v2)

All tracks accurately ripped

End of status report

–– CUETools DB Plugin V2.1.6

[CTDB TOCID: tvBDA4BBhoyygRMa.nIfMgm7uEs-] found
Submit result: tvBDA4BBhoyygRMa.nIfMgm7uEs- has been confirmed
Track | CTDB Status
1 | (6/8) Accurately ripped
2 | (6/8) Accurately ripped
3 | (6/8) Accurately ripped
4 | (6/8) Accurately ripped
5 | (6/8) Accurately ripped
6 | (6/8) Accurately ripped
7 | (6/8) Accurately ripped
8 | (6/8) Accurately ripped
9 | (6/8) Accurately ripped
10 | (5/8) Accurately ripped, or (1/8) differs in 2 samples @00:19:17


==== Log checksum E34F13D66B091BEB059998BC1B7797D595B0F788CBDAA4BAFF67EC3B0D7E9619 ====


Many thanks to the original uploader: dafnaplus





Password: pass