Tags
Language
Tags

Lou Reed - The RCA & Arista Album Collection (2016) [17CD Box Set]

Posted By: v3122
Lou Reed - The RCA & Arista Album Collection (2016) [17CD Box Set]

Lou Reed - The RCA & Arista Album Collection (2016)
EAC | Flac(Image) + Cue + Log & MP3 CBR 320Kbps
17CD | Sony Music, 88843038032 | ~ 4511 or 1673 Mb | Scans(png) -> 1856 Mb
Experimental / Glam / Art Rock

In 1972, Lou Reed was a minor cult hero to a handful of rock critics and left-of-center music fans who championed his former band, the Velvet Underground, but he was unknown to the mainstream music audience. By 1986, Reed was a rock & roll icon, widely hailed as a master songwriter and one of the founding fathers of punk, glam, noise rock, and any number of other vital rock subgenres; he even scored a few hits along the way. If you want to know what happened during those 14 years to make such a difference, the answer can be found in The RCA & Arista Album Collection, a 17-disc box set that brings together nearly all of Reed's recorded work from this period. This set includes seven albums Reed cut for RCA Records from 1972 to 1975 (Lou Reed, Transformer, Berlin, Rock n' Roll Animal, Sally Can't Dance, Metal Machine Music, and Coney Island Baby), five he recorded while signed to Arista from 1976 to 1980 (Rock and Roll Heart, Street Hassle, Live: Take No Prisoners, The Bells, Growing Up in Public), and four more Reed made after re-signing to RCA in 1982 (The Blue Mask, Legendary Hearts, New Sensations, Mistrial). Despite the bulk of this set, it isn't quite complete; two live albums are missing, 1975's Lou Reed Live (outtakes from the shows recorded for Rock n' Roll Animal that were released without Reed's input) and 1984's Live in Italy (a flawed but enjoyable concert recording with guitarist Robert Quine anchoring one of Reed's best live bands). But this set beautifully charts the formative years of Reed's solo career. The early RCA albums see him finding his feet, slipping into self-indulgence and decadence before making his way back to his strong suits. The Arista albums herald Reed's return to strong, personal songwriting, even as he struggles with his demons and his ego. And a newly sober Lou returned to RCA to make some of his strongest and bravest music since leaving the VU (even if Mistrial ended that run on a stumble). Reed supervised the remastering of these albums for this release, and for the most part the sound is observably cleaner and more present, especially the LPs recorded using binaural sound, which have lost some of their murk. And the packaging is lovely; each CD is housed in a reproduction of its original vinyl jacket, and the hardcover book is full of rare photos, clippings, original liner notes, and interviews, including some candid conversations between Reed and Danny Fields. The RCA & Arista Album Collection doesn't include any rare or unreleased material (and the bonus cuts that appeared on the previous CD releases of some of these albums aren't here), but for serious fans who want to reacquaint themselves with Reed's catalog of the '70s and '80s, it has rarely been presented with this degree of care, and there's plenty of brilliant music to be found here.

by Mark Deming, allmusic
Lou Reed - The RCA & Arista Album Collection (2016) [17CD Box Set]


Lou Reed - The RCA & Arista Album Collection (2016) [17CD Box Set]

Lou Reed - The RCA & Arista Album Collection (2016):

Lou Reed - The RCA & Arista Album Collection (2016) [17CD Box Set]

Tracklist CD1 - 1972 Lou Reed:

01 I Can't Stand It
02 Going Down
03 Walk And Talk It
04 Lisa Says
05 Berlin
06 I Love You
07 Wild Child
08 Love Makes You Feel
09 Ride Into The Sun
10 Ocean

Exact Audio Copy V1.1 from 23. June 2015

EAC extraction logfile from 26. October 2016, 19:19

Lou Reed / Lou Reed

Used drive : PLEXTOR BD-R PX-B950SA Adapter: 1 ID: 1

Read mode : Secure
Utilize accurate stream : Yes
Defeat audio cache : Yes
Make use of C2 pointers : No

Read offset correction : 6
Overread into Lead-In and Lead-Out : No
Fill up missing offset samples with silence : Yes
Delete leading and trailing silent blocks : No
Null samples used in CRC calculations : Yes
Used interface : Native Win32 interface for Win NT & 2000

Used output format : Internal WAV Routines
Sample format : 44.100 Hz; 16 Bit; Stereo


TOC of the extracted CD

Track | Start | Length | Start sector | End sector
––––––––––––––––––––––––––––-
1 | 0:00.00 | 2:37.61 | 0 | 11835
2 | 2:37.61 | 2:57.50 | 11836 | 25160
3 | 5:35.36 | 3:42.15 | 25161 | 41825
4 | 9:17.51 | 5:34.32 | 41826 | 66907
5 | 14:52.08 | 5:17.71 | 66908 | 90753
6 | 20:10.04 | 2:21.43 | 90754 | 101371
7 | 22:31.47 | 4:45.18 | 101372 | 122764
8 | 27:16.65 | 3:15.20 | 122765 | 137409
9 | 30:32.10 | 3:17.63 | 137410 | 152247
10 | 33:49.73 | 5:07.64 | 152248 | 175336


Range status and errors

Selected range

Filename C:\Users\Meijin\Desktop\ALLexxess\Lou Reed\2016 RCA & Arista Album Collection (17CD Box Set Sony Music)\1972 Lou Reed\Lou Reed - Lou Reed.wav

Peak level 100.0 %
Extraction speed 6.7 X
Range quality 100.0 %
Test CRC 55845661
Copy CRC 55845661
Copy OK

No errors occurred


AccurateRip summary

Track 1 not present in database
Track 2 not present in database
Track 3 not present in database
Track 4 not present in database
Track 5 not present in database
Track 6 not present in database
Track 7 not present in database
Track 8 not present in database
Track 9 not present in database
Track 10 not present in database

None of the tracks are present in the AccurateRip database

End of status report

–– CUETools DB Plugin V2.1.6

[CTDB TOCID: 2zTA1hasJ3.NSPG7GUppz4Gyzto-] found
Submit result: 2zTA1hasJ3.NSPG7GUppz4Gyzto- has been confirmed
Track | CTDB Status
1 | (5/5) Accurately ripped
2 | (5/5) Accurately ripped
3 | (5/5) Accurately ripped
4 | (5/5) Accurately ripped
5 | (5/5) Accurately ripped
6 | (5/5) Accurately ripped
7 | (5/5) Accurately ripped
8 | (5/5) Accurately ripped
9 | (5/5) Accurately ripped
10 | (5/5) Accurately ripped


==== Log checksum 8BB40A5DD8D2E760A9440E8DFF8F916B96E508086AE3BAB5B47A040FE576A69C ====


[CUETools log; Date: 02.11.2016 12:31:47; Version: 2.1.4]
[CTDB TOCID: 2zTA1hasJ3.NSPG7GUppz4Gyzto-] found.
Track | CTDB Status
1 | (11/11) Accurately ripped
2 | (11/11) Accurately ripped
3 | (11/11) Accurately ripped
4 | (11/11) Accurately ripped
5 | (11/11) Accurately ripped
6 | (11/11) Accurately ripped
7 | (11/11) Accurately ripped
8 | (11/11) Accurately ripped
9 | (11/11) Accurately ripped
10 | (11/11) Accurately ripped
[AccurateRip ID: 000e1fb1-0072d305-8009210a] disk not present in database.

Track Peak [ CRC32 ] [W/O NULL] [ LOG ]
– 100,0 [55845661] [91F68B5A] CRC32
01 99,9 [6E1FF751] [4AE25E75]
02 100,0 [7750A119] [32371D4F]
03 100,0 [A7E25DBD] [EDF0E977]
04 100,0 [1484A5FF] [EA6A919C]
05 100,0 [0FFB33E7] [F1D85A76]
06 100,0 [F27234FD] [4DB1229B]
07 99,3 [1C0E5481] [ECC6E338]
08 98,0 [9687ACAA] [B74FD07A]
09 100,0 [D247BEF2] [AF959035]
10 99,0 [3FE77B42] [D8483A26]

Lou Reed - The RCA & Arista Album Collection (2016) [17CD Box Set]

Tracklist CD2 - 1972 Transformer:

01 Vicious
02 Andy's Chest
03 Perfect Day
04 Hangin' 'Round
05 Walk On The Wild Side
06 Make Up
07 Satellite Of Love
08 Wagon Wheel
09 New York Telephone Conversation
10 I'm So Free
11 Goodnight Ladies

Exact Audio Copy V1.1 from 23. June 2015

EAC extraction logfile from 26. October 2016, 17:18

Lou Reed / Transformer

Used drive : PLEXTOR BD-R PX-B950SA Adapter: 1 ID: 1

Read mode : Secure
Utilize accurate stream : Yes
Defeat audio cache : Yes
Make use of C2 pointers : No

Read offset correction : 6
Overread into Lead-In and Lead-Out : No
Fill up missing offset samples with silence : Yes
Delete leading and trailing silent blocks : No
Null samples used in CRC calculations : Yes
Used interface : Native Win32 interface for Win NT & 2000

Used output format : Internal WAV Routines
Sample format : 44.100 Hz; 16 Bit; Stereo


TOC of the extracted CD

Track | Start | Length | Start sector | End sector
––––––––––––––––––––––––––––-
1 | 0:00.00 | 2:59.48 | 0 | 13472
2 | 2:59.48 | 3:20.57 | 13473 | 28529
3 | 6:20.30 | 3:46.39 | 28530 | 45518
4 | 10:06.69 | 3:35.32 | 45519 | 61675
5 | 13:42.26 | 4:15.66 | 61676 | 80866
6 | 17:58.17 | 3:00.44 | 80867 | 94410
7 | 20:58.61 | 3:42.39 | 94411 | 111099
8 | 24:41.25 | 3:19.55 | 111100 | 126079
9 | 28:01.05 | 1:34.27 | 126080 | 133156
10 | 29:35.32 | 3:09.40 | 133157 | 147371
11 | 32:44.72 | 4:20.38 | 147372 | 166909


Range status and errors

Selected range

Filename C:\Users\Meijin\Desktop\ALLexxess\Lou Reed\2016 RCA & Arista Album Collection (17CD Box Set Sony Music)\1972 Transformer\Lou Reed - Transformer.wav

Peak level 91.5 %
Extraction speed 6.6 X
Range quality 100.0 %
Test CRC BB6F0DC8
Copy CRC BB6F0DC8
Copy OK

No errors occurred


AccurateRip summary

Track 1 not present in database
Track 2 not present in database
Track 3 not present in database
Track 4 not present in database
Track 5 not present in database
Track 6 not present in database
Track 7 not present in database
Track 8 not present in database
Track 9 not present in database
Track 10 not present in database
Track 11 not present in database

None of the tracks are present in the AccurateRip database

End of status report

–– CUETools DB Plugin V2.1.6

[CTDB TOCID: PimcH7vV26Nhq5_pvLjM1v0x3_I-] found
Submit result: PimcH7vV26Nhq5_pvLjM1v0x3_I- has been confirmed
Track | CTDB Status
1 | (5/5) Accurately ripped
2 | (5/5) Accurately ripped
3 | (5/5) Accurately ripped
4 | (5/5) Accurately ripped
5 | (5/5) Accurately ripped
6 | (5/5) Accurately ripped
7 | (5/5) Accurately ripped
8 | (5/5) Accurately ripped
9 | (5/5) Accurately ripped
10 | (5/5) Accurately ripped
11 | (5/5) Accurately ripped


==== Log checksum 72D0DA05570A85415A6C0AFCEF5BFE89CC4850E5B67D56158F7C51B069B7B62C ====


[CUETools log; Date: 02.11.2016 12:33:19; Version: 2.1.4]
[CTDB TOCID: PimcH7vV26Nhq5_pvLjM1v0x3_I-] found.
Track | CTDB Status
1 | (10/10) Accurately ripped
2 | (10/10) Accurately ripped
3 | (10/10) Accurately ripped
4 | (10/10) Accurately ripped
5 | (10/10) Accurately ripped
6 | (10/10) Accurately ripped
7 | (10/10) Accurately ripped
8 | (10/10) Accurately ripped
9 | (10/10) Accurately ripped
10 | (10/10) Accurately ripped
11 | (10/10) Accurately ripped
[AccurateRip ID: 000f65c7-00852e6e-9508b10b] disk not present in database.

Track Peak [ CRC32 ] [W/O NULL] [ LOG ]
– 91,5 [BB6F0DC8] [B2C8E22A] CRC32
01 91,5 [41B5AC15] [44B928A9]
02 85,6 [86C5D65F] [1E3FB6D1]
03 81,2 [9CF42726] [AF816F28]
04 85,2 [566D35AA] [08D14219]
05 82,9 [A480F9E6] [ADB0CBFC]
06 81,1 [7309C584] [D48F0579]
07 88,0 [C08ABCA1] [44C408D1]
08 91,4 [B3030497] [92627735]
09 79,7 [8843BC6C] [811421DF]
10 88,2 [A58A85EA] [C51B187A]
11 83,5 [5194D991] [638A6E4A]

Lou Reed - The RCA & Arista Album Collection (2016) [17CD Box Set]

Tracklist CD3 - 1973 Berlin:

01 Berlin
02 Lady Day
03 Men Of Good Fortune
04 Caroline Says I
05 How Do You Think It Feels
06 Oh Jim
07 Caroline Says II
08 The Kids
09 The Bed
10 Sad Song

Exact Audio Copy V1.1 from 23. June 2015

EAC extraction logfile from 25. October 2016, 21:21

Lou Reed / Berlin

Used drive : PLEXTOR BD-R PX-B950SA Adapter: 1 ID: 1

Read mode : Secure
Utilize accurate stream : Yes
Defeat audio cache : Yes
Make use of C2 pointers : No

Read offset correction : 6
Overread into Lead-In and Lead-Out : No
Fill up missing offset samples with silence : Yes
Delete leading and trailing silent blocks : No
Null samples used in CRC calculations : Yes
Used interface : Native Win32 interface for Win NT & 2000

Used output format : Internal WAV Routines
Sample format : 44.100 Hz; 16 Bit; Stereo


TOC of the extracted CD

Track | Start | Length | Start sector | End sector
––––––––––––––––––––––––––––-
1 | 0:00.00 | 3:24.28 | 0 | 15327
2 | 3:24.28 | 3:40.04 | 15328 | 31831
3 | 7:04.32 | 4:37.68 | 31832 | 52674
4 | 11:42.25 | 3:57.22 | 52675 | 70471
5 | 15:39.47 | 3:41.70 | 70472 | 87116
6 | 19:21.42 | 5:15.08 | 87117 | 110749
7 | 24:36.50 | 4:13.43 | 110750 | 129767
8 | 28:50.18 | 7:54.30 | 129768 | 165347
9 | 36:44.48 | 5:51.37 | 165348 | 191709
10 | 42:36.10 | 6:55.59 | 191710 | 222893


Range status and errors

Selected range

Filename C:\Users\Meijin\Desktop\ALLexxess\Lou Reed\2016 RCA & Arista Album Collection (17CD Box Set Sony Music)\1973 Berlin\Lou Reed - Berlin.wav

Peak level 100.0 %
Extraction speed 7.1 X
Range quality 100.0 %
Test CRC 5ED77D84
Copy CRC 5ED77D84
Copy OK

No errors occurred


AccurateRip summary

Track 1 not present in database
Track 2 not present in database
Track 3 not present in database
Track 4 not present in database
Track 5 not present in database
Track 6 not present in database
Track 7 not present in database
Track 8 not present in database
Track 9 not present in database
Track 10 not present in database

None of the tracks are present in the AccurateRip database

End of status report

–– CUETools DB Plugin V2.1.6

[CTDB TOCID: eZwR9st1W7DYIwnuP1RpTtFax7Q-] found
Submit result: eZwR9st1W7DYIwnuP1RpTtFax7Q- has been confirmed
Track | CTDB Status
1 | (4/4) Accurately ripped
2 | (4/4) Accurately ripped
3 | (4/4) Accurately ripped
4 | (4/4) Accurately ripped
5 | (4/4) Accurately ripped
6 | (4/4) Accurately ripped
7 | (4/4) Accurately ripped
8 | (4/4) Accurately ripped
9 | (4/4) Accurately ripped
10 | (4/4) Accurately ripped


==== Log checksum 6191E36C131F7D05DFBFA3CE7BDE2274E938DB3086B4FBDFF4769249DE8D0391 ====


[CUETools log; Date: 02.11.2016 14:43:43; Version: 2.1.4]
[CTDB TOCID: eZwR9st1W7DYIwnuP1RpTtFax7Q-] found.
Track | CTDB Status
1 | (9/9) Accurately ripped
2 | (9/9) Accurately ripped
3 | (9/9) Accurately ripped
4 | (9/9) Accurately ripped
5 | (9/9) Accurately ripped
6 | (9/9) Accurately ripped
7 | (9/9) Accurately ripped
8 | (9/9) Accurately ripped
9 | (9/9) Accurately ripped
10 | (9/9) Accurately ripped
[AccurateRip ID: 00107286-008788c7-790b9b0a] disk not present in database.

Track Peak [ CRC32 ] [W/O NULL] [ LOG ]
– 100,0 [5ED77D84] [129DC13D] CRC32
01 99,3 [C518B833] [12D16997]
02 100,0 [4086351E] [1FF89B77]
03 100,0 [89FE28B8] [AB981E47]
04 100,0 [D1B6C8F9] [701F331D]
05 99,9 [3605DC13] [0CEDE5FE]
06 100,0 [EDBAD208] [6F8CD506]
07 100,0 [5A52F171] [3A200B85]
08 99,7 [F5C8F3E1] [547ACD1B]
09 98,0 [F53567AF] [E1A7F701]
10 100,0 [E1221EB6] [00CA1FE3]


Lou Reed - The RCA & Arista Album Collection (2016) [17CD Box Set]

Tracklist CD4 - 1974 Rock N Roll Animal:

01 Intro / Sweet Jane
02 Heroin
03 White Light / White Heat
04 Lady Day
05 Rock 'N' Roll

Exact Audio Copy V1.1 from 23. June 2015

EAC extraction logfile from 25. October 2016, 20:58

Lou Reed / Rock N Roll Animal

Used drive : PLEXTOR BD-R PX-B950SA Adapter: 1 ID: 1

Read mode : Secure
Utilize accurate stream : Yes
Defeat audio cache : Yes
Make use of C2 pointers : No

Read offset correction : 6
Overread into Lead-In and Lead-Out : No
Fill up missing offset samples with silence : Yes
Delete leading and trailing silent blocks : No
Null samples used in CRC calculations : Yes
Used interface : Native Win32 interface for Win NT & 2000

Used output format : Internal WAV Routines
Sample format : 44.100 Hz; 16 Bit; Stereo


TOC of the extracted CD

Track | Start | Length | Start sector | End sector
––––––––––––––––––––––––––––-
1 | 0:00.00 | 8:03.01 | 0 | 36225
2 | 8:03.01 | 12:58.14 | 36226 | 94589
3 | 21:01.15 | 5:11.43 | 94590 | 117957
4 | 26:12.58 | 4:01.11 | 117958 | 136043
5 | 30:13.69 | 10:09.32 | 136044 | 181750


Range status and errors

Selected range

Filename C:\Users\Meijin\Desktop\ALLexxess\Lou Reed\2016 RCA & Arista Album Collection (17CD Box Set Sony Music)\1974 Rock N Roll Animal\Lou Reed - Rock N Roll Animal.wav

Peak level 100.0 %
Extraction speed 6.8 X
Range quality 100.0 %
Test CRC D3475B1D
Copy CRC D3475B1D
Copy OK

No errors occurred


AccurateRip summary

Track 1 not present in database
Track 2 not present in database
Track 3 not present in database
Track 4 not present in database
Track 5 not present in database

None of the tracks are present in the AccurateRip database

End of status report

–– CUETools DB Plugin V2.1.6

[CTDB TOCID: HbaOfLo1FX5MLOM5zLTnYZ7m4MQ-] found
Submit result: HbaOfLo1FX5MLOM5zLTnYZ7m4MQ- has been confirmed
Track | CTDB Status
1 | (5/5) Accurately ripped
2 | (5/5) Accurately ripped
3 | (5/5) Accurately ripped
4 | (5/5) Accurately ripped
5 | (5/5) Accurately ripped


==== Log checksum 6EDEBAB701BAAE9EB7F8B61BDDFCB365C8CD1911BD34AA34C5469511CCC1317B ====


[CUETools log; Date: 02.11.2016 12:38:20; Version: 2.1.4]
[CTDB TOCID: HbaOfLo1FX5MLOM5zLTnYZ7m4MQ-] found.
Track | CTDB Status
1 | (10/10) Accurately ripped
2 | (10/10) Accurately ripped
3 | (10/10) Accurately ripped
4 | (10/10) Accurately ripped
5 | (10/10) Accurately ripped
[AccurateRip ID: 0008a529-0027a77d-3f097705] disk not present in database.

Track Peak [ CRC32 ] [W/O NULL] [ LOG ]
– 100,0 [D3475B1D] [2B33D81D] CRC32
01 100,0 [DC1B9E73] [6343F6C9]
02 100,0 [42D0FAC9] [69319BED]
03 96,9 [036EAEC8] [6E6BD2E8]
04 95,5 [BCB8D079] [E7D675CA]
05 100,0 [57A91200] [405C88E2]

Lou Reed - The RCA & Arista Album Collection (2016) [17CD Box Set]

Tracklist CD5 - 1974 Sally Can't Dance:

01 Ride Sally Ride
02 Animal Language
03 Baby Face
04 N.Y. Stars
05 Kill Your Sons
06 Ennui
07 Sally Can't Dance
08 Billy

Exact Audio Copy V1.1 from 23. June 2015

EAC extraction logfile from 25. October 2016, 20:36

Lou Reed / Sally Can't Dance

Used drive : PLEXTOR BD-R PX-B950SA Adapter: 1 ID: 1

Read mode : Secure
Utilize accurate stream : Yes
Defeat audio cache : Yes
Make use of C2 pointers : No

Read offset correction : 6
Overread into Lead-In and Lead-Out : No
Fill up missing offset samples with silence : Yes
Delete leading and trailing silent blocks : No
Null samples used in CRC calculations : Yes
Used interface : Native Win32 interface for Win NT & 2000

Used output format : Internal WAV Routines
Sample format : 44.100 Hz; 16 Bit; Stereo


TOC of the extracted CD

Track | Start | Length | Start sector | End sector
––––––––––––––––––––––––––––-
1 | 0:00.00 | 4:06.36 | 0 | 18485
2 | 4:06.36 | 3:05.44 | 18486 | 32404
3 | 7:12.05 | 5:05.35 | 32405 | 55314
4 | 12:17.40 | 4:01.59 | 55315 | 73448
5 | 16:19.24 | 3:40.27 | 73449 | 89975
6 | 19:59.51 | 3:43.00 | 89976 | 106700
7 | 23:42.51 | 4:09.29 | 106701 | 125404
8 | 27:52.05 | 5:04.69 | 125405 | 148273


Range status and errors

Selected range

Filename C:\Users\Meijin\Desktop\ALLexxess\Lou Reed\2016 RCA & Arista Album Collection (17CD Box Set Sony Music)\1974 Sally Can't Dance\Lou Reed - Sally Can't Dance.wav

Peak level 100.0 %
Extraction speed 6.4 X
Range quality 100.0 %
Test CRC D4F286D4
Copy CRC D4F286D4
Copy OK

No errors occurred


AccurateRip summary

Track 1 not present in database
Track 2 not present in database
Track 3 not present in database
Track 4 not present in database
Track 5 not present in database
Track 6 not present in database
Track 7 not present in database
Track 8 not present in database

None of the tracks are present in the AccurateRip database

End of status report

–– CUETools DB Plugin V2.1.6

[CTDB TOCID: U8b6.Cc71oyRR7pBKH7bkQCp5gQ-] found
Submit result: U8b6.Cc71oyRR7pBKH7bkQCp5gQ- has been confirmed
Track | CTDB Status
1 | (5/5) Accurately ripped
2 | (5/5) Accurately ripped
3 | (5/5) Accurately ripped
4 | (5/5) Accurately ripped
5 | (5/5) Accurately ripped
6 | (5/5) Accurately ripped
7 | (5/5) Accurately ripped
8 | (5/5) Accurately ripped


==== Log checksum CBA174B426A49D26FAC57F3D78FE17F0E5D1FC76451A0009E80E40568FA5C6E6 ====


[CUETools log; Date: 02.11.2016 12:38:28; Version: 2.1.4]
[CTDB TOCID: U8b6.Cc71oyRR7pBKH7bkQCp5gQ-] found.
Track | CTDB Status
1 | (9/9) Accurately ripped
2 | (9/9) Accurately ripped
3 | (9/9) Accurately ripped
4 | (9/9) Accurately ripped
5 | (9/9) Accurately ripped
6 | (9/9) Accurately ripped
7 | (9/9) Accurately ripped
8 | (9/9) Accurately ripped
[AccurateRip ID: 0009eb1b-0042551a-6107b808] disk not present in database.

Track Peak [ CRC32 ] [W/O NULL] [ LOG ]
– 100,0 [D4F286D4] [C42D0CA3] CRC32
01 100,0 [7D273CCF] [59E3C96C]
02 100,0 [B4B9E60E] [E429B10D]
03 100,0 [97326D2B] [F2F18F42]
04 100,0 [EB23ED88] [3C6C96C6]
05 100,0 [81B77ECC] [9E209CEC]
06 100,0 [79408100] [542BC76C]
07 100,0 [B09E3107] [6F6AE5D5]
08 100,0 [89B1183C] [7A75D712]

Lou Reed - The RCA & Arista Album Collection (2016) [17CD Box Set]

Tracklist CD6 - 1975 Metal Machine Music (The Amine ß Ring):

01 Metal Machine Music, Part 1
02 Metal Machine Music, Part 2
03 Metal Machine Music, Part 3
04 Metal Machine Music, Part 4

Exact Audio Copy V1.1 from 23. June 2015

EAC extraction logfile from 25. October 2016, 20:16

Lou Reed / Metal Machine Music

Used drive : PLEXTOR BD-R PX-B950SA Adapter: 1 ID: 1

Read mode : Secure
Utilize accurate stream : Yes
Defeat audio cache : Yes
Make use of C2 pointers : No

Read offset correction : 6
Overread into Lead-In and Lead-Out : No
Fill up missing offset samples with silence : Yes
Delete leading and trailing silent blocks : No
Null samples used in CRC calculations : Yes
Used interface : Native Win32 interface for Win NT & 2000

Used output format : Internal WAV Routines
Sample format : 44.100 Hz; 16 Bit; Stereo


TOC of the extracted CD

Track | Start | Length | Start sector | End sector
––––––––––––––––––––––––––––-
1 | 0:00.00 | 16:05.52 | 0 | 72426
2 | 16:05.52 | 15:54.06 | 72427 | 143982
3 | 31:59.58 | 16:09.26 | 143983 | 216683
4 | 48:09.09 | 15:50.10 | 216684 | 287943


Range status and errors

Selected range

Filename C:\Users\Meijin\Desktop\ALLexxess\Lou Reed\2016 RCA & Arista Album Collection (17CD Box Set Sony Music)\1975 Metal Machine Music\Lou Reed - Metal Machine Music.wav

Peak level 97.3 %
Extraction speed 9.3 X
Range quality 99.9 %
Test CRC 119DD050
Copy CRC 119DD050
Copy OK

No errors occurred


AccurateRip summary

Track 1 not present in database
Track 2 not present in database
Track 3 not present in database
Track 4 not present in database

None of the tracks are present in the AccurateRip database

End of status report

–– CUETools DB Plugin V2.1.6

[CTDB TOCID: ePDIFbarf8BWTW.WQamuOp3gkEs-] found
Submit result: ePDIFbarf8BWTW.WQamuOp3gkEs- has been confirmed
Track | CTDB Status
1 | (3/3) Accurately ripped
2 | (3/3) Accurately ripped
3 | (3/3) Accurately ripped
4 | (3/3) Accurately ripped


==== Log checksum 0A6C31723AAB49133FF4505C76560AD7CCF58DED380EFF5FD35439CB9E076C1A ====


[CUETools log; Date: 02.11.2016 12:41:47; Version: 2.1.4]
[CTDB TOCID: ePDIFbarf8BWTW.WQamuOp3gkEs-] found.
Track | CTDB Status
1 | (7/7) Accurately ripped
2 | (7/7) Accurately ripped
3 | (7/7) Accurately ripped
4 | (7/7) Accurately ripped
[AccurateRip ID: 000b008e-002bfebc-390eff04] disk not present in database.

Track Peak [ CRC32 ] [W/O NULL] [ LOG ]
– 97,3 [119DD050] [486E44A8] CRC32
01 85,1 [AD7F4054] [849EA6E1]
02 69,1 [0BA2623A] [78A2E521]
03 77,3 [1C1EBBDC] [CF059181]
04 97,3 [A79038CD] [BD3FEB30]


Lou Reed - The RCA & Arista Album Collection (2016) [17CD Box Set]

Tracklist CD7 - 1975 Coney Island Baby:

01 Crazy Feeling
02 Charley's Girl
03 She's My Best Friend
04 Kicks
05 A Gift
06 Ooohhh Baby
07 Nobody's Business
08 Coney Island Baby

Exact Audio Copy V1.1 from 23. June 2015

EAC extraction logfile from 25. October 2016, 19:47

Lou Reed / Coney Island Baby

Used drive : PLEXTOR BD-R PX-B950SA Adapter: 1 ID: 1

Read mode : Secure
Utilize accurate stream : Yes
Defeat audio cache : Yes
Make use of C2 pointers : No

Read offset correction : 6
Overread into Lead-In and Lead-Out : No
Fill up missing offset samples with silence : Yes
Delete leading and trailing silent blocks : No
Null samples used in CRC calculations : Yes
Used interface : Native Win32 interface for Win NT & 2000

Used output format : Internal WAV Routines
Sample format : 44.100 Hz; 16 Bit; Stereo


TOC of the extracted CD

Track | Start | Length | Start sector | End sector
––––––––––––––––––––––––––––-
1 | 0:00.00 | 2:54.43 | 0 | 13092
2 | 2:54.43 | 2:39.07 | 13093 | 25024
3 | 5:33.50 | 5:59.68 | 25025 | 52017
4 | 11:33.43 | 6:01.54 | 52018 | 79146
5 | 17:35.22 | 3:45.12 | 79147 | 96033
6 | 21:20.34 | 3:45.50 | 96034 | 112958
7 | 25:06.09 | 3:47.53 | 112959 | 130036
8 | 28:53.62 | 6:35.17 | 130037 | 159678


Range status and errors

Selected range

Filename C:\Users\Meijin\Desktop\ALLexxess\Lou Reed\2016 RCA & Arista Album Collection (17CD Box Set Sony Music)\1975 Coney Island Baby\Lou Reed - Coney Island Baby.wav

Peak level 100.0 %
Extraction speed 6.5 X
Range quality 100.0 %
Test CRC E2CA3D33
Copy CRC E2CA3D33
Copy OK

No errors occurred


AccurateRip summary

Track 1 not present in database
Track 2 not present in database
Track 3 not present in database
Track 4 not present in database
Track 5 not present in database
Track 6 not present in database
Track 7 not present in database
Track 8 not present in database

None of the tracks are present in the AccurateRip database

End of status report

–– CUETools DB Plugin V2.1.6

[CTDB TOCID: AdzedwRcb2klRnU4oUmRjhxNm.Y-] found
Submit result: AdzedwRcb2klRnU4oUmRjhxNm.Y- has been confirmed
Track | CTDB Status
1 | (3/3) Accurately ripped
2 | (3/3) Accurately ripped
3 | (3/3) Accurately ripped
4 | (3/3) Accurately ripped
5 | (3/3) Accurately ripped
6 | (3/3) Accurately ripped
7 | (3/3) Accurately ripped
8 | (3/3) Accurately ripped


==== Log checksum 59107FC3A2026D6F4A0E248F66A184F87FD3169F15001CA6AF34394A625067AC ====


[CUETools log; Date: 02.11.2016 12:40:00; Version: 2.1.4]
[CTDB TOCID: AdzedwRcb2klRnU4oUmRjhxNm.Y-] found.
Track | CTDB Status
1 | (7/7) Accurately ripped
2 | (7/7) Accurately ripped
3 | (7/7) Accurately ripped
4 | (7/7) Accurately ripped
5 | (7/7) Accurately ripped
6 | (7/7) Accurately ripped
7 | (7/7) Accurately ripped
8 | (7/7) Accurately ripped
[AccurateRip ID: 000a3158-00456b11-67085108] disk not present in database.

Track Peak [ CRC32 ] [W/O NULL] [ LOG ]
– 100,0 [E2CA3D33] [DE9D3236] CRC32
01 99,0 [2799D4E2] [EE14B953]
02 98,7 [09B1E444] [FFDABCFA]
03 100,0 [476E9124] [B1B77ED5]
04 96,7 [3DC370AC] [11D115BE]
05 99,7 [211BC70D] [7FAE4466]
06 98,6 [96EC7198] [B5904C5A]
07 98,5 [60602544] [57DA1A0B]
08 98,4 [ABC0A4DF] [525FAE7C]

Lou Reed - The RCA & Arista Album Collection (2016) [17CD Box Set]

Tracklist CD8 - 1976 Rock And Roll Heart:

01 I Believe In Love
02 Banging On My Drum
03 Follow The Leader
04 You Wear It So Well
05 Ladies Pay
06 Rock And Roll Heart
07 Chooser And The Chosen One
08 Senselessly Cruel
09 Claim To Fame
10 Vicious Circle
11 A Sheltered Life
12 Temporary Thing

Exact Audio Copy V1.1 from 23. June 2015

EAC extraction logfile from 24. October 2016, 20:56

Lou Reed / Rock And Roll Heart

Used drive : PLEXTOR BD-R PX-B950SA Adapter: 1 ID: 1

Read mode : Secure
Utilize accurate stream : Yes
Defeat audio cache : Yes
Make use of C2 pointers : No

Read offset correction : 6
Overread into Lead-In and Lead-Out : No
Fill up missing offset samples with silence : Yes
Delete leading and trailing silent blocks : No
Null samples used in CRC calculations : Yes
Used interface : Native Win32 interface for Win NT & 2000

Used output format : Internal WAV Routines
Sample format : 44.100 Hz; 16 Bit; Stereo


TOC of the extracted CD

Track | Start | Length | Start sector | End sector
––––––––––––––––––––––––––––-
1 | 0:00.00 | 2:45.26 | 0 | 12400
2 | 2:45.26 | 2:12.09 | 12401 | 22309
3 | 4:57.35 | 2:13.18 | 22310 | 32302
4 | 7:10.53 | 4:52.21 | 32303 | 54223
5 | 12:02.74 | 4:22.40 | 54224 | 73913
6 | 16:25.39 | 3:06.12 | 73914 | 87875
7 | 19:31.51 | 2:47.52 | 87876 | 100452
8 | 22:19.28 | 2:08.11 | 100453 | 110063
9 | 24:27.39 | 2:51.43 | 110064 | 122931
10 | 27:19.07 | 2:54.13 | 122932 | 135994
11 | 30:13.20 | 2:20.17 | 135995 | 146511
12 | 32:33.37 | 5:15.29 | 146512 | 170165


Range status and errors

Selected range

Filename C:\Users\Meijin\Desktop\ALLexxess\Lou Reed\2016 RCA & Arista Album Collection (17CD Box Set Sony Music)\1976 Rock And Roll Heart\Lou Reed - Rock And Roll Heart.wav

Peak level 96.2 %
Extraction speed 6.5 X
Range quality 99.9 %
Test CRC EE7222E0
Copy CRC EE7222E0
Copy OK

No errors occurred


AccurateRip summary

Track 1 not present in database
Track 2 not present in database
Track 3 not present in database
Track 4 not present in database
Track 5 not present in database
Track 6 not present in database
Track 7 not present in database
Track 8 not present in database
Track 9 not present in database
Track 10 not present in database
Track 11 not present in database
Track 12 not present in database

None of the tracks are present in the AccurateRip database

End of status report

–– CUETools DB Plugin V2.1.6

[CTDB TOCID: AwlasIzTJH4IK2URSWGDg2BIq6E-] found
Submit result: AwlasIzTJH4IK2URSWGDg2BIq6E- has been confirmed
Track | CTDB Status
1 | (3/3) Accurately ripped
2 | (3/3) Accurately ripped
3 | (3/3) Accurately ripped
4 | (3/3) Accurately ripped
5 | (3/3) Accurately ripped
6 | (3/3) Accurately ripped
7 | (3/3) Accurately ripped
8 | (3/3) Accurately ripped
9 | (3/3) Accurately ripped
10 | (3/3) Accurately ripped
11 | (3/3) Accurately ripped
12 | (3/3) Accurately ripped


==== Log checksum AF5260DFD6C0945FF3D4E41DF0AEC193D67096649DFB04CF4CA0315826FF25BF ====


[CUETools log; Date: 02.11.2016 14:47:54; Version: 2.1.4]
[CTDB TOCID: AwlasIzTJH4IK2URSWGDg2BIq6E-] found.
Track | CTDB Status
1 | (7/7) Accurately ripped
2 | (7/7) Accurately ripped
3 | (7/7) Accurately ripped
4 | (7/7) Accurately ripped
5 | (7/7) Accurately ripped
6 | (7/7) Accurately ripped
7 | (7/7) Accurately ripped
8 | (7/7) Accurately ripped
9 | (7/7) Accurately ripped
10 | (7/7) Accurately ripped
11 | (7/7) Accurately ripped
12 | (7/7) Accurately ripped
[AccurateRip ID: 0010505e-00993480-aa08dc0c] disk not present in database.

Track Peak [ CRC32 ] [W/O NULL] [ LOG ]
– 96,2 [EE7222E0] [DC17D0EF] CRC32
01 92,4 [B3AB4B49] [C18F4F76]
02 92,5 [B72C8E26] [0859375D]
03 91,0 [DF8979E1] [E5287C3D]
04 93,7 [391DDE56] [31CF62C3]
05 94,5 [60B551D2] [E04EB314]
06 94,5 [BF4840E8] [FAF51AC5]
07 92,9 [799392AB] [5B4602A7]
08 93,3 [0AA01DD5] [7EB38424]
09 90,5 [74DF65B7] [29C3E5A9]
10 93,3 [EF6A2E58] [31943E8F]
11 93,4 [1E284F98] [2EA98127]
12 96,2 [77EF04B7] [6CE96925]


Lou Reed - The RCA & Arista Album Collection (2016) [17CD Box Set]

Tracklist CD9 - 1978 Street Hassle:

01 Gimmie Some Good Times
02 Dirt
03 Street Hassle (Waltzing Matilda / Street Hassle / Slipaway)
04 I Wanna Be Black
05 Real Good Time Together
06 Shooting Star
07 Leave Me Alone
08 Wait

Exact Audio Copy V1.1 from 23. June 2015

EAC extraction logfile from 24. October 2016, 20:32

Lou Reed / Street Hassle

Used drive : PLEXTOR BD-R PX-B950SA Adapter: 1 ID: 1

Read mode : Secure
Utilize accurate stream : Yes
Defeat audio cache : Yes
Make use of C2 pointers : No

Read offset correction : 6
Overread into Lead-In and Lead-Out : No
Fill up missing offset samples with silence : Yes
Delete leading and trailing silent blocks : No
Null samples used in CRC calculations : Yes
Used interface : Native Win32 interface for Win NT & 2000

Used output format : Internal WAV Routines
Sample format : 44.100 Hz; 16 Bit; Stereo


TOC of the extracted CD

Track | Start | Length | Start sector | End sector
––––––––––––––––––––––––––––-
1 | 0:00.00 | 3:17.05 | 0 | 14779
2 | 3:17.05 | 4:45.37 | 14780 | 36191
3 | 8:02.42 | 11:00.56 | 36192 | 85747
4 | 19:03.23 | 2:57.25 | 85748 | 99047
5 | 22:00.48 | 3:23.06 | 99048 | 114278
6 | 25:23.54 | 3:13.37 | 114279 | 128790
7 | 28:37.16 | 4:47.52 | 128791 | 150367
8 | 33:24.68 | 3:14.31 | 150368 | 164948


Range status and errors

Selected range

Filename C:\Users\Meijin\Desktop\ALLexxess\Lou Reed\2016 RCA & Arista Album Collection (17CD Box Set Sony Music)\1978 Street Hassle\Lou Reed - Street Hassle.wav

Peak level 95.9 %
Extraction speed 6.6 X
Range quality 100.0 %
Test CRC 6DB37B36
Copy CRC 6DB37B36
Copy OK

No errors occurred


AccurateRip summary

Track 1 not present in database
Track 2 not present in database
Track 3 not present in database
Track 4 not present in database
Track 5 not present in database
Track 6 not present in database
Track 7 not present in database
Track 8 not present in database

None of the tracks are present in the AccurateRip database

End of status report

–– CUETools DB Plugin V2.1.6

[CTDB TOCID: EZJ3MJdb9CrU8..tVMtVvuFlkCs-] found
Submit result: EZJ3MJdb9CrU8..tVMtVvuFlkCs- has been confirmed
Track | CTDB Status
1 | (4/4) Accurately ripped
2 | (4/4) Accurately ripped
3 | (4/4) Accurately ripped
4 | (4/4) Accurately ripped
5 | (4/4) Accurately ripped
6 | (4/4) Accurately ripped
7 | (4/4) Accurately ripped
8 | (4/4) Accurately ripped


==== Log checksum FB81BCF475BB827CC483A794DCA499B8FBC641D20B45A294937CBC00F832480F ====


[CUETools log; Date: 02.11.2016 12:50:44; Version: 2.1.4]
[CTDB TOCID: EZJ3MJdb9CrU8..tVMtVvuFlkCs-] found.
Track | CTDB Status
1 | (8/8) Accurately ripped
2 | (8/8) Accurately ripped
3 | (8/8) Accurately ripped
4 | (8/8) Accurately ripped
5 | (8/8) Accurately ripped
6 | (8/8) Accurately ripped
7 | (8/8) Accurately ripped
8 | (8/8) Accurately ripped
[AccurateRip ID: 000c1e2b-00501ff9-5f089708] disk not present in database.

Track Peak [ CRC32 ] [W/O NULL] [ LOG ]
– 95,9 [6DB37B36] [67FBE908] CRC32
01 94,1 [BCB2BEF7] [9E9B55C4]
02 94,4 [C9617512] [35FD3742]
03 93,2 [5B220A1A] [576A8D20]
04 93,5 [D87567A3] [BAE424C4]
05 95,9 [37706802] [3400E624]
06 93,8 [801114A2] [CFF04868]
07 95,5 [FE16CBD1] [916A763D]
08 94,8 [780653ED] [26493455]


Lou Reed - The RCA & Arista Album Collection (2016) [17CD Box Set]

Tracklist CD10 - 1978 Lou Reed Live - Take No Prisoners CD1:

01 Sweet Jane
02 I Wanna Be Black
03 Satellite Of Love
04 Pale Blue Eyes
05 Berlin
06 I'm Waiting For My Man

Exact Audio Copy V1.1 from 23. June 2015

EAC extraction logfile from 24. October 2016, 20:06

Lou Reed / Live: Take No Prisoners CD1

Used drive : PLEXTOR BD-R PX-B950SA Adapter: 1 ID: 1

Read mode : Secure
Utilize accurate stream : Yes
Defeat audio cache : Yes
Make use of C2 pointers : No

Read offset correction : 6
Overread into Lead-In and Lead-Out : No
Fill up missing offset samples with silence : Yes
Delete leading and trailing silent blocks : No
Null samples used in CRC calculations : Yes
Used interface : Native Win32 interface for Win NT & 2000

Used output format : Internal WAV Routines
Sample format : 44.100 Hz; 16 Bit; Stereo


TOC of the extracted CD

Track | Start | Length | Start sector | End sector
––––––––––––––––––––––––––––-
1 | 0:00.00 | 10:43.66 | 0 | 48290
2 | 10:43.66 | 6:28.43 | 48291 | 77433
3 | 17:12.34 | 7:07.26 | 77434 | 109484
4 | 24:19.60 | 7:36.55 | 109485 | 143739
5 | 31:56.40 | 6:14.24 | 143740 | 171813
6 | 38:10.64 | 13:58.54 | 171814 | 234717


Range status and errors

Selected range

Filename C:\Users\Meijin\Desktop\ALLexxess\Lou Reed\2016 RCA & Arista Album Collection (17CD Box Set Sony Music)\1978 Live Take No Prisoners 2CD\CD1\Lou Reed - Live Take No Prisoners CD1.wav

Peak level 100.0 %
Extraction speed 7.2 X
Range quality 100.0 %
Test CRC 7B5C7D18
Copy CRC 7B5C7D18
Copy OK

No errors occurred


AccurateRip summary

Track 1 not present in database
Track 2 not present in database
Track 3 not present in database
Track 4 not present in database
Track 5 not present in database
Track 6 not present in database

None of the tracks are present in the AccurateRip database

End of status report

–– CUETools DB Plugin V2.1.6

[CTDB TOCID: VejdyRsVcYvwD9ZdWDkKQm8wJq8-] found
Submit result: VejdyRsVcYvwD9ZdWDkKQm8wJq8- has been confirmed
Track | CTDB Status
1 | (4/4) Accurately ripped
2 | (4/4) Accurately ripped
3 | (4/4) Accurately ripped
4 | (4/4) Accurately ripped
5 | (4/4) Accurately ripped
6 | (4/4) Accurately ripped


==== Log checksum 9176027613EC249E349F18810D6CBB640DED529F89F8ACD713E10563A39BF9B8 ====


[CUETools log; Date: 02.11.2016 12:48:07; Version: 2.1.4]
[CTDB TOCID: VejdyRsVcYvwD9ZdWDkKQm8wJq8-] found.
Track | CTDB Status
1 | (8/8) Accurately ripped
2 | (8/8) Accurately ripped
3 | (8/8) Accurately ripped
4 | (8/8) Accurately ripped
5 | (8/8) Accurately ripped
6 | (8/8) Accurately ripped
[AccurateRip ID: 000bfc4a-003f77cb-470c3906] disk not present in database.

Track Peak [ CRC32 ] [W/O NULL] [ LOG ]
– 100,0 [7B5C7D18] [2716F686] CRC32
01 100,0 [65AB4676] [8228015A]
02 100,0 [1CCF434A] [6756B878]
03 100,0 [08D81641] [6C3D49B2]
04 100,0 [58136DCB] [317C1239]
05 100,0 [7C9AF5EC] [12352FCA]
06 100,0 [4FEB0A16] [23ACD652]


Tracklist CD11 - 1978 Lou Reed Live - Take No Prisoners CD2:

01 Coney Island Baby
02 Street Hassle
03 Walk On The Wild Side
04 Leave Me Alone

Exact Audio Copy V1.1 from 23. June 2015

EAC extraction logfile from 24. October 2016, 19:40

Lou Reed / Live: Take No Prisoners CD2

Used drive : PLEXTOR BD-R PX-B950SA Adapter: 1 ID: 1

Read mode : Secure
Utilize accurate stream : Yes
Defeat audio cache : Yes
Make use of C2 pointers : No

Read offset correction : 6
Overread into Lead-In and Lead-Out : No
Fill up missing offset samples with silence : Yes
Delete leading and trailing silent blocks : No
Null samples used in CRC calculations : Yes
Used interface : Native Win32 interface for Win NT & 2000

Used output format : Internal WAV Routines
Sample format : 44.100 Hz; 16 Bit; Stereo


TOC of the extracted CD

Track | Start | Length | Start sector | End sector
––––––––––––––––––––––––––––-
1 | 0:00.00 | 8:40.50 | 0 | 39049
2 | 8:40.50 | 13:17.02 | 39050 | 98826
3 | 21:57.52 | 16:54.63 | 98827 | 174939
4 | 38:52.40 | 7:28.34 | 174940 | 208573


Range status and errors

Selected range

Filename C:\Users\Meijin\Desktop\ALLexxess\Lou Reed\2016 RCA & Arista Album Collection (17CD Box Set Sony Music)\1978 Live Take No Prisoners 2CD\CD2\Lou Reed - Live Take No Prisoners CD2.wav

Peak level 100.0 %
Extraction speed 8.3 X
Range quality 100.0 %
Test CRC B07C8218
Copy CRC B07C8218
Copy OK

No errors occurred


AccurateRip summary

Track 1 not present in database
Track 2 not present in database
Track 3 not present in database
Track 4 not present in database

None of the tracks are present in the AccurateRip database

End of status report

–– CUETools DB Plugin V2.1.6

[CTDB TOCID: FBcTCgiEFqCHw0cGrr7LZDk0Puc-] found
Submit result: FBcTCgiEFqCHw0cGrr7LZDk0Puc- has been confirmed
Track | CTDB Status
1 | (4/4) Accurately ripped
2 | (4/4) Accurately ripped
3 | (4/4) Accurately ripped
4 | (4/4) Accurately ripped


==== Log checksum 9EB81BDE0C1F7E65EEA7BE12C74E89B67AFA2B9C950F3FDA7CFD81720838B621 ====


[CUETools log; Date: 02.11.2016 12:48:18; Version: 2.1.4]
[CTDB TOCID: FBcTCgiEFqCHw0cGrr7LZDk0Puc-] found.
Track | CTDB Status
1 | (8/8) Accurately ripped
2 | (8/8) Accurately ripped
3 | (8/8) Accurately ripped
4 | (8/8) Accurately ripped
[AccurateRip ID: 0007f4af-00204e5c-250adc04] disk not present in database.

Track Peak [ CRC32 ] [W/O NULL] [ LOG ]
– 100,0 [B07C8218] [DD261F3B] CRC32
01 95,8 [2CCE780D] [D31A0CC4]
02 100,0 [6B476170] [DE427FC4]
03 100,0 [DF59A689] [63C2B684]
04 100,0 [5262FDD3] [74592EAD]


Lou Reed - The RCA & Arista Album Collection (2016) [17CD Box Set]

Tracklist CD12 - 1979 The Bells:

01 Stupid Man
02 Disco Mystic
03 I Want To Boogie With You
04 With You
05 Looking For Love
06 City Lights
07 All Through The Night
08 Families
09 The Bells

Exact Audio Copy V1.1 from 23. June 2015

EAC extraction logfile from 24. October 2016, 19:17

Lou Reed / The Bells

Used drive : PLEXTOR BD-R PX-B950SA Adapter: 1 ID: 1

Read mode : Secure
Utilize accurate stream : Yes
Defeat audio cache : Yes
Make use of C2 pointers : No

Read offset correction : 6
Overread into Lead-In and Lead-Out : No
Fill up missing offset samples with silence : Yes
Delete leading and trailing silent blocks : No
Null samples used in CRC calculations : Yes
Used interface : Native Win32 interface for Win NT & 2000

Used output format : Internal WAV Routines
Sample format : 44.100 Hz; 16 Bit; Stereo


TOC of the extracted CD

Track | Start | Length | Start sector | End sector
––––––––––––––––––––––––––––-
1 | 0:00.00 | 2:33.42 | 0 | 11516
2 | 2:33.42 | 4:30.60 | 11517 | 31826
3 | 7:04.27 | 3:55.47 | 31827 | 49498
4 | 10:59.74 | 2:22.52 | 49499 | 60200
5 | 13:22.51 | 3:29.09 | 60201 | 75884
6 | 16:51.60 | 3:22.64 | 75885 | 91098
7 | 20:14.49 | 5:01.01 | 91099 | 113674
8 | 25:15.50 | 6:09.71 | 113675 | 141420
9 | 31:25.46 | 9:16.53 | 141421 | 183173


Range status and errors

Selected range

Filename C:\Users\Meijin\Desktop\ALLexxess\Lou Reed\2016 RCA & Arista Album Collection (17CD Box Set Sony Music)\1979 The Bells\Lou Reed - The Bells.wav

Peak level 94.0 %
Extraction speed 6.8 X
Range quality 100.0 %
Test CRC D110BD73
Copy CRC D110BD73
Copy OK

No errors occurred


AccurateRip summary

Track 1 not present in database
Track 2 not present in database
Track 3 not present in database
Track 4 not present in database
Track 5 not present in database
Track 6 not present in database
Track 7 not present in database
Track 8 not present in database
Track 9 not present in database

None of the tracks are present in the AccurateRip database

End of status report

–– CUETools DB Plugin V2.1.6

[CTDB TOCID: 77DxHvT6SE_DuaUI3qQOE2d.Dn4-] found
Submit result: 77DxHvT6SE_DuaUI3qQOE2d.Dn4- has been confirmed
Track | CTDB Status
1 | (4/4) Accurately ripped
2 | (4/4) Accurately ripped
3 | (4/4) Accurately ripped
4 | (4/4) Accurately ripped
5 | (4/4) Accurately ripped
6 | (4/4) Accurately ripped
7 | (4/4) Accurately ripped
8 | (4/4) Accurately ripped
9 | (4/4) Accurately ripped


==== Log checksum 1845F322CF6DBEC67A8F5257AC56E167BA1E902DA0A4385F98B335264C79544A ====


[CUETools log; Date: 02.11.2016 12:52:30; Version: 2.1.4]
[CTDB TOCID: 77DxHvT6SE_DuaUI3qQOE2d.Dn4-] found.
Track | CTDB Status
1 | (8/8) Accurately ripped
2 | (8/8) Accurately ripped
3 | (8/8) Accurately ripped
4 | (8/8) Accurately ripped
5 | (8/8) Accurately ripped
6 | (8/8) Accurately ripped
7 | (8/8) Accurately ripped
8 | (8/8) Accurately ripped
9 | (8/8) Accurately ripped
[AccurateRip ID: 000b921a-00575921-67098a09] disk not present in database.

Track Peak [ CRC32 ] [W/O NULL] [ LOG ]
– 94,0 [D110BD73] [57F23D39] CRC32
01 94,0 [8B142481] [E1A5F607]
02 93,7 [CEE24A4F] [DC700B3B]
03 93,6 [2AA90532] [6F915CB8]
04 93,0 [4DB5D636] [1D984116]
05 93,9 [76FA0C03] [5A620788]
06 89,8 [F1C8FD3E] [B62AEDC8]
07 93,4 [933AD8B9] [2A41B097]
08 93,1 [AE67DECA] [E9FCF1C2]
09 92,3 [07392EDF] [83FF6096]


Lou Reed - The RCA & Arista Album Collection (2016) [17CD Box Set]

Tracklist CD13 - 1980 Growing Up In Public:

01 How Do You Speak To An Angel
02 My Old Man
03 Keep Away
04 Growing Up In Public
05 Standing On Ceremony
06 So Alone
07 Love Is Here To Stay
08 The Power Of Positive Drinking
09 Smiles
10 Think It Over
11 Teach The Gifted Children

Exact Audio Copy V1.1 from 23. June 2015

EAC extraction logfile from 24. October 2016, 18:54

Lou Reed / Growing Up In Public

Used drive : PLEXTOR BD-R PX-B950SA Adapter: 1 ID: 1

Read mode : Secure
Utilize accurate stream : Yes
Defeat audio cache : Yes
Make use of C2 pointers : No

Read offset correction : 6
Overread into Lead-In and Lead-Out : No
Fill up missing offset samples with silence : Yes
Delete leading and trailing silent blocks : No
Null samples used in CRC calculations : Yes
Used interface : Native Win32 interface for Win NT & 2000

Used output format : Internal WAV Routines
Sample format : 44.100 Hz; 16 Bit; Stereo


TOC of the extracted CD

Track | Start | Length | Start sector | End sector
––––––––––––––––––––––––––––-
1 | 0:00.00 | 4:08.21 | 0 | 18620
2 | 4:08.21 | 3:14.29 | 18621 | 33199
3 | 7:22.50 | 3:33.32 | 33200 | 49206
4 | 10:56.07 | 3:02.41 | 49207 | 62897
5 | 13:58.48 | 3:31.17 | 62898 | 78739
6 | 17:29.65 | 4:11.00 | 78740 | 97564
7 | 21:40.65 | 3:11.68 | 97565 | 111957
8 | 24:52.58 | 2:15.17 | 111958 | 122099
9 | 27:08.00 | 2:44.41 | 122100 | 134440
10 | 29:52.41 | 3:26.13 | 134441 | 149903
11 | 33:18.54 | 3:22.14 | 149904 | 165067


Range status and errors

Selected range

Filename C:\Users\Meijin\Desktop\ALLexxess\Lou Reed\2016 RCA & Arista Album Collection (17CD Box Set Sony Music)\1980 Growing Up In Public\Lou Reed - Growing Up In Public.wav

Peak level 100.0 %
Extraction speed 6.5 X
Range quality 100.0 %
Test CRC F5C9F3FA
Copy CRC F5C9F3FA
Copy OK

No errors occurred


AccurateRip summary

Track 1 not present in database
Track 2 not present in database
Track 3 not present in database
Track 4 not present in database
Track 5 not present in database
Track 6 not present in database
Track 7 not present in database
Track 8 not present in database
Track 9 not present in database
Track 10 not present in database
Track 11 not present in database

None of the tracks are present in the AccurateRip database

End of status report

–– CUETools DB Plugin V2.1.6

[CTDB TOCID: yrLotm3cxlI8Be6HkVz4M2xdLPY-] found
Submit result: yrLotm3cxlI8Be6HkVz4M2xdLPY- has been confirmed
Track | CTDB Status
1 | (4/4) Accurately ripped
2 | (4/4) Accurately ripped
3 | (4/4) Accurately ripped
4 | (4/4) Accurately ripped
5 | (4/4) Accurately ripped
6 | (4/4) Accurately ripped
7 | (4/4) Accurately ripped
8 | (4/4) Accurately ripped
9 | (4/4) Accurately ripped
10 | (4/4) Accurately ripped
11 | (4/4) Accurately ripped


==== Log checksum D6804FC7934424B7E46EBAC79B49B5ADB574D25FFA3863BCC6E55C5A2F226B7E ====


[CUETools log; Date: 02.11.2016 12:54:07; Version: 2.1.4]
[CTDB TOCID: yrLotm3cxlI8Be6HkVz4M2xdLPY-] found.
Track | CTDB Status
1 | (9/9) Accurately ripped
2 | (9/9) Accurately ripped
3 | (9/9) Accurately ripped
4 | (9/9) Accurately ripped
5 | (9/9) Accurately ripped
6 | (9/9) Accurately ripped
7 | (9/9) Accurately ripped
8 | (9/9) Accurately ripped
9 | (9/9) Accurately ripped
10 | (9/9) Accurately ripped
11 | (9/9) Accurately ripped
[AccurateRip ID: 000f9ed6-0085dac2-7408980b] disk not present in database.

Track Peak [ CRC32 ] [W/O NULL] [ LOG ]
– 100,0 [F5C9F3FA] [4F7AE67F] CRC32
01 100,0 [2F03E6E5] [231D648F]
02 97,0 [237F0FBE] [9A29669C]
03 97,7 [6BA83D64] [5B21E106]
04 97,9 [2F457AB1] [EDC7E7A5]
05 97,9 [3CEC63F0] [57F9C82C]
06 99,9 [708F9DC3] [C9FE9321]
07 97,9 [CDA0F23B] [A9006A8E]
08 100,0 [A8A35201] [063E5551]
09 97,8 [ECDC66BE] [3C3ACB5E]
10 96,6 [A5726448] [F120B6AD]
11 99,1 [23DF564E] [29D58154]

Lou Reed - The RCA & Arista Album Collection (2016) [17CD Box Set]

Tracklist CD14 - 1982 The Blue Mask:

01 My House
02 Women
03 Underneath The Bottle
04 The Gun
05 The Blue Mask
06 Average Guy
07 The Heroine
08 Waves Of Fear
09 The Day John Kennedy Died
10 Heavenly Arms

Exact Audio Copy V1.1 from 23. June 2015

EAC extraction logfile from 22. October 2016, 18:59

Lou Reed / The Blue Mask

Used drive : PLEXTOR BD-R PX-B950SA Adapter: 1 ID: 1

Read mode : Secure
Utilize accurate stream : Yes
Defeat audio cache : Yes
Make use of C2 pointers : No

Read offset correction : 6
Overread into Lead-In and Lead-Out : No
Fill up missing offset samples with silence : Yes
Delete leading and trailing silent blocks : No
Null samples used in CRC calculations : Yes
Used interface : Native Win32 interface for Win NT & 2000

Used output format : Internal WAV Routines
Sample format : 44.100 Hz; 16 Bit; Stereo


TOC of the extracted CD

Track | Start | Length | Start sector | End sector
––––––––––––––––––––––––––––-
1 | 0:00.00 | 5:25.35 | 0 | 24409
2 | 5:25.35 | 4:58.05 | 24410 | 46764
3 | 10:23.40 | 2:33.49 | 46765 | 58288
4 | 12:57.14 | 3:41.12 | 58289 | 74875
5 | 16:38.26 | 5:06.32 | 74876 | 97857
6 | 21:44.58 | 3:13.21 | 97858 | 112353
7 | 24:58.04 | 3:05.43 | 112354 | 126271
8 | 28:03.47 | 4:11.02 | 126272 | 145098
9 | 32:14.49 | 4:08.28 | 145099 | 163726
10 | 36:23.02 | 4:47.47 | 163727 | 185298


Range status and errors

Selected range

Filename C:\Users\Meijin\Desktop\ALLexxess\Lou Reed\2016 RCA & Arista Album Collection (17CD Box Set Sony Music)\1982 The Blue Mask\Lou Reed - The Blue Mask.wav

Peak level 97.0 %
Extraction speed 6.7 X
Range quality 100.0 %
Test CRC 4739CD7B
Copy CRC 4739CD7B
Copy OK

No errors occurred


AccurateRip summary

Track 1 not present in database
Track 2 not present in database
Track 3 not present in database
Track 4 not present in database
Track 5 not present in database
Track 6 not present in database
Track 7 not present in database
Track 8 not present in database
Track 9 not present in database
Track 10 not present in database

None of the tracks are present in the AccurateRip database

End of status report

–– CUETools DB Plugin V2.1.6

[CTDB TOCID: w.mKYBVrryqiXB9E8XWYh4RRcPo-] found
Submit result: w.mKYBVrryqiXB9E8XWYh4RRcPo- has been confirmed
Track | CTDB Status
1 | (4/4) Accurately ripped
2 | (4/4) Accurately ripped
3 | (4/4) Accurately ripped
4 | (4/4) Accurately ripped
5 | (4/4) Accurately ripped
6 | (4/4) Accurately ripped
7 | (4/4) Accurately ripped
8 | (4/4) Accurately ripped
9 | (4/4) Accurately ripped
10 | (4/4) Accurately ripped


==== Log checksum AD6C6E11E9E0EE54C1C3284A4985619EE8F23228F595F3DFF3EF30BBDE73DA83 ====


[CUETools log; Date: 02.11.2016 12:56:00; Version: 2.1.4]
[CTDB TOCID: w.mKYBVrryqiXB9E8XWYh4RRcPo-] found.
Track | CTDB Status
1 | (9/9) Accurately ripped
2 | (9/9) Accurately ripped
3 | (9/9) Accurately ripped
4 | (9/9) Accurately ripped
5 | (9/9) Accurately ripped
6 | (9/9) Accurately ripped
7 | (9/9) Accurately ripped
8 | (9/9) Accurately ripped
9 | (9/9) Accurately ripped
10 | (9/9) Accurately ripped
[AccurateRip ID: 000fcac5-007c8a70-7a09a60a] disk not present in database.

Track Peak [ CRC32 ] [W/O NULL] [ LOG ]
– 97,0 [4739CD7B] [0CB4C5DA] CRC32
01 95,2 [5A97FC1D] [C0B1FDA3]
02 95,9 [688FEBAC] [F2299FF9]
03 96,7 [A501B603] [83D379D8]
04 92,8 [146A2271] [8F91D35D]
05 94,8 [84207A17] [DD30DBC6]
06 94,6 [78306DC3] [F6E5B598]
07 65,3 [334197E5] [BDAA2445]
08 97,0 [5CD6E700] [38507061]
09 95,1 [D13D82E4] [A1BA224A]
10 95,4 [83606687] [84639737]

Lou Reed - The RCA & Arista Album Collection (2016) [17CD Box Set]

Tracklist CD15 - 1983 Legendary Hearts:

01 Legendary Hearts
02 Don't Talk To Me About Work
03 Make Up My Mind
04 Martial Law
05 The Last Shot
06 Turn Out The Light
07 Pow Wow
08 Betrayed
09 Bottoming Out
10 Home Of The Brave
11 Rooftop Garden

Exact Audio Copy V1.1 from 23. June 2015

EAC extraction logfile from 22. October 2016, 18:37

Lou Reed / Legendary Hearts

Used drive : PLEXTOR BD-R PX-B950SA Adapter: 1 ID: 1

Read mode : Secure
Utilize accurate stream : Yes
Defeat audio cache : Yes
Make use of C2 pointers : No

Read offset correction : 6
Overread into Lead-In and Lead-Out : No
Fill up missing offset samples with silence : Yes
Delete leading and trailing silent blocks : No
Null samples used in CRC calculations : Yes
Used interface : Native Win32 interface for Win NT & 2000

Used output format : Internal WAV Routines
Sample format : 44.100 Hz; 16 Bit; Stereo


TOC of the extracted CD

Track | Start | Length | Start sector | End sector
––––––––––––––––––––––––––––-
1 | 0:00.00 | 3:28.53 | 0 | 15652
2 | 3:28.53 | 2:11.51 | 15653 | 25528
3 | 5:40.29 | 2:55.09 | 25529 | 38662
4 | 8:35.38 | 3:56.22 | 38663 | 56384
5 | 12:31.60 | 3:23.54 | 56385 | 71663
6 | 15:55.39 | 2:51.22 | 71664 | 84510
7 | 18:46.61 | 2:32.40 | 84511 | 95950
8 | 21:19.26 | 3:12.61 | 95951 | 110411
9 | 24:32.12 | 3:43.39 | 110412 | 127175
10 | 28:15.51 | 6:54.28 | 127176 | 158253
11 | 35:10.04 | 3:06.21 | 158254 | 172224


Range status and errors

Selected range

Filename C:\Users\Meijin\Desktop\ALLexxess\Lou Reed\2016 RCA & Arista Album Collection (17CD Box Set Sony Music)\1983 Legendary Hearts\Lou Reed - Legendary Hearts.wav

Peak level 100.0 %
Extraction speed 6.5 X
Range quality 100.0 %
Test CRC 00059D4C
Copy CRC 00059D4C
Copy OK

No errors occurred


AccurateRip summary

Track 1 not present in database
Track 2 not present in database
Track 3 not present in database
Track 4 not present in database
Track 5 not present in database
Track 6 not present in database
Track 7 not present in database
Track 8 not present in database
Track 9 not present in database
Track 10 not present in database
Track 11 not present in database

None of the tracks are present in the AccurateRip database

End of status report

–– CUETools DB Plugin V2.1.6

[CTDB TOCID: F3JtmkX.Pfv9ZmruhgiwiTM2ecs-] found
Submit result: F3JtmkX.Pfv9ZmruhgiwiTM2ecs- has been confirmed
Track | CTDB Status
1 | (4/4) Accurately ripped
2 | (4/4) Accurately ripped
3 | (4/4) Accurately ripped
4 | (4/4) Accurately ripped
5 | (4/4) Accurately ripped
6 | (4/4) Accurately ripped
7 | (4/4) Accurately ripped
8 | (4/4) Accurately ripped
9 | (4/4) Accurately ripped
10 | (4/4) Accurately ripped
11 | (4/4) Accurately ripped


==== Log checksum 6F63EC8BDA178592B2C766863C934C8A52CD358B5ADF1EE9596FFC9EF1541294 ====


[CUETools log; Date: 02.11.2016 12:57:45; Version: 2.1.4]
[CTDB TOCID: F3JtmkX.Pfv9ZmruhgiwiTM2ecs-] found.
Track | CTDB Status
1 | (9/9) Accurately ripped
2 | (9/9) Accurately ripped
3 | (9/9) Accurately ripped
4 | (9/9) Accurately ripped
5 | (9/9) Accurately ripped
6 | (9/9) Accurately ripped
7 | (9/9) Accurately ripped
8 | (9/9) Accurately ripped
9 | (9/9) Accurately ripped
10 | (9/9) Accurately ripped
11 | (9/9) Accurately ripped
[AccurateRip ID: 000e9807-0080464a-8408f80b] disk not present in database.

Track Peak [ CRC32 ] [W/O NULL] [ LOG ]
– 100,0 [00059D4C] [83BD2010] CRC32
01 100,0 [857DBFCC] [BA98CD86]
02 99,6 [73E754FC] [637C079E]
03 97,8 [ACA9C6FD] [034DA80E]
04 99,4 [31A99C59] [5DDE4BA7]
05 96,0 [433D0570] [1A94D14C]
06 95,9 [5975D00D] [64E85675]
07 100,0 [D34B3B91] [F9D08065]
08 98,4 [6C2A5D10] [0D7D027D]
09 98,3 [F5933842] [878D0077]
10 96,4 [2EC26888] [32F9DF95]
11 98,0 [CB706267] [D00DD5F1]


Lou Reed - The RCA & Arista Album Collection (2016) [17CD Box Set]

Tracklist CD16 - 1984 New Sensations

01 I Love You, Suzanne
02 Endlessly Jealous
03 My Red Joystick
04 Turn To Me
05 New Sensations
06 Doin' The Things That We Want To
07 What Becomes A Legend Most
08 Fly Into The Sun
09 My Friend George
10 High In The City
11 Down At The Arcade

Exact Audio Copy V1.1 from 23. June 2015

EAC extraction logfile from 22. October 2016, 18:14

Lou Reed / New Sensations

Used drive : PLEXTOR BD-R PX-B950SA Adapter: 1 ID: 1

Read mode : Secure
Utilize accurate stream : Yes
Defeat audio cache : Yes
Make use of C2 pointers : No

Read offset correction : 6
Overread into Lead-In and Lead-Out : No
Fill up missing offset samples with silence : Yes
Delete leading and trailing silent blocks : No
Null samples used in CRC calculations : Yes
Used interface : Native Win32 interface for Win NT & 2000

Used output format : Internal WAV Routines
Sample format : 44.100 Hz; 16 Bit; Stereo


TOC of the extracted CD

Track | Start | Length | Start sector | End sector
––––––––––––––––––––––––––––-
1 | 0:00.00 | 3:17.53 | 0 | 14827
2 | 3:17.53 | 3:58.44 | 14828 | 32721
3 | 7:16.22 | 3:36.16 | 32722 | 48937
4 | 10:52.38 | 4:23.50 | 48938 | 68712
5 | 15:16.13 | 5:48.71 | 68713 | 94883
6 | 21:05.09 | 3:56.41 | 94884 | 112624
7 | 25:01.50 | 3:39.10 | 112625 | 129059
8 | 28:40.60 | 3:08.35 | 129060 | 143194
9 | 31:49.20 | 3:58.01 | 143195 | 161045
10 | 35:47.21 | 3:28.17 | 161046 | 176662
11 | 39:15.38 | 3:41.74 | 176663 | 193311


Range status and errors

Selected range

Filename C:\Users\Meijin\Desktop\ALLexxess\Lou Reed\2016 RCA & Arista Album Collection (17CD Box Set Sony Music)\1984 New Sensations\Lou Reed - New Sensations.wav

Peak level 97.1 %
Extraction speed 6.7 X
Range quality 100.0 %
Test CRC 8A041F7C
Copy CRC 8A041F7C
Copy OK

No errors occurred


AccurateRip summary

Track 1 not present in database
Track 2 not present in database
Track 3 not present in database
Track 4 not present in database
Track 5 not present in database
Track 6 not present in database
Track 7 not present in database
Track 8 not present in database
Track 9 not present in database
Track 10 not present in database
Track 11 not present in database

None of the tracks are present in the AccurateRip database

End of status report

–– CUETools DB Plugin V2.1.6

[CTDB TOCID: 35VR1jNdBroD.k8TYGGUXYWg4lM-] found
Submit result: 35VR1jNdBroD.k8TYGGUXYWg4lM- has been confirmed
Track | CTDB Status
1 | (4/4) Accurately ripped
2 | (4/4) Accurately ripped
3 | (4/4) Accurately ripped
4 | (4/4) Accurately ripped
5 | (4/4) Accurately ripped
6 | (4/4) Accurately ripped
7 | (4/4) Accurately ripped
8 | (4/4) Accurately ripped
9 | (4/4) Accurately ripped
10 | (4/4) Accurately ripped
11 | (4/4) Accurately ripped


==== Log checksum 79B9996FC91DF0A5CD7A0C136DC7D4078D26EEC6D8260B5E26D9D195E23D899E ====


[CUETools log; Date: 02.11.2016 12:59:41; Version: 2.1.4]
[CTDB TOCID: 35VR1jNdBroD.k8TYGGUXYWg4lM-] found.
Track | CTDB Status
1 | (9/9) Accurately ripped
2 | (9/9) Accurately ripped
3 | (9/9) Accurately ripped
4 | (9/9) Accurately ripped
5 | (9/9) Accurately ripped
6 | (9/9) Accurately ripped
7 | (9/9) Accurately ripped
8 | (9/9) Accurately ripped
9 | (9/9) Accurately ripped
10 | (9/9) Accurately ripped
11 | (9/9) Accurately ripped
[AccurateRip ID: 0011f1b2-009bf01f-970a110b] disk not present in database.

Track Peak [ CRC32 ] [W/O NULL] [ LOG ]
– 97,1 [8A041F7C] [018113B5] CRC32
01 93,4 [0E7F3A4B] [75DEB5FA]
02 97,1 [87A1069A] [32A70EDB]
03 95,3 [4EA055DF] [0D7B4D45]
04 96,0 [EB02BAAC] [67407E64]
05 95,7 [56A6A505] [950E2ADD]
06 96,1 [7F98D329] [08A1EDAB]
07 92,0 [6946DCAD] [FD027FF9]
08 94,9 [740441EE] [489C230D]
09 94,1 [18FFF0DF] [D25CE528]
10 94,6 [ECB1C417] [45BA3A82]
11 96,4 [D15CF32A] [E8FB3C52]


Lou Reed - The RCA & Arista Album Collection (2016) [17CD Box Set]

Tracklist CD17 - 1986 Mistrial:

01 Mistrial
02 No Money Down
03 Outside
04 Don't Hurt A Woman
05 Video Violence
06 Spit It Out
07 The Original Wrapper
08 Mama's Got A Lover
09 I Remember You
10 Tell It To Your Heart

Exact Audio Copy V1.1 from 23. June 2015

EAC extraction logfile from 22. October 2016, 17:49

Lou Reed / Mistrial

Used drive : PLEXTOR BD-R PX-B950SA Adapter: 1 ID: 1

Read mode : Secure
Utilize accurate stream : Yes
Defeat audio cache : Yes
Make use of C2 pointers : No

Read offset correction : 6
Overread into Lead-In and Lead-Out : No
Fill up missing offset samples with silence : Yes
Delete leading and trailing silent blocks : No
Null samples used in CRC calculations : Yes
Used interface : Native Win32 interface for Win NT & 2000

Used output format : Internal WAV Routines
Sample format : 44.100 Hz; 16 Bit; Stereo


TOC of the extracted CD

Track | Start | Length | Start sector | End sector
––––––––––––––––––––––––––––-
1 | 0:00.00 | 3:20.71 | 0 | 15070
2 | 3:20.71 | 3:11.20 | 15071 | 29415
3 | 6:32.16 | 3:03.02 | 29416 | 43142
4 | 9:35.18 | 3:59.39 | 43143 | 61106
5 | 13:34.57 | 5:36.04 | 61107 | 86310
6 | 19:10.61 | 3:41.51 | 86311 | 102936
7 | 22:52.37 | 3:41.00 | 102937 | 119511
8 | 26:33.37 | 4:14.53 | 119512 | 138614
9 | 30:48.15 | 3:14.21 | 138615 | 153185
10 | 34:02.36 | 5:12.66 | 153186 | 176651


Range status and errors

Selected range

Filename C:\Users\Meijin\Desktop\ALLexxess\Lou Reed\2016 RCA & Arista Album Collection (17CD Box Set Sony Music)\1986 Mistrial\Lou Reed - Mistrial.wav

Peak level 99.2 %
Extraction speed 6.7 X
Range quality 100.0 %
Test CRC 7B806993
Copy CRC 7B806993
Copy OK

No errors occurred


AccurateRip summary

Track 1 not present in database
Track 2 not present in database
Track 3 not present in database
Track 4 not present in database
Track 5 not present in database
Track 6 not present in database
Track 7 not present in database
Track 8 not present in database
Track 9 not present in database
Track 10 not present in database

None of the tracks are present in the AccurateRip database

End of status report

–– CUETools DB Plugin V2.1.6

[CTDB TOCID: Gw1LM8sXzEV7u_yOy9U387UOnOw-] found
Submit result: Gw1LM8sXzEV7u_yOy9U387UOnOw- has been confirmed
Track | CTDB Status
1 | (4/4) Accurately ripped
2 | (4/4) Accurately ripped
3 | (4/4) Accurately ripped
4 | (4/4) Accurately ripped
5 | (4/4) Accurately ripped
6 | (4/4) Accurately ripped
7 | (4/4) Accurately ripped
8 | (4/4) Accurately ripped
9 | (4/4) Accurately ripped
10 | (4/4) Accurately ripped


==== Log checksum 13B89328E4E3E12225899EAD39E8E3B2AF8C10E9258B96E692FE09791BBB5240 ====


[CUETools log; Date: 02.11.2016 13:01:47; Version: 2.1.4]
[CTDB TOCID: Gw1LM8sXzEV7u_yOy9U387UOnOw-] found.
Track | CTDB Status
1 | (9/9) Accurately ripped
2 | (9/9) Accurately ripped
3 | (9/9) Accurately ripped
4 | (9/9) Accurately ripped
5 | (9/9) Accurately ripped
6 | (9/9) Accurately ripped
7 | (9/9) Accurately ripped
8 | (9/9) Accurately ripped
9 | (9/9) Accurately ripped
10 | (9/9) Accurately ripped
[AccurateRip ID: 000e20fe-0072a5f2-7c09330a] disk not present in database.

Track Peak [ CRC32 ] [W/O NULL] [ LOG ]
– 99,2 [7B806993] [2F8301DE] CRC32
01 99,1 [1976E7E8] [1B583203]
02 96,1 [E06D2017] [9ED5739A]
03 96,6 [799CE058] [0332EA5A]
04 96,1 [17182677] [4C05C904]
05 96,3 [F69819FE] [335C51E2]
06 95,6 [1470940A] [14DCCF4C]
07 99,2 [C57E3007] [91CD6E4B]
08 96,8 [AD92C9D9] [190FE539]
09 97,1 [9A9138B8] [52E32DB4]
10 97,2 [286374A7] [F42F456A]


Lou Reed - The RCA & Arista Album Collection (2016) [17CD Box Set]

All thanks go to ALLexxess

Lou Reed in my Blog

Download Lou Reed - The RCA & Arista Album Collection (2016):