Tags
Language
Tags
July 2024
Su Mo Tu We Th Fr Sa
30 1 2 3 4 5 6
7 8 9 10 11 12 13
14 15 16 17 18 19 20
21 22 23 24 25 26 27
28 29 30 31 1 2 3

VA - Now 12” 80s: 1982 Part One (2024)

Posted By: Rtax
VA - Now 12” 80s: 1982 Part One (2024)

VA - Now 12” 80s: 1982 Part One (2024)
EAC Rip | FLAC (tracks, cue, log) - 2.3 GB | MP3 CBR 320 kbps - 764 MB
5:15:33 | Ballad, Boogie, Calypso, Dance-pop, Dancehall, Disco, Dub, Funk, Hi NRG, Hip Hop, Indie Rock, New Wave, P.Funk, Pop Rock, Post-Punk, Reggae-Pop, Soul, Synth-pop, Vocal | Label: Sony Music / EMI

NOW Music are excited to present the next instalment of the ‘NOW 12” 80s’ series – NOW 12” 80s: 1982 – Part One – Out January 19th!Across 4 CDs, 48 extended, full-length or remixed versions reflecting the shift from Disco being the dominant genre in the Chart, to it being enriched with the developing Synth-Pop and New-Wave sounds of the New Romantics. Despite this sonic shift, the 12” single played an even more vital role than it had done with Funk and Disco, providing fans with more time on club dancefloors and more room for artist and producer experimentation. This edition of 12” 80s presents part one of 1982 – such massive year for Pop that we had to split this year into two parts to present all of the essential tracks.

Disc one showcases some of the bands who were at the forefront of this culture shift, including Duran Duran, Spandau Ballet and Visage – all having fantastic years with their albums ‘Rio’, ‘Diamond’ and ‘The Anvil’ respectively, plus huge tracks from The Human League with ‘Mirror Man’, Japan with ‘Life In Tokyo’, Gary Numan’s ‘Music For Chameleons’ and ‘Pale Shelter’ from Tears For Fears, all in their extended and remixed versions.

CD2 presents the best of 82 Disco-Pop from Carly Simon with her Nile Rodgers and Bernard Edwards produced hit ‘Why’, plus Electro from Rockers Revenge feat. Donnie Calvin with ‘Walking On Sunshine’, and George Clinton’s ‘Loopzilla’. Culture Club had a fantastic year in 1982 with the release of their debut album ‘Kissing To Be Clever’ from which ‘I’m Afraid Of Me’ was the second single, and Bananarama enjoyed early success with their hit single ‘Shy Boy’. This disc closes with Pop classics from The Belle Stars with ‘The Clapping Song’, and the #1 ‘My Camera Never Lies’ from Bucks Fizz.

Disco, Funk and Soul lead the way on CD3, featuring massive floor-fillers from Shalamar with ‘A Night To Remember’, ‘Can’t Take My Eyes Off You’ from The Boys Town Gang and an extended remix of ‘Do You Wanna Funk’ from Patrick Cowley feat. Sylvester, plus the smash ‘Just An Illusion’ from Imagination in its 12” version. Latin-tinged Pop from Modern Romance, Funk and Soul infuences from Spandau Ballet, Daryl Hall & John Oates with the extended club mix of ‘I Can't Go For That (No Can Do)’, and the Pure Pop of Haircut 100 complete this disc.

CD4 rounds off this track list with Alternative/Indie Rock favourites, from New Order, Associates, Siouxsie And The Banshees and The Cure, and there’s still room for Synth driven smashes from Simple Minds with the German 12” Remix of ‘New Gold Dream (81/82/83/84)’ and A Flock Of Seagulls with ‘Wishing (If I Had A Photograph of You)’, plus huge tracks from Trio and a second appearance for Visage, before finishing this stellar collection with Thomas Dolby, and Soft Cell.

NOW 12” 80s: 1982 – Part 1.. an extended celebration of the magic of 1980s Pop – Stay tuned for Part Two!

Tracklist
Disc: 1
1 The Human League - Mirror Man (Extended Version)
2 Duran Duran - Rio (Part II)
3 Spandau Ballet - Instinction (Remix)
4 ABC - The Look Of Love, Pt.1 (12" Special Remix)
5 Soft Cell - What! (Extended Version / 12" Edit)
6 Visage - The Damned Don't Cry (Dance Mix)
7 Ultravox – Reap The Wild Wind (Extended Version)
8 Japan - Life In Tokyo (1982 12" Extended Remix)
9 Gary Numan - Music For Chameleons (Extended Version)
10 Blancmange - Living On The Ceiling (Extended version)
11 Thompson Twins – Lies (Bigger & Better)
12 Talk Talk - Talk Talk (Extended Mix)
13 Tears For Fears - Pale Shelter (Long Version)
Disc: 2
1 Carly Simon – Why (Full Length Version)
2 Rockers Revenge feat. Donnie Calvin - Walking On Sunshine (12" Version)
3 George Clinton - Loopzilla (Full Length Version)
4 Bohannon feat. Dr. Perri Johnson - Let’s Start II Dance Again (Full Length Album Version)
5 Haysi Fantayzee - John Wayne Is Big Leggy (Groovy Long Version)
6 Bow Wow Wow - Go Wild In The Country (12" Version)
7 Culture Club - I'm Afraid Of Me (Extended Mix)
8 Altered Images - See Those Eyes (12" Version)
9 Bananarama - Shy Boy (Extended Version)
10 The Maisonettes – Heartache Avenue (12” Version)
11 The Belle Stars – The Clapping Song (Extended 12” Mix)
12 Bucks Fizz - My Camera Never Lies (Extended 12" Version)
Disc: 3
1 Shalamar - A Night To Remember (12” Mix)
2 Donna Summer – Love Is In Control (Finger On The Trigger) (Dance Remix)
3 The Boys Town Gang - Can’t Take My Eyes Off You (Extended Version)
4 Patrick Cowley feat. Sylvester - Do You Wanna Funk (Remix)
5 Divine - Native Love (Step By Step) (Extended Version)
6 Odyssey - Inside Out (12" Version)
7 Imagination - Just An Illusion (12” Version)
8 Modern Romance - Best Years of Our Lives (Midnight Mix)
9 Spandau Ballet - Coffee Club (Remix)
10 Daryl Hall & John Oates - I Can't Go For That (No Can Do) (Extended Club Mix)
11 Musical Youth - Pass The Dutchie (12" Version)
12 Haircut 100 - Fantastic Day (12" Version)
Disc: 4
1 New Order - Temptation (12" Version)
2 Associates - Club Country (12” Version)
3 Siouxsie And The Banshees - Fireworks (12" Version)
4 The Cure - Let's Go To Bed (Extended Mix 1982)
5 Fun Boy Three feat. Bananarama – T’Aint What You Do…. / Just Do It (Extended Version)
6 Trio - Da Da Da I Don't Love You You Don't Love Me Aha Aha Aha (Long Version)
7 Visage - The Anvil (Dance Mix)
8 Simple Minds - New Gold Dream (81/82/83/84) (German 12'' Remix)
9 A Flock Of Seagulls - Wishing (If I Had A Photograph of You) (Extended Version)
10 Thomas Dolby - Windpower (High Powered Extended Play)
11 Soft Cell - Where The Heart Is (12" Version)
Exact Audio Copy V1.6 from 23. October 2020

EAC extraction logfile from 11. February 2024, 17:33

Various Artists / Now 12” 80s 1982 Part One

Used drive : PLEXTOR PX-891SAF PLUS Adapter: 1 ID: 0

Read mode : Secure
Utilize accurate stream : Yes
Defeat audio cache : Yes
Make use of C2 pointers : No

Read offset correction : 6
Overread into Lead-In and Lead-Out : No
Fill up missing offset samples with silence : Yes
Delete leading and trailing silent blocks : No
Null samples used in CRC calculations : Yes
Used interface : Native Win32 interface for Win NT & 2000
Gap handling : Appended to previous track

Used output format : User Defined Encoder
Selected bitrate : 1024 kBit/s
Quality : High
Add ID3 tag : No
Command line compressor : C:\Program Files (x86)\Exact Audio Copy\Flac\flac.exe
Additional command line options : -0 -V -T "ARTIST=%artist%" -T "TITLE=%title%" -T "ALBUM=%albumtitle%" -T "DATE=%year%" -T "TRACKNUMBER=%tracknr%" -T "TOTALTRACKS=%numtracks%" -T "GENRE=%genre%" -T "COMMENT=%comment%" %source%


TOC of the extracted CD

Track | Start | Length | Start sector | End sector
––––––––––––––––––––––––––––-
1 | 0:00.00 | 4:22.31 | 0 | 19680
2 | 4:22.31 | 5:29.58 | 19681 | 44413
3 | 9:52.14 | 6:57.06 | 44414 | 75694
4 | 16:49.20 | 7:38.32 | 75695 | 110076
5 | 24:27.52 | 6:08.42 | 110077 | 137718
6 | 30:36.19 | 5:41.48 | 137719 | 163341
7 | 36:17.67 | 4:45.20 | 163342 | 184736
8 | 41:03.12 | 7:05.52 | 184737 | 216663
9 | 48:08.64 | 6:57.43 | 216664 | 247981
10 | 55:06.32 | 5:38.27 | 247982 | 273358
11 | 60:44.59 | 6:36.09 | 273359 | 303067
12 | 67:20.68 | 4:32.57 | 303068 | 323524
13 | 71:53.50 | 7:05.05 | 323525 | 355404


Track 1

Filename E:\Releases\VA - Now 12” 80s 1982 Part One (4 CD 2024)[FLAC]\CD 1\01 - The Human League - Mirror Man (Extended Version).wav

Pre-gap length 0:00:02.00

Peak level 85.1 %
Extraction speed 2.2 X
Track quality 100.0 %
Test CRC 8F32EF38
Copy CRC 8F32EF38
Accurately ripped (confidence 7) [C40C9EB3] (AR v2)
Copy OK

Track 2

Filename E:\Releases\VA - Now 12” 80s 1982 Part One (4 CD 2024)[FLAC]\CD 1\02 - Duran Duran - Rio (Part II).wav

Peak level 86.6 %
Extraction speed 2.5 X
Track quality 100.0 %
Test CRC 006A8730
Copy CRC 006A8730
Accurately ripped (confidence 7) [3461E888] (AR v2)
Copy OK

Track 3

Filename E:\Releases\VA - Now 12” 80s 1982 Part One (4 CD 2024)[FLAC]\CD 1\03 - Spandau Ballet - Instinction (Remix).wav

Peak level 87.0 %
Extraction speed 2.8 X
Track quality 100.0 %
Test CRC FA091D3F
Copy CRC FA091D3F
Accurately ripped (confidence 7) [53205876] (AR v2)
Copy OK

Track 4

Filename E:\Releases\VA - Now 12” 80s 1982 Part One (4 CD 2024)[FLAC]\CD 1\04 - ABC - The Look Of Love, Pt.1 (12'' Special Remix).wav

Peak level 97.7 %
Extraction speed 3.1 X
Track quality 100.0 %
Test CRC DF26139C
Copy CRC DF26139C
Accurately ripped (confidence 7) [6C759917] (AR v2)
Copy OK

Track 5

Filename E:\Releases\VA - Now 12” 80s 1982 Part One (4 CD 2024)[FLAC]\CD 1\05 - Soft Cell - What! (Extended Version - 12'' Edit).wav

Peak level 97.7 %
Extraction speed 3.3 X
Track quality 100.0 %
Test CRC CEF645B9
Copy CRC CEF645B9
Accurately ripped (confidence 7) [00E07422] (AR v2)
Copy OK

Track 6

Filename E:\Releases\VA - Now 12” 80s 1982 Part One (4 CD 2024)[FLAC]\CD 1\06 - Visage - The Damned Don't Cry (Dance Mix).wav

Peak level 77.6 %
Extraction speed 2.8 X
Track quality 99.9 %
Test CRC 3B17FB51
Copy CRC 3B17FB51
Accurately ripped (confidence 7) [ED5D2AB6] (AR v2)
Copy OK

Track 7

Filename E:\Releases\VA - Now 12” 80s 1982 Part One (4 CD 2024)[FLAC]\CD 1\07 - Ultravox - Reap The Wild Wind (Extended Version).wav

Peak level 97.7 %
Extraction speed 3.6 X
Track quality 100.0 %
Test CRC 38650452
Copy CRC 38650452
Accurately ripped (confidence 7) [9D625B60] (AR v2)
Copy OK

Track 8

Filename E:\Releases\VA - Now 12” 80s 1982 Part One (4 CD 2024)[FLAC]\CD 1\08 - Japan - Life In Tokyo (1982 12'' Extended Remix).wav

Peak level 97.7 %
Extraction speed 3.9 X
Track quality 100.0 %
Test CRC 922109B4
Copy CRC 922109B4
Accurately ripped (confidence 7) [3FB843CE] (AR v2)
Copy OK

Track 9

Filename E:\Releases\VA - Now 12” 80s 1982 Part One (4 CD 2024)[FLAC]\CD 1\09 - Gary Numan - Music For Chameleons (Extended Version).wav

Peak level 97.7 %
Extraction speed 4.1 X
Track quality 100.0 %
Test CRC F607A1C2
Copy CRC F607A1C2
Accurately ripped (confidence 7) [3E89BF29] (AR v2)
Copy OK

Track 10

Filename E:\Releases\VA - Now 12” 80s 1982 Part One (4 CD 2024)[FLAC]\CD 1\10 - Blancmange - Living On The Ceiling (Extended Version).wav

Peak level 97.7 %
Extraction speed 4.2 X
Track quality 100.0 %
Test CRC DCD5133E
Copy CRC DCD5133E
Accurately ripped (confidence 7) [333E745B] (AR v2)
Copy OK

Track 11

Filename E:\Releases\VA - Now 12” 80s 1982 Part One (4 CD 2024)[FLAC]\CD 1\11 - Thompson Twins - Lies (Bigger & Better).wav

Peak level 87.4 %
Extraction speed 4.5 X
Track quality 100.0 %
Test CRC 45A0D4A3
Copy CRC 45A0D4A3
Accurately ripped (confidence 7) [00B3D17F] (AR v2)
Copy OK

Track 12

Filename E:\Releases\VA - Now 12” 80s 1982 Part One (4 CD 2024)[FLAC]\CD 1\12 - Talk Talk - Talk Talk (Extended Mix).wav

Peak level 97.7 %
Extraction speed 4.4 X
Track quality 100.0 %
Test CRC C5BC44A2
Copy CRC C5BC44A2
Accurately ripped (confidence 7) [4B2375AE] (AR v2)
Copy OK

Track 13

Filename E:\Releases\VA - Now 12” 80s 1982 Part One (4 CD 2024)[FLAC]\CD 1\13 - Tears for Fears - Pale Shelter (Long Version).wav

Peak level 97.7 %
Extraction speed 4.7 X
Track quality 100.0 %
Test CRC 0BD45674
Copy CRC 0BD45674
Accurately ripped (confidence 7) [9C1E2CCD] (AR v2)
Copy OK


All tracks accurately ripped

No errors occurred

End of status report

==== Log checksum 7A4F88A651A090E8EADCBC6116681A4CC501DF2A0C67F5902886D8483769F510 ====


Exact Audio Copy V1.6 from 23. October 2020

EAC extraction logfile from 11. February 2024, 18:59

Various Artists / Now 12” 80s 1982 Part One

Used drive : PLEXTOR PX-891SAF PLUS Adapter: 1 ID: 0

Read mode : Secure
Utilize accurate stream : Yes
Defeat audio cache : Yes
Make use of C2 pointers : No

Read offset correction : 6
Overread into Lead-In and Lead-Out : No
Fill up missing offset samples with silence : Yes
Delete leading and trailing silent blocks : No
Null samples used in CRC calculations : Yes
Used interface : Native Win32 interface for Win NT & 2000
Gap handling : Appended to previous track

Used output format : User Defined Encoder
Selected bitrate : 1024 kBit/s
Quality : High
Add ID3 tag : No
Command line compressor : C:\Program Files (x86)\Exact Audio Copy\Flac\flac.exe
Additional command line options : -0 -V -T "ARTIST=%artist%" -T "TITLE=%title%" -T "ALBUM=%albumtitle%" -T "DATE=%year%" -T "TRACKNUMBER=%tracknr%" -T "TOTALTRACKS=%numtracks%" -T "GENRE=%genre%" -T "COMMENT=%comment%" %source%


TOC of the extracted CD

Track | Start | Length | Start sector | End sector
––––––––––––––––––––––––––––-
1 | 0:00.00 | 8:11.33 | 0 | 36857
2 | 8:11.33 | 9:34.43 | 36858 | 79950
3 | 17:46.01 | 8:47.17 | 79951 | 119492
4 | 26:33.18 | 7:37.33 | 119493 | 153800
5 | 34:10.51 | 6:55.45 | 153801 | 184970
6 | 41:06.21 | 5:20.42 | 184971 | 209012
7 | 46:26.63 | 7:19.30 | 209013 | 241967
8 | 53:46.18 | 5:32.20 | 241968 | 266887
9 | 59:18.38 | 5:50.63 | 266888 | 293200
10 | 65:09.26 | 4:04.38 | 293201 | 311538
11 | 69:13.64 | 5:16.71 | 311539 | 335309
12 | 74:30.60 | 4:52.51 | 335310 | 357260


Track 1

Filename E:\Releases\VA - Now 12” 80s 1982 Part One (4 CD 2024)[FLAC]\CD 2\01 - Carly Simon - Why (Full Length Version).wav

Pre-gap length 0:00:02.00

Peak level 83.4 %
Extraction speed 2.4 X
Track quality 100.0 %
Test CRC 8BBC3BAE
Copy CRC 8BBC3BAE
Accurately ripped (confidence 5) [D939BCDB] (AR v2)
Copy OK

Track 2

Filename E:\Releases\VA - Now 12” 80s 1982 Part One (4 CD 2024)[FLAC]\CD 2\02 - Rockers Revenge Feat. Donnie Calvin - Walking On Sunshine (12'' Version).wav

Peak level 97.7 %
Extraction speed 2.9 X
Track quality 100.0 %
Test CRC FCBED635
Copy CRC FCBED635
Accurately ripped (confidence 5) [E619770B] (AR v2)
Copy OK

Track 3

Filename E:\Releases\VA - Now 12” 80s 1982 Part One (4 CD 2024)[FLAC]\CD 2\03 - George Clinton - Loopzilla (Full Length Version).wav

Peak level 97.7 %
Extraction speed 2.8 X
Track quality 99.9 %
Test CRC E95FA2F1
Copy CRC E95FA2F1
Accurately ripped (confidence 5) [A357CA94] (AR v2)
Copy OK

Track 4

Filename E:\Releases\VA - Now 12” 80s 1982 Part One (4 CD 2024)[FLAC]\CD 2\04 - Bohannon Feat. Dr. Perri Johnson - Let’s Start II Dance Again (Full Length Album Version).wav

Peak level 81.4 %
Extraction speed 3.5 X
Track quality 100.0 %
Test CRC 6B0C7E66
Copy CRC 6B0C7E66
Accurately ripped (confidence 5) [C7C802A6] (AR v2)
Copy OK

Track 5

Filename E:\Releases\VA - Now 12” 80s 1982 Part One (4 CD 2024)[FLAC]\CD 2\05 - Haysi Fantayzee - John Wayne Is Big Leggy (Groovy Long Version).wav

Peak level 84.3 %
Extraction speed 3.7 X
Track quality 100.0 %
Test CRC 5D5C8C56
Copy CRC 5D5C8C56
Accurately ripped (confidence 5) [C8B66D10] (AR v2)
Copy OK

Track 6

Filename E:\Releases\VA - Now 12” 80s 1982 Part One (4 CD 2024)[FLAC]\CD 2\06 - Bow Wow Wow - Go Wild In The Country (12'' Version).wav

Peak level 97.7 %
Extraction speed 3.8 X
Track quality 100.0 %
Test CRC 7281B14C
Copy CRC 7281B14C
Accurately ripped (confidence 5) [E36C7C5E] (AR v2)
Copy OK

Track 7

Filename E:\Releases\VA - Now 12” 80s 1982 Part One (4 CD 2024)[FLAC]\CD 2\07 - Culture Club - I'm Afraid Of Me (Extended Mix).wav

Peak level 81.8 %
Extraction speed 4.1 X
Track quality 100.0 %
Test CRC 81A13FB7
Copy CRC 81A13FB7
Accurately ripped (confidence 5) [440BB686] (AR v2)
Copy OK

Track 8

Filename E:\Releases\VA - Now 12” 80s 1982 Part One (4 CD 2024)[FLAC]\CD 2\08 - Altered Images - See Those Eyes (12'' Version).wav

Peak level 86.0 %
Extraction speed 4.2 X
Track quality 100.0 %
Test CRC B77F2B17
Copy CRC B77F2B17
Accurately ripped (confidence 5) [9C78A1AA] (AR v2)
Copy OK

Track 9

Filename E:\Releases\VA - Now 12” 80s 1982 Part One (4 CD 2024)[FLAC]\CD 2\09 - Bananarama - Shy Boy (Extended Version).wav

Peak level 92.8 %
Extraction speed 4.3 X
Track quality 100.0 %
Test CRC 92586B88
Copy CRC 92586B88
Accurately ripped (confidence 5) [6CDDCBBC] (AR v2)
Copy OK

Track 10

Filename E:\Releases\VA - Now 12” 80s 1982 Part One (4 CD 2024)[FLAC]\CD 2\10 - The Maisonettes - Heartache Avenue (12” Version).wav

Peak level 97.7 %
Extraction speed 4.2 X
Track quality 100.0 %
Test CRC BCEA77EA
Copy CRC BCEA77EA
Accurately ripped (confidence 5) [B363C3F9] (AR v2)
Copy OK

Track 11

Filename E:\Releases\VA - Now 12” 80s 1982 Part One (4 CD 2024)[FLAC]\CD 2\11 - The Belle Stars - The Clapping Song (Extended 12” Mix).wav

Peak level 75.3 %
Extraction speed 4.5 X
Track quality 100.0 %
Test CRC EF3B691B
Copy CRC EF3B691B
Accurately ripped (confidence 5) [B4887776] (AR v2)
Copy OK

Track 12

Filename E:\Releases\VA - Now 12” 80s 1982 Part One (4 CD 2024)[FLAC]\CD 2\12 - Bucks Fizz - My Camera Never Lies (Extended 12'' Version).wav

Peak level 97.7 %
Extraction speed 4.6 X
Track quality 100.0 %
Test CRC 8211DB6F
Copy CRC 8211DB6F
Accurately ripped (confidence 5) [7AB2F65D] (AR v2)
Copy OK


All tracks accurately ripped

No errors occurred

End of status report

==== Log checksum C4F813028FE44BC0E2D9CDD2FBCCEE2F05F34508A471B4A22A0E7B700E933448 ====


Exact Audio Copy V1.6 from 23. October 2020

EAC extraction logfile from 11. February 2024, 21:23

Various Artists / Now 12” 80s 1982 Part One

Used drive : PLEXTOR PX-891SAF PLUS Adapter: 1 ID: 0

Read mode : Secure
Utilize accurate stream : Yes
Defeat audio cache : Yes
Make use of C2 pointers : No

Read offset correction : 6
Overread into Lead-In and Lead-Out : No
Fill up missing offset samples with silence : Yes
Delete leading and trailing silent blocks : No
Null samples used in CRC calculations : Yes
Used interface : Native Win32 interface for Win NT & 2000
Gap handling : Appended to previous track

Used output format : User Defined Encoder
Selected bitrate : 1024 kBit/s
Quality : High
Add ID3 tag : No
Command line compressor : C:\Program Files (x86)\Exact Audio Copy\Flac\flac.exe
Additional command line options : -0 -V -T "ARTIST=%artist%" -T "TITLE=%title%" -T "ALBUM=%albumtitle%" -T "DATE=%year%" -T "TRACKNUMBER=%tracknr%" -T "TOTALTRACKS=%numtracks%" -T "GENRE=%genre%" -T "COMMENT=%comment%" %source%


TOC of the extracted CD

Track | Start | Length | Start sector | End sector
––––––––––––––––––––––––––––-
1 | 0:00.00 | 8:52.53 | 0 | 39952
2 | 8:52.53 | 6:56.07 | 39953 | 71159
3 | 15:48.60 | 4:31.07 | 71160 | 91491
4 | 20:19.67 | 7:44.54 | 91492 | 126345
5 | 28:04.46 | 5:49.22 | 126346 | 152542
6 | 33:53.68 | 6:35.45 | 152543 | 182212
7 | 40:29.38 | 6:13.30 | 182213 | 210217
8 | 46:42.68 | 6:50.73 | 210218 | 241040
9 | 53:33.66 | 9:35.67 | 241041 | 284232
10 | 63:09.58 | 5:57.67 | 284233 | 311074
11 | 69:07.50 | 9:43.30 | 311075 | 354829


Track 1

Filename E:\Releases\VA - Now 12” 80s 1982 Part One (4 CD 2024)[FLAC]\CD 4\01 - New Order - Temptation (12'' Version).wav

Pre-gap length 0:00:02.00

Peak level 97.7 %
Extraction speed 2.4 X
Track quality 100.0 %
Test CRC B40A8869
Copy CRC B40A8869
Accurately ripped (confidence 5) [8CCBE4D5] (AR v2)
Copy OK

Track 2

Filename E:\Releases\VA - Now 12” 80s 1982 Part One (4 CD 2024)[FLAC]\CD 4\02 - The Associates - Club Country (12” Version).wav

Peak level 82.1 %
Extraction speed 2.8 X
Track quality 100.0 %
Test CRC 24FCF025
Copy CRC 24FCF025
Accurately ripped (confidence 5) [3604C512] (AR v2)
Copy OK

Track 3

Filename E:\Releases\VA - Now 12” 80s 1982 Part One (4 CD 2024)[FLAC]\CD 4\03 - Siouxsie And The Banshees - Fireworks (12'' Version).wav

Peak level 97.7 %
Extraction speed 2.9 X
Track quality 100.0 %
Test CRC C49039F5
Copy CRC C49039F5
Accurately ripped (confidence 5) [C14E1A57] (AR v2)
Copy OK

Track 4

Filename E:\Releases\VA - Now 12” 80s 1982 Part One (4 CD 2024)[FLAC]\CD 4\04 - The Cure - Let's Go To Bed (Extended Mix 1982).wav

Peak level 97.7 %
Extraction speed 3.3 X
Track quality 100.0 %
Test CRC D5145195
Copy CRC D5145195
Accurately ripped (confidence 5) [E6EBA9A6] (AR v2)
Copy OK

Track 5

Filename E:\Releases\VA - Now 12” 80s 1982 Part One (4 CD 2024)[FLAC]\CD 4\05 - Fun Boy Three Feat. Bananarama - T’Aint What You Do…. - Just Do It (Extended Version).wav

Peak level 92.3 %
Extraction speed 3.4 X
Track quality 100.0 %
Test CRC EE97B28E
Copy CRC EE97B28E
Accurately ripped (confidence 5) [D4AD5501] (AR v2)
Copy OK

Track 6

Filename E:\Releases\VA - Now 12” 80s 1982 Part One (4 CD 2024)[FLAC]\CD 4\06 - Trio - Da Da Da I Don't Love You You Don't Love Me Aha Aha Aha (Long Version).wav

Peak level 90.4 %
Extraction speed 3.7 X
Track quality 100.0 %
Test CRC 151107DC
Copy CRC 151107DC
Accurately ripped (confidence 5) [852817D0] (AR v2)
Copy OK

Track 7

Filename E:\Releases\VA - Now 12” 80s 1982 Part One (4 CD 2024)[FLAC]\CD 4\07 - Visage - The Anvil (Dance Mix).wav

Peak level 97.7 %
Extraction speed 3.8 X
Track quality 100.0 %
Test CRC 0D9953E4
Copy CRC 0D9953E4
Accurately ripped (confidence 5) [B64D11C4] (AR v2)
Copy OK

Track 8

Filename E:\Releases\VA - Now 12” 80s 1982 Part One (4 CD 2024)[FLAC]\CD 4\08 - Simple Minds - New Gold Dream (81-82-83-84) (German 12'' Remix).wav

Peak level 97.4 %
Extraction speed 4.1 X
Track quality 100.0 %
Test CRC 6DF2BF6C
Copy CRC 6DF2BF6C
Accurately ripped (confidence 5) [DBFDCFEC] (AR v2)
Copy OK

Track 9

Filename E:\Releases\VA - Now 12” 80s 1982 Part One (4 CD 2024)[FLAC]\CD 4\09 - A Flock Of Seagulls - Wishing (If I Had A Photograph Of You) (Extended Version).wav

Peak level 97.7 %
Extraction speed 4.4 X
Track quality 100.0 %
Test CRC 1A0FDCAF
Copy CRC 1A0FDCAF
Accurately ripped (confidence 5) [4FBB3EC4] (AR v2)
Copy OK

Track 10

Filename E:\Releases\VA - Now 12” 80s 1982 Part One (4 CD 2024)[FLAC]\CD 4\10 - Thomas Dolby - Windpower (High Powered Extended Play).wav

Peak level 97.7 %
Extraction speed 3.5 X
Track quality 99.9 %
Test CRC 2E49FD52
Copy CRC 2E49FD52
Accurately ripped (confidence 5) [A9C7DE9F] (AR v2)
Copy OK

Track 11

Filename E:\Releases\VA - Now 12” 80s 1982 Part One (4 CD 2024)[FLAC]\CD 4\11 - Soft Cell - Where The Heart Is (12'' Version).wav

Peak level 97.7 %
Extraction speed 4.8 X
Track quality 100.0 %
Test CRC 548CC69F
Copy CRC 548CC69F
Accurately ripped (confidence 4) [B00CC259] (AR v2)
Copy OK


All tracks accurately ripped

No errors occurred

End of status report

==== Log checksum BA1EB41C623731128E216BC563A9753E3DE9FA3E3A776EF664ECFF7C3A1A6F46 ====