Subcategories

VA - The Long Versions: New Wave (2005) 3CD Box Set

Posted By: Designol
VA - The Long Versions: New Wave (2005) 3CD Box Set

VA - The Long Versions: New Wave (2005) 3CD Box Set
EAC | FLAC | Image (Cue&Log) ~ 1.15 Gb | Mp3 (CBR320) ~ 413 Mb | Scans ~ 47 Mb
New Wave, Synthpop, Pop/Rock, Electronic | Label: Disky | # CB 902713 | 03:00:36

Fantastic 3CD box set with some of the greatest and long sought New Wave classics in their extended maximum versions. Filled with essentials from Spandau Ballet, Simple Minds, Talking Heads, The Blue Nile, Talk Talk, Kajagoogoo, Duran Duran, Power Station, Men Without Hats, The Human League, Rain Tree Crow, Scritti Politti, OMD, Living In A Box and many more.

The Disky label has brought us great multi-disk sets with long versions of 80s songs, but they always have some issues, including wrong mixes or too many unfamiliar tracks or short songs on a CD that is marketed as long versions. They also reuse a lot of the same songs that have appeared on other compilations. All that applies to this set, and there are also some tunes that aren't the most new wave sounding tracks. But it still has a great deal of excellent sound quality 12" versions on CD.

Review by Daniel W. Kelly, Amazon.com

Tracklist:

CD1:

01. Spandau Ballet - Gold (07:15)
02. Blue Nile - Tinseltown in the rain (05:55)
03. Heaven 17 - Temptation (06:52)
04. It's Immaterial - Driving away from home (Jim's tune) (03:51)
05. It Bites - Calling all the hearoes (05:30)
06. Killing Joke - Love like blood (06:44.00]
07. Spear Of Destiny - Never take me alive (04:16)
08. Pete Wylie - Sinful (07:56)
09. Floy Joy - Weak in the presence of beauty (05:15)
10. Talking Heads - Slippery people (04:12)

CD2:

01. Talk Talk - Such A Shame (07:00)
02. Culture Club - Karma Chameleon (04:10)
03. EMF - Unbelievable (06:30)
04. Kajagoogoo - Too Shy (05:28)
05. Living In A Box - Living In A Box (06:08)
06. O.M.D. - La Femme Accident (06:17)
07. Ultravox - Dancing With Tears In My Eyes (09:59)
08. Stephen "Tin Tin" Duffy - Kiss Me (07:28)
09. Scritti Politti - Wood Beez (Pray Like Aretha Franklin) (05:58)
10. Blondie - Call Me (08:02)

CD3:

01. Simple Minds - Promised You A Miracle (06:02)
02. Duran Duran - Notorious (05:17)
03. Power Station - Some Like It Hot (06:39)
04. Thomas Dolby - Hyperactive (05:07)
05. Men Without Hats - Safety Dance (04:34)
06. Human League - Hard Times - Love Action (05:13)
07. Billy Idol - White Wedding -Parts 1 & 2 (08:22)
08. Talk Talk - Dum Dum Girl (05:23)
09. China Crisis - Wishful Thinking (04:38)
10. Rain Tree Crow - Blackwater (04:20)


Exact Audio Copy V1.3 from 2. September 2016

Отчёт EAC об извлечении, выполненном 2. апреля 2018, 10:50

VA / The Long Versions - New Wave CD1

Дисковод: PLEXTOR DVDR PX-712A Adapter: 8 ID: 0

Режим чтения : Достоверность
Использование точного потока : Да
Отключение кэша аудио : Да
Использование указателей C2 : Нет

Коррекция смещения при чтении : 30
Способность читать области Lead-in и Lead-out : Нет
Заполнение пропущенных сэмплов тишиной : Да
Удаление блоков с тишиной в начале и конце : Нет
При вычислениях CRC использовались нулевые сэмплы : Да
Интерфейс : Установленный внешний ASPI-интерфейс

Выходной формат : Пользовательский кодировщик
Выбранный битрейт : 128 kBit/s
Качество : Высокий
Добавление ID3-тега : Нет
Утилита сжатия : C:\Program Files\Exact Audio Copy\FLAC\FLAC.EXE
Дополнительные параметры : -V -8 -T "Genre=%genre%" -T "Artist=%artist%" -T "Title=%title%" -T "Album=%albumtitle%" -T "Date=%year%" -T "Tracknumber=%tracknr%" -T "Comment=%comment%" %source%


TOC извлечённого CD

Трек | Старт | Длительность | Начальный сектор | Конечный сектор
––––––––––––––––––––––––––––––––––-
1 | 0:00.00 | 7:15.70 | 0 | 32694
2 | 7:15.70 | 5:55.00 | 32695 | 59319
3 | 13:10.70 | 6:52.00 | 59320 | 90219
4 | 20:02.70 | 3:51.00 | 90220 | 107544
5 | 23:53.70 | 5:30.00 | 107545 | 132294
6 | 29:23.70 | 6:44.00 | 132295 | 162594
7 | 36:07.70 | 4:16.00 | 162595 | 181794
8 | 40:23.70 | 7:56.74 | 181795 | 217568
9 | 48:20.69 | 5:15.35 | 217569 | 241228
10 | 53:36.29 | 4:12.56 | 241229 | 260184


Характеристики диапазона извлечения и сообщения об ошибках

Выбранный диапазон

Имя файла I:\MOI_RAZDACI\VA_The Long Versions - New Wave 2005\VA_The.Long.Versions_New.Wave_2005\CD-1\VA - The Long Versions - New Wave CD1.wav

Пиковый уровень 79.8 %
Скорость извлечения 12.8 X
Качество диапазона 100.0 %
CRC теста 814EB215
CRC копии 814EB215
Копирование… OK

Ошибок не произошло


AccurateRip: сводка

Трек 1 : извлечено точно (доверие 2) [D98F2C44] (AR v2)
Трек 2 : извлечено точно (доверие 2) [3102A6F4] (AR v2)
Трек 3 : извлечено точно (доверие 2) [4B0B92D2] (AR v2)
Трек 4 : извлечено точно (доверие 2) [03B7E274] (AR v2)
Трек 5 : извлечено точно (доверие 2) [82DD3B48] (AR v2)
Трек 6 : извлечено точно (доверие 2) [04560203] (AR v2)
Трек 7 : извлечено точно (доверие 2) [45F0854D] (AR v2)
Трек 8 : извлечено точно (доверие 2) [05F4E309] (AR v2)
Трек 9 : извлечено точно (доверие 2) [80546253] (AR v2)
Трек 10 : извлечено точно (доверие 2) [D77F45EE] (AR v2)

Все треки извлечены точно

Конец отчёта

–– CUETools DB Plugin V2.1.6

[CTDB TOCID: dEigbc9ZHXmMa0adshm3HtAXoRI-] found
Submit result: already submitted
Track | CTDB Status
1 | (7/7) Accurately ripped
2 | (7/7) Accurately ripped
3 | (7/7) Accurately ripped
4 | (7/7) Accurately ripped
5 | (7/7) Accurately ripped
6 | (7/7) Accurately ripped
7 | (7/7) Accurately ripped
8 | (7/7) Accurately ripped
9 | (7/7) Accurately ripped
10 | (7/7) Accurately ripped


==== Контрольная сумма отчёта 7D6BC586778B2E00EE719BEECD448988592C83749C6343C3DFA5E6EF441D2B04 ====

[CUETools log; Date: 05.04.2018 21:44:47; Version: 2.1.4]
[CTDB TOCID: dEigbc9ZHXmMa0adshm3HtAXoRI-] found.
Track | CTDB Status
1 | (7/7) Accurately ripped
2 | (7/7) Accurately ripped
3 | (7/7) Accurately ripped
4 | (7/7) Accurately ripped
5 | (7/7) Accurately ripped
6 | (7/7) Accurately ripped
7 | (7/7) Accurately ripped
8 | (7/7) Accurately ripped
9 | (7/7) Accurately ripped
10 | (7/7) Accurately ripped
[AccurateRip ID: 0016aa88-00b37439-830d8d0a] found.
Track [ CRC | V2 ] Status
01 [bad2c895|d98f2c44] (5+2/7) Accurately ripped
02 [7039fb49|3102a6f4] (5+2/7) Accurately ripped
03 [3aa39145|4b0b92d2] (5+2/7) Accurately ripped
04 [d2ce20aa|03b7e274] (5+2/7) Accurately ripped
05 [f6aa575f|82dd3b48] (5+2/7) Accurately ripped
06 [e4095f2d|04560203] (5+2/7) Accurately ripped
07 [d0c7d532|45f0854d] (5+2/7) Accurately ripped
08 [2ac93b01|05f4e309] (5+2/7) Accurately ripped
09 [ed3f0d6b|80546253] (5+2/7) Accurately ripped
10 [e51f2774|d77f45ee] (5+2/7) Accurately ripped

Track Peak [ CRC32 ] [W/O NULL] [ LOG ]
– 79,8 [814EB215] [83B8B31F] CRC32
01 79,8 [ABE7B16B] [E5EE6DC3]
02 79,3 [A76BC54D] [C9C849C1]
03 69,8 [47F7B3FB] [060069AB]
04 75,3 [5C5A461A] [A81DFEAC]
05 79,3 [0848721E] [643B97A2]
06 75,3 [F4776148] [124481D4]
07 57,6 [28FD5E9E] [05849BFB]
08 77,3 [B63437F5] [5CFB67D1]
09 77,6 [898C8F8E] [863B6572]
10 71,6 [E2075EC1] [9ACBCF50]

foobar2000 1.2 / Dynamic Range Meter 1.1.1
log date: 2018-04-05 19:54:15

––––––––––––––––––––––––––––––––––––––––
Analyzed: Blue Nile / The Long Versions - New Wave CD1 (1)
Floy Joy / The Long Versions - New Wave CD1 (2)
––––––––––––––––––––––––––––––––––––––––

DR Peak RMS Duration Track
––––––––––––––––––––––––––––––––––––––––
DR9 -2.01 dB -12.42 dB 5:55 02-Tinseltown in the rain
DR10 -2.19 dB -13.58 dB 5:15 09-Weak in the presence of beauty
––––––––––––––––––––––––––––––––––––––––

Number of tracks: 2
Official DR value: DR9

Samplerate: 44100 Hz
Channels: 2
Bits per sample: 16
Bitrate: 935 kbps
Codec: FLAC
================================================================================

––––––––––––––––––––––––––––––––––––––––
Analyzed: Heaven 17 / The Long Versions - New Wave CD1 (1)
It Bites / The Long Versions - New Wave CD1 (2)
––––––––––––––––––––––––––––––––––––––––

DR Peak RMS Duration Track
––––––––––––––––––––––––––––––––––––––––
DR10 -3.12 dB -14.09 dB 6:52 03-Temptation
DR11 -2.01 dB -14.28 dB 5:30 05-Calling all the hearoes
––––––––––––––––––––––––––––––––––––––––

Number of tracks: 2
Official DR value: DR10

Samplerate: 44100 Hz
Channels: 2
Bits per sample: 16
Bitrate: 935 kbps
Codec: FLAC
================================================================================

––––––––––––––––––––––––––––––––––––––––
Analyzed: It's Immaterial / The Long Versions - New Wave CD1 (1)
Killing Joke / The Long Versions - New Wave CD1 (2)
Pete Wylie / The Long Versions - New Wave CD1 (3)
––––––––––––––––––––––––––––––––––––––––

DR Peak RMS Duration Track
––––––––––––––––––––––––––––––––––––––––
DR10 -2.46 dB -13.46 dB 3:51 04-Driving away from home (Jim's tune)
DR9 -2.46 dB -12.40 dB 6:44 06-Love like blood
DR10 -2.23 dB -14.38 dB 7:57 08-Sinful
––––––––––––––––––––––––––––––––––––––––

Number of tracks: 3
Official DR value: DR10

Samplerate: 44100 Hz
Channels: 2
Bits per sample: 16
Bitrate: 935 kbps
Codec: FLAC
================================================================================

––––––––––––––––––––––––––––––––––––––––
Analyzed: Spandau Ballet / The Long Versions - New Wave CD1 (1)
Spear Of Destiny / The Long Versions - New Wave CD1 (2)
Talking Heads / The Long Versions - New Wave CD1 (3)
––––––––––––––––––––––––––––––––––––––––

DR Peak RMS Duration Track
––––––––––––––––––––––––––––––––––––––––
DR9 -1.95 dB -12.57 dB 7:16 01-Gold
DR7 -4.79 dB -14.21 dB 4:16 07-Never take me alive
DR10 -2.89 dB -14.40 dB 4:13 10-Slippery people
––––––––––––––––––––––––––––––––––––––––

Number of tracks: 3
Official DR value: DR9

Samplerate: 44100 Hz
Channels: 2
Bits per sample: 16
Bitrate: 935 kbps
Codec: FLAC
================================================================================


Exact Audio Copy V1.3 from 2. September 2016

Отчёт EAC об извлечении, выполненном 2. апреля 2018, 11:08

VA / The Long Versions - New Wave CD2

Дисковод: PLEXTOR DVDR PX-712A Adapter: 8 ID: 0

Режим чтения : Достоверность
Использование точного потока : Да
Отключение кэша аудио : Да
Использование указателей C2 : Нет

Коррекция смещения при чтении : 30
Способность читать области Lead-in и Lead-out : Нет
Заполнение пропущенных сэмплов тишиной : Да
Удаление блоков с тишиной в начале и конце : Нет
При вычислениях CRC использовались нулевые сэмплы : Да
Интерфейс : Установленный внешний ASPI-интерфейс

Выходной формат : Пользовательский кодировщик
Выбранный битрейт : 128 kBit/s
Качество : Высокий
Добавление ID3-тега : Нет
Утилита сжатия : C:\Program Files\Exact Audio Copy\FLAC\FLAC.EXE
Дополнительные параметры : -V -8 -T "Genre=%genre%" -T "Artist=%artist%" -T "Title=%title%" -T "Album=%albumtitle%" -T "Date=%year%" -T "Tracknumber=%tracknr%" -T "Comment=%comment%" %source%


TOC извлечённого CD

Трек | Старт | Длительность | Начальный сектор | Конечный сектор
––––––––––––––––––––––––––––––––––-
1 | 0:00.00 | 7:00.70 | 0 | 31569
2 | 7:00.70 | 4:10.10 | 31570 | 50329
3 | 11:11.05 | 6:30.71 | 50330 | 79650
4 | 17:42.01 | 5:28.31 | 79651 | 104281
5 | 23:10.32 | 6:08.74 | 104282 | 131955
6 | 29:19.31 | 6:17.07 | 131956 | 160237
7 | 35:36.38 | 9:59.74 | 160238 | 205236
8 | 45:36.37 | 7:28.65 | 205237 | 238901
9 | 53:05.27 | 5:58.01 | 238902 | 265752
10 | 59:03.28 | 8:02.57 | 265753 | 301959


Характеристики диапазона извлечения и сообщения об ошибках

Выбранный диапазон

Имя файла I:\MOI_RAZDACI\VA_The Long Versions - New Wave 2005\VA_The.Long.Versions_New.Wave_2005\CD-2\VA - The Long Versions - New Wave CD2.wav

Пиковый уровень 78.1 %
Скорость извлечения 10.5 X
Качество диапазона 99.9 %
CRC теста 22FBC58F
CRC копии 22FBC58F
Копирование… OK

Ошибок не произошло


AccurateRip: сводка

Трек 1 : извлечено точно (доверие 2) [7DAF4468] (AR v2)
Трек 2 : извлечено точно (доверие 2) [B623CA49] (AR v2)
Трек 3 : извлечено точно (доверие 2) [59F073CF] (AR v2)
Трек 4 : извлечено точно (доверие 2) [F8BCF2D4] (AR v2)
Трек 5 : извлечено точно (доверие 2) [891A1527] (AR v2)
Трек 6 : извлечено точно (доверие 2) [D3866EBE] (AR v2)
Трек 7 : извлечено точно (доверие 2) [CD557841] (AR v2)
Трек 8 : извлечено точно (доверие 2) [EA5483DD] (AR v2)
Трек 9 : извлечено точно (доверие 2) [687329B5] (AR v2)
Трек 10 : извлечено точно (доверие 2) [0AF285D5] (AR v2)

Все треки извлечены точно

Конец отчёта

–– CUETools DB Plugin V2.1.6

[CTDB TOCID: jpwOXkMu3jTGvwxYj4RX.UsGcRs-] found
Submit result: jpwOXkMu3jTGvwxYj4RX.UsGcRs- has been confirmed
Track | CTDB Status
1 | (6/6) Accurately ripped
2 | (6/6) Accurately ripped
3 | (6/6) Accurately ripped
4 | (6/6) Accurately ripped
5 | (6/6) Accurately ripped
6 | (6/6) Accurately ripped
7 | (6/6) Accurately ripped
8 | (6/6) Accurately ripped
9 | (6/6) Accurately ripped
10 | (6/6) Accurately ripped


==== Контрольная сумма отчёта E56FB46D0AA9108D97EA81A039D173F17B33783A0F89DF64097D2D601A5692F2 ====

[CUETools log; Date: 05.04.2018 21:45:28; Version: 2.1.4]
[CTDB TOCID: jpwOXkMu3jTGvwxYj4RX.UsGcRs-] found.
Track | CTDB Status
1 | (7/7) Accurately ripped
2 | (7/7) Accurately ripped
3 | (7/7) Accurately ripped
4 | (7/7) Accurately ripped
5 | (7/7) Accurately ripped
6 | (7/7) Accurately ripped
7 | (7/7) Accurately ripped
8 | (7/7) Accurately ripped
9 | (7/7) Accurately ripped
10 | (7/7) Accurately ripped
[AccurateRip ID: 0017f457-00c2605b-890fba0a] found.
Track [ CRC | V2 ] Status
01 [0b408cf8|7daf4468] (5+2/7) Accurately ripped
02 [1aceed8e|b623ca49] (5+2/7) Accurately ripped
03 [fcf259d3|59f073cf] (5+2/7) Accurately ripped
04 [10a763b6|f8bcf2d4] (5+2/7) Accurately ripped
05 [1465f968|891a1527] (5+2/7) Accurately ripped
06 [55f4dff0|d3866ebe] (5+2/7) Accurately ripped
07 [65e51ced|cd557841] (5+2/7) Accurately ripped
08 [89e68b7e|ea5483dd] (5+2/7) Accurately ripped
09 [fc898b47|687329b5] (5+2/7) Accurately ripped
10 [6167cab9|0af285d5] (5+2/7) Accurately ripped

Track Peak [ CRC32 ] [W/O NULL] [ LOG ]
– 78,1 [22FBC58F] [01967844] CRC32
01 78,0 [E5317F51] [9924B3D6]
02 67,1 [F9DF5974] [2387B120]
03 74,9 [55F91833] [23EE1DC3]
04 75,0 [4BF28924] [B4BE8DEE]
05 69,4 [C8B13CF2] [C284D8B9]
06 78,0 [F12668B9] [116F5BF8]
07 69,7 [C3DC1D0E] [EADABF9D]
08 78,1 [25B9E563] [095160A7]
09 77,3 [72979073] [EED4664F]
10 72,9 [348FD250] [515C0B9F]

foobar2000 1.2 / Dynamic Range Meter 1.1.1
log date: 2018-04-05 19:55:43

––––––––––––––––––––––––––––––––––––––––
Analyzed: Culture Club / The Long Versions - New Wave CD2 (1)
EMF / The Long Versions - New Wave CD2 (2)
Kajagoogoo / The Long Versions - New Wave CD2 (3)
Living In A Box / The Long Versions - New Wave CD2 (4)
O.M.D. / The Long Versions - New Wave CD2 (5)
Scritti Politti / The Long Versions - New Wave CD2 (6)
––––––––––––––––––––––––––––––––––––––––

DR Peak RMS Duration Track
––––––––––––––––––––––––––––––––––––––––
DR7 -3.46 dB -12.08 dB 4:10 02-Karma Chameleon
DR8 -2.50 dB -12.17 dB 6:31 03-Unbelievable
DR9 -2.49 dB -13.98 dB 5:28 04-Too Shy
DR8 -3.17 dB -13.13 dB 6:09 05-Living In A Box
DR10 -2.15 dB -13.14 dB 6:17 06-La Femme Accident
DR12 -2.23 dB -16.10 dB 5:58 09-Wood Beez (Pray Like Aretha Franklin)
––––––––––––––––––––––––––––––––––––––––

Number of tracks: 6
Official DR value: DR9

Samplerate: 44100 Hz
Channels: 2
Bits per sample: 16
Bitrate: 919 kbps
Codec: FLAC
================================================================================

––––––––––––––––––––––––––––––––––––––––
Statistics for: 08-Kiss Me
Number of samples: 19795020
Duration: 7:29
––––––––––––––––––––––––––––––––––––––––

Left Right

Peak Value: -2.14 dB –- -2.65 dB
Avg RMS: -12.42 dB –- -14.91 dB
DR channel: 8.83 dB –- 10.93 dB
––––––––––––––––––––––––––––––––––––––––

Official DR Value: DR10

Samplerate: 44100 Hz
Channels: 2
Bits per sample: 16
Bitrate: 919 kbps
Codec: FLAC
================================================================================
––––––––––––––––––––––––––––––––––––––––
Analyzed: Talk Talk / The Long Versions - New Wave CD2 (1)
Ultravox / The Long Versions - New Wave CD2 (2)
––––––––––––––––––––––––––––––––––––––––

DR Peak RMS Duration Track
––––––––––––––––––––––––––––––––––––––––
DR9 -2.16 dB -14.42 dB 7:01 01-Such A Shame
DR9 -3.13 dB -13.95 dB 10:00 07-Dancing With Tears In My Eyes
––––––––––––––––––––––––––––––––––––––––

Number of tracks: 2
Official DR value: DR9

Samplerate: 44100 Hz
Channels: 2
Bits per sample: 16
Bitrate: 919 kbps
Codec: FLAC
================================================================================

foobar2000 1.2 / Dynamic Range Meter 1.1.1
log date: 2018-04-05 19:55:23

––––––––––––––––––––––––––––––––––––––––
Statistics for: 10-Call Me
Number of samples: 21289716
Duration: 8:03
––––––––––––––––––––––––––––––––––––––––

Left Right

Peak Value: -2.74 dB –- -2.83 dB
Avg RMS: -11.77 dB –- -13.70 dB
DR channel: 8.01 dB –- 9.79 dB
––––––––––––––––––––––––––––––––––––––––

Official DR Value: DR9

Samplerate: 44100 Hz
Channels: 2
Bits per sample: 16
Bitrate: 919 kbps
Codec: FLAC
================================================================================


Exact Audio Copy V1.3 from 2. September 2016

Отчёт EAC об извлечении, выполненном 2. апреля 2018, 11:25

VA / The Long Versions - New Wave CD3

Дисковод: PLEXTOR DVDR PX-712A Adapter: 8 ID: 0

Режим чтения : Достоверность
Использование точного потока : Да
Отключение кэша аудио : Да
Использование указателей C2 : Нет

Коррекция смещения при чтении : 30
Способность читать области Lead-in и Lead-out : Нет
Заполнение пропущенных сэмплов тишиной : Да
Удаление блоков с тишиной в начале и конце : Нет
При вычислениях CRC использовались нулевые сэмплы : Да
Интерфейс : Установленный внешний ASPI-интерфейс

Выходной формат : Пользовательский кодировщик
Выбранный битрейт : 128 kBit/s
Качество : Высокий
Добавление ID3-тега : Нет
Утилита сжатия : C:\Program Files\Exact Audio Copy\FLAC\FLAC.EXE
Дополнительные параметры : -V -8 -T "Genre=%genre%" -T "Artist=%artist%" -T "Title=%title%" -T "Album=%albumtitle%" -T "Date=%year%" -T "Tracknumber=%tracknr%" -T "Comment=%comment%" %source%


TOC извлечённого CD

Трек | Старт | Длительность | Начальный сектор | Конечный сектор
––––––––––––––––––––––––––––––––––-
1 | 0:00.00 | 6:02.53 | 0 | 27202
2 | 6:02.53 | 5:17.53 | 27203 | 51030
3 | 11:20.31 | 6:39.66 | 51031 | 81021
4 | 18:00.22 | 5:07.70 | 81022 | 104116
5 | 23:08.17 | 4:34.34 | 104117 | 124700
6 | 27:42.51 | 5:13.19 | 124701 | 148194
7 | 32:55.70 | 8:22.57 | 148195 | 185901
8 | 41:18.52 | 5:23.07 | 185902 | 210133
9 | 46:41.59 | 4:38.68 | 210134 | 231051
10 | 51:20.52 | 4:20.33 | 231052 | 250584


Характеристики диапазона извлечения и сообщения об ошибках

Выбранный диапазон

Имя файла I:\MOI_RAZDACI\VA_The Long Versions - New Wave 2005\VA_The.Long.Versions_New.Wave_2005\CD-3\VA - The Long Versions - New Wave CD3.wav

Пиковый уровень 79.2 %
Скорость извлечения 10.2 X
Качество диапазона 100.0 %
CRC теста A3EDA6C5
CRC копии A3EDA6C5
Копирование… OK

Ошибок не произошло


AccurateRip: сводка

Трек 1 : извлечено точно (доверие 3) [E1A65E41] (AR v1)
Трек 2 : извлечено точно (доверие 3) [E0CA2D92] (AR v1)
Трек 3 : извлечено точно (доверие 3) [DC623B95] (AR v1)
Трек 4 : извлечено точно (доверие 2) [B4AFCB6C] (AR v1)
Трек 5 : извлечено точно (доверие 2) [D0672DF5] (AR v1)
Трек 6 : извлечено точно (доверие 3) [9F68F885] (AR v1)
Трек 7 : извлечено точно (доверие 3) [E45F5A7D] (AR v1)
Трек 8 : извлечено точно (доверие 3) [34ABDF66] (AR v1)
Трек 9 : извлечено точно (доверие 3) [45E0A051] (AR v1)
Трек 10 : извлечено точно (доверие 3) [F74DEA41] (AR v1)

Все треки извлечены точно

Конец отчёта

–– CUETools DB Plugin V2.1.6

[CTDB TOCID: MGvMfJCXdN4pmC8CXc7XpbauwsU-] found
Submit result: MGvMfJCXdN4pmC8CXc7XpbauwsU- has been confirmed
Track | CTDB Status
1 | (6/6) Accurately ripped
2 | (6/6) Accurately ripped
3 | (6/6) Accurately ripped
4 | (6/6) Accurately ripped
5 | (6/6) Accurately ripped
6 | (6/6) Accurately ripped
7 | (6/6) Accurately ripped
8 | (6/6) Accurately ripped
9 | (6/6) Accurately ripped
10 | (6/6) Accurately ripped


==== Контрольная сумма отчёта 7FB0D4F013AEC2848AC00B89885E034FA13DA4F171514C47BBD20AA384785F42 ====

[CUETools log; Date: 05.04.2018 21:45:50; Version: 2.1.4]
[CTDB TOCID: MGvMfJCXdN4pmC8CXc7XpbauwsU-] found.
Track | CTDB Status
1 | (7/7) Accurately ripped
2 | (7/7) Accurately ripped
3 | (7/7) Accurately ripped
4 | (7/7) Accurately ripped
5 | (7/7) Accurately ripped
6 | (7/7) Accurately ripped
7 | (7/7) Accurately ripped
8 | (7/7) Accurately ripped
9 | (7/7) Accurately ripped
10 | (7/7) Accurately ripped
[AccurateRip ID: 00159336-00ac2ab1-880d0d0a] found.
Track [ CRC | V2 ] Status
01 [e1a65e41|026cb59c] (3+0/5) Accurately ripped
02 [e0ca2d92|598860d5] (3+0/5) Accurately ripped
03 [dc623b95|0cadb691] (3+0/5) Accurately ripped
04 [b4afcb6c|754c98d5] (2+0/4) Accurately ripped
05 [d0672df5|63d6fe57] (2+0/4) Accurately ripped
06 [9f68f885|ac47145c] (3+0/5) Accurately ripped
07 [e45f5a7d|de93aceb] (3+0/5) Accurately ripped
08 [34abdf66|6c31f0b1] (3+0/5) Accurately ripped
09 [45e0a051|92cf865b] (3+0/5) Accurately ripped
10 [f74dea41|74d25715] (3+0/5) Accurately ripped
Offsetted by 468:
01 [6afe81a9] (2/5) Accurately ripped
02 [0097295e] (2/5) Accurately ripped
03 [b1a67a39] (2/5) Accurately ripped
04 [203f0688] (2/4) Accurately ripped
05 [56d5c289] (2/4) Accurately ripped
06 [5d52172d] (2/5) Accurately ripped
07 [318faa45] (2/5) Accurately ripped
08 [083c6126] (2/5) Accurately ripped
09 [43d5ef1d] (2/5) Accurately ripped
10 [dba4f885] (2/5) Accurately ripped

Track Peak [ CRC32 ] [W/O NULL] [ LOG ]
– 79,2 [A3EDA6C5] [657DCBA5] CRC32
01 68,0 [3FD1B180] [DEB10DE1]
02 71,2 [0417057D] [39C867FB]
03 60,3 [74BE9987] [367D85ED]
04 62,3 [45D6AC69] [D84EA536]
05 72,2 [913D2482] [5601F0DF]
06 67,9 [1FEEDAA8] [C3E13897]
07 75,8 [ABFA0900] [945065F9]
08 73,7 [8A102C93] [938FAF94]
09 70,1 [D4BF28D0] [969AC059]
10 79,2 [90B55C3E] [17318C1B]

foobar2000 1.2 / Dynamic Range Meter 1.1.1
log date: 2018-04-05 19:56:03

––––––––––––––––––––––––––––––––––––––––
Analyzed: Billy Idol / The Long Versions - New Wave CD3 (1)
China Crisis / The Long Versions - New Wave CD3 (2)
––––––––––––––––––––––––––––––––––––––––

DR Peak RMS Duration Track
––––––––––––––––––––––––––––––––––––––––
DR12 -2.40 dB -15.46 dB 8:23 07-White Wedding -Parts 1 & 2
DR11 -3.08 dB -15.47 dB 4:39 09-Wishful Thinking
––––––––––––––––––––––––––––––––––––––––

Number of tracks: 2
Official DR value: DR11

Samplerate: 44100 Hz
Channels: 2
Bits per sample: 16
Bitrate: 887 kbps
Codec: FLAC
================================================================================

––––––––––––––––––––––––––––––––––––––––
Analyzed: Duran Duran / The Long Versions - New Wave CD3 (1)
Human League / The Long Versions - New Wave CD3 (2)
––––––––––––––––––––––––––––––––––––––––

DR Peak RMS Duration Track
––––––––––––––––––––––––––––––––––––––––
DR11 -2.95 dB -15.76 dB 5:18 02-Notorious
DR8 -3.35 dB -13.29 dB 5:13 06-Hard Times - Love Action
––––––––––––––––––––––––––––––––––––––––

Number of tracks: 2
Official DR value: DR9

Samplerate: 44100 Hz
Channels: 2
Bits per sample: 16
Bitrate: 887 kbps
Codec: FLAC
================================================================================

––––––––––––––––––––––––––––––––––––––––
Statistics for: 05-Safety Dance
Number of samples: 12103392
Duration: 4:34
––––––––––––––––––––––––––––––––––––––––

Left Right

Peak Value: -2.83 dB –- -2.91 dB
Avg RMS: -16.33 dB –- -15.80 dB
DR channel: 12.60 dB –- 11.91 dB
––––––––––––––––––––––––––––––––––––––––

Official DR Value: DR12

Samplerate: 44100 Hz
Channels: 2
Bits per sample: 16
Bitrate: 887 kbps
Codec: FLAC
================================================================================
––––––––––––––––––––––––––––––––––––––––
Analyzed: Power Station / The Long Versions - New Wave CD3 (1)
Rain Tree Crow / The Long Versions - New Wave CD3 (2)
––––––––––––––––––––––––––––––––––––––––

DR Peak RMS Duration Track
––––––––––––––––––––––––––––––––––––––––
DR8 -4.39 dB -13.59 dB 6:40 03-Some Like It Hot
DR11 -2.02 dB -17.00 dB 4:20 10-Blackwater
––––––––––––––––––––––––––––––––––––––––

Number of tracks: 2
Official DR value: DR9

Samplerate: 44100 Hz
Channels: 2
Bits per sample: 16
Bitrate: 887 kbps
Codec: FLAC
================================================================================

––––––––––––––––––––––––––––––––––––––––
Analyzed: Simple Minds / The Long Versions - New Wave CD3 (1)
Talk Talk / The Long Versions - New Wave CD3 (2)
––––––––––––––––––––––––––––––––––––––––

DR Peak RMS Duration Track
––––––––––––––––––––––––––––––––––––––––
DR8 -3.35 dB -12.91 dB 6:03 01-Promised You A Miracle
DR9 -2.64 dB -14.00 dB 5:23 08-Dum Dum Girl
––––––––––––––––––––––––––––––––––––––––

Number of tracks: 2
Official DR value: DR9

Samplerate: 44100 Hz
Channels: 2
Bits per sample: 16
Bitrate: 887 kbps
Codec: FLAC
================================================================================

––––––––––––––––––––––––––––––––––––––––
Statistics for: 04-Hyperactive
Number of samples: 13579860
Duration: 5:08
––––––––––––––––––––––––––––––––––––––––

Left Right

Peak Value: -4.11 dB –- -4.11 dB
Avg RMS: -14.11 dB –- -14.48 dB
DR channel: 8.86 dB –- 8.98 dB
––––––––––––––––––––––––––––––––––––––––

Official DR Value: DR9

Samplerate: 44100 Hz
Channels: 2
Bits per sample: 16
Bitrate: 887 kbps
Codec: FLAC
================================================================================

VA - The Long Versions: New Wave (2005) 3CD Box Set

All thanks to original releaser - stas64

More interesting music in My Blog