Subcategories
Tags
Language
Tags

VA - Cafe del Mar XIX: Volumen Diecinueve (2013) Complied By Toni Simonen

Posted By: Designol
VA - Cafe del Mar XIX: Volumen Diecinueve (2013) Complied By Toni Simonen

VA - Café del Mar XIX: Volumen Diecinueve (2013) Complied By Toni Simonen
EAC | FLAC | Tracks (Cue+Log) ~ 745 Mb (incl 5%) | Mp3 (CBR320) ~ 316 Mb (incl 5%) | Scans ~ 65 Mb
Genre: Lounge, Chillout, Downtempo | Label: Café del Mar Music | # 01-2013-99 | Time: 02:13:47

Café del Mar XIX features 26 new tracks of which 22 are exclusive for the compilation. Including some of the biggest names in electronic music, such as Moby & Mark Lanegan, Bonobo, The xx, Kate Bush… Great combination of cool lounge music guaranteed to put your mind to rest and chill your self to complete rest.

This is a new release in the Cafe del Mar series and once again shows why Cafe del Mar is THE leader of the pack when it comes to creating the perfect eclectic mix of atmospheric electronica and moody laid back rhythmic tunes….The artists are often quite obscure (though a typically melancholic Moby features here complete with tinkling piano and Kate Bush turns up on a deep-voiced remix of Running Up That Hill) yet this unknown quantity doesn't detract - the productions are slick and sophisticated, the vibes gloriously relaxed, sometimes primal, sometimes veering towards the spiritual (check out the final track on CD2 by Bliss "End Titles", and the vocals are calming even if draped over a beat….This is perfect music for a late night setting, be it in a cafe or at home, and a perfect prelude to nightfall and beyond…

Review by plato, Amazon.com

VA - Cafe del Mar XIX: Volumen Diecinueve (2013) Complied By Toni Simonen

VA - Cafe del Mar XIX: Volumen Diecinueve (2013) Complied By Toni Simonen



Tracklist:

CD1:

01. Blank & Jones Feat. Cathy Battistessa - Miracle Man (5:39)
02. Stelly M - Summer Breeze (7:33)
03. Gelka Feat. Phoenix Pearle - Being You (4:26)
04. Afterlife - Suddenly (4:44)
05. Moya - Lost And Found (4:58)
06. The Ramona Flowers - So Many Colours (4:46)
07. Ashley Height - Painkillers (3:36)
08. Ben Onono - Small World (3:07)
09. Bonobo - First Fires (4:38)
10. Kate Bush - Running Up That Hill (5:33)
11. The XX - Sunset (3:36)
12. Steve Miller & Rachel LLoyd - Saltwater Waves (4:53)
13. Moby & Mark Lanegan - The Lonely Night (9:30)

CD2:

01. D Note - Sylvia (4:29)
02. Space Designer - Nothing Really Matters (5:01)
03. Ziller - Peral & Dean (4:54)
04. James Bright - Be (5:36)
05. Silent Wave - Pretty Good (4:51)
06. Lux - Golden (4:55)
07. No Logo - Matter Of Time (4:15)
08. Kinobe - Lotus Eater (5:05)
09. Aromabar - Renegade (4:57)
10. Hazy J - Our Way (5:07)
11. Chris Coco & Sascha Puttnam - Human (4:47)
12. Jacob Gurevitsch - Lovers In Paris (4:57)
13. Bliss - End Titles (5:55)


Exact Audio Copy V1.0 beta 1 from 15. November 2010

EAC extraction logfile from 24. September 2013, 12:38

Various / Cafe Del Mar XIX - CD1

Used drive : ASUS DRW-24B3ST Adapter: 1 ID: 2

Read mode : Secure
Utilize accurate stream : Yes
Defeat audio cache : Yes
Make use of C2 pointers : No

Read offset correction : 6
Overread into Lead-In and Lead-Out : No
Fill up missing offset samples with silence : Yes
Delete leading and trailing silent blocks : No
Null samples used in CRC calculations : Yes
Used interface : Native Win32 interface for Win NT & 2000
Gap handling : Appended to previous track

Used output format : User Defined Encoder
Selected bitrate : 896 kBit/s
Quality : High
Add ID3 tag : No
Command line compressor : C:\Program Files (x86)\Exact Audio Copy\Flac\flac.exe
Additional command line options : -8 -V -T "ARTIST=%a" -T "TITLE=%t" -T "ALBUM=%g" -T "DATE=%y" -T "TRACKNUMBER=%n" -T "GENRE=%m" -T "COMMENT=ripped by Oleandris" %s


TOC of the extracted CD

Track | Start | Length | Start sector | End sector
––––––––––––––––––––––––––––-
1 | 0:00.00 | 5:39.20 | 0 | 25444
2 | 5:39.20 | 7:33.05 | 25445 | 59424
3 | 13:12.25 | 4:25.45 | 59425 | 79344
4 | 17:37.70 | 4:43.69 | 79345 | 100638
5 | 22:21.64 | 4:58.23 | 100639 | 123011
6 | 27:20.12 | 4:46.24 | 123012 | 144485
7 | 32:06.36 | 3:36.14 | 144486 | 160699
8 | 35:42.50 | 3:07.12 | 160700 | 174736
9 | 38:49.62 | 4:37.45 | 174737 | 195556
10 | 43:27.32 | 5:32.57 | 195557 | 220513
11 | 49:00.14 | 3:35.50 | 220514 | 236688
12 | 52:35.64 | 4:52.64 | 236689 | 258652
13 | 57:28.53 | 9:29.39 | 258653 | 301366


Track 1

Filename F:\ЗАГРУЗКИ\ Cafe Del Mar ХIХ 2CD (2013)\CD1\01. Blank & Jones Feat. Cathy Battistessa - Miracle Man.wav

Pre-gap length 0:00:02.00

Peak level 94.7 %
Extraction speed 5.9 X
Track quality 100.0 %
Test CRC 948F3911
Copy CRC 948F3911
Accurately ripped (confidence 7) [9FE0444D]
Copy OK

Track 2

Filename F:\ЗАГРУЗКИ\ Cafe Del Mar ХIХ 2CD (2013)\CD1\02. Stelly M - Summer Breeze.wav

Pre-gap length 0:00:00.58

Peak level 91.5 %
Extraction speed 6.9 X
Track quality 100.0 %
Test CRC B6956AAA
Copy CRC B6956AAA
Accurately ripped (confidence 6) [7D66FE2C]
Copy OK

Track 3

Filename F:\ЗАГРУЗКИ\ Cafe Del Mar ХIХ 2CD (2013)\CD1\03. Gelka Feat. Phoenix Pearle - Being You.wav

Pre-gap length 0:00:00.58

Peak level 99.9 %
Extraction speed 7.2 X
Track quality 100.0 %
Test CRC 0D99ED84
Copy CRC 0D99ED84
Accurately ripped (confidence 6) [C05B0D27]
Copy OK

Track 4

Filename F:\ЗАГРУЗКИ\ Cafe Del Mar ХIХ 2CD (2013)\CD1\04. Afterlife - Suddenly.wav

Pre-gap length 0:00:00.57

Peak level 90.4 %
Extraction speed 6.4 X
Track quality 99.9 %
Test CRC 051DDE15
Copy CRC 051DDE15
Accurately ripped (confidence 6) [84AD4845]
Copy OK

Track 5

Filename F:\ЗАГРУЗКИ\ Cafe Del Mar ХIХ 2CD (2013)\CD1\05. Moya - Lost And Found.wav

Pre-gap length 0:00:00.56

Peak level 81.7 %
Extraction speed 8.2 X
Track quality 100.0 %
Test CRC 632BA401
Copy CRC 632BA401
Accurately ripped (confidence 6) [22C66AB4]
Copy OK

Track 6

Filename F:\ЗАГРУЗКИ\ Cafe Del Mar ХIХ 2CD (2013)\CD1\06. The Ramona Flowers - So Many Colours.wav

Pre-gap length 0:00:00.57

Peak level 81.4 %
Extraction speed 8.6 X
Track quality 100.0 %
Test CRC C212B2A5
Copy CRC C212B2A5
Accurately ripped (confidence 6) [9803DD33]
Copy OK

Track 7

Filename F:\ЗАГРУЗКИ\ Cafe Del Mar ХIХ 2CD (2013)\CD1\07. Ashley Height - Painkillers.wav

Pre-gap length 0:00:00.57

Peak level 91.3 %
Extraction speed 6.8 X
Track quality 99.9 %
Test CRC 1372DEC0
Copy CRC 1372DEC0
Accurately ripped (confidence 6) [292C6B40]
Copy OK

Track 8

Filename F:\ЗАГРУЗКИ\ Cafe Del Mar ХIХ 2CD (2013)\CD1\08. Ben Onono - Small World.wav

Pre-gap length 0:00:00.58

Peak level 81.5 %
Extraction speed 8.7 X
Track quality 100.0 %
Test CRC 8AD0FDEE
Copy CRC 8AD0FDEE
Accurately ripped (confidence 6) [E31F1268]
Copy OK

Track 9

Filename F:\ЗАГРУЗКИ\ Cafe Del Mar ХIХ 2CD (2013)\CD1\09. Bonobo - First Fires.wav

Pre-gap length 0:00:00.58

Peak level 72.1 %
Extraction speed 7.8 X
Track quality 99.9 %
Test CRC 612210F8
Copy CRC 612210F8
Accurately ripped (confidence 6) [7B83AC25]
Copy OK

Track 10

Filename F:\ЗАГРУЗКИ\ Cafe Del Mar ХIХ 2CD (2013)\CD1\10. Kate Bush - Running Up That Hill.wav

Pre-gap length 0:00:00.58

Peak level 87.7 %
Extraction speed 10.0 X
Track quality 100.0 %
Test CRC 6AE566F0
Copy CRC 6AE566F0
Accurately ripped (confidence 6) [1396C695]
Copy OK

Track 11

Filename F:\ЗАГРУЗКИ\ Cafe Del Mar ХIХ 2CD (2013)\CD1\11. The XX - Sunset.wav

Pre-gap length 0:00:00.57

Peak level 81.4 %
Extraction speed 9.8 X
Track quality 100.0 %
Test CRC F0C64500
Copy CRC F0C64500
Accurately ripped (confidence 6) [268B0B5F]
Copy OK

Track 12

Filename F:\ЗАГРУЗКИ\ Cafe Del Mar ХIХ 2CD (2013)\CD1\12. Steve Miller & Rachel LLoyd - Saltwater Waves.wav

Pre-gap length 0:00:00.57

Peak level 87.8 %
Extraction speed 10.5 X
Track quality 100.0 %
Test CRC 6762A696
Copy CRC 6762A696
Accurately ripped (confidence 6) [7094F133]
Copy OK

Track 13

Filename F:\ЗАГРУЗКИ\ Cafe Del Mar ХIХ 2CD (2013)\CD1\13. Moby & Mark Lanegan - The Lonely Night.wav

Pre-gap length 0:00:00.56

Peak level 86.9 %
Extraction speed 10.5 X
Track quality 99.9 %
Test CRC 10BEA9E9
Copy CRC 10BEA9E9
Accurately ripped (confidence 6) [58F41B6E]
Copy OK


All tracks accurately ripped

No errors occurred

End of status report

==== Log checksum 4F335A33330C41C2BFCDCE2BC285CB222B13D7EA24B506B72E55E7FDB2F2CEBF ====

foobar2000 1.2 / Dynamic Range Meter 1.1.1
log date: 2013-09-27 23:12:07

––––––––––––––––––––––––––––––––––––––––
Analyzed: Afterlife / Cafe Del Mar XIX - CD1 (1)
Ashley Height / Cafe Del Mar XIX - CD1 (2)
Ben Onono / Cafe Del Mar XIX - CD1 (3)
Blank & Jones Feat. Cathy Battistessa / Cafe Del Mar XIX - CD1 (4)
Bonobo / Cafe Del Mar XIX - CD1 (5)
Gelka Feat. Phoenix Pearle / Cafe Del Mar XIX - CD1 (6)
Kate Bush / Cafe Del Mar XIX - CD1 (7)
Moby & Mark Lanegan / Cafe Del Mar XIX - CD1 (8)
Moya / Cafe Del Mar XIX - CD1 (9)
Stelly M / Cafe Del Mar XIX - CD1 (10)
Steve Miller & Rachel LLoyd / Cafe Del Mar XIX - CD1 (11)
The Ramona Flowers / Cafe Del Mar XIX - CD1 (12)
The XX / Cafe Del Mar XIX - CD1 (13)
––––––––––––––––––––––––––––––––––––––––

DR Peak RMS Duration Track
––––––––––––––––––––––––––––––––––––––––
DR11 -0.87 dB -13.88 dB 4:44 04-Suddenly
DR13 -0.79 dB -15.68 dB 3:36 07-Painkillers
DR10 -1.78 dB -13.90 dB 3:07 08-Small World
DR12 -0.47 dB -13.95 dB 5:39 01-Miracle Man
DR10 -2.83 dB -16.19 dB 4:38 09-First Fires
DR12 0.00 dB -13.87 dB 4:26 03-Being You
DR11 -1.14 dB -14.55 dB 5:33 10-Running Up That Hill
DR12 -1.21 dB -15.17 dB 9:30 13-The Lonely Night
DR10 -1.76 dB -13.18 dB 4:58 05-Lost And Found
DR11 -0.77 dB -14.57 dB 7:33 02-Summer Breeze
DR8 -1.12 dB -13.67 dB 4:53 12-Saltwater Waves
DR11 -1.78 dB -15.73 dB 4:46 06-So Many Colours
DR10 -1.78 dB -14.26 dB 3:36 11-Sunset
––––––––––––––––––––––––––––––––––––––––

Number of tracks: 13
Official DR value: DR11

Samplerate: 44100 Hz
Channels: 2
Bits per sample: 16
Bitrate: 576 kbps
Codec: FLAC
================================================================================


Exact Audio Copy V1.0 beta 1 from 15. November 2010

EAC extraction logfile from 24. September 2013, 12:38

Various / Cafe Del Mar XIX - CD2

Used drive : PLEXTOR DVDR PX-L890SA Adapter: 1 ID: 4

Read mode : Secure
Utilize accurate stream : Yes
Defeat audio cache : Yes
Make use of C2 pointers : No

Read offset correction : 6
Overread into Lead-In and Lead-Out : No
Fill up missing offset samples with silence : Yes
Delete leading and trailing silent blocks : No
Null samples used in CRC calculations : Yes
Used interface : Native Win32 interface for Win NT & 2000
Gap handling : Appended to previous track

Used output format : User Defined Encoder
Selected bitrate : 896 kBit/s
Quality : High
Add ID3 tag : No
Command line compressor : C:\Program Files (x86)\Exact Audio Copy\Flac\flac.exe
Additional command line options : -8 -V -T "ARTIST=%a" -T "TITLE=%t" -T "ALBUM=%g" -T "DATE=%y" -T "TRACKNUMBER=%n" -T "GENRE=%m" -T "COMMENT=ripped by Oleandris" %s


TOC of the extracted CD

Track | Start | Length | Start sector | End sector
––––––––––––––––––––––––––––-
1 | 0:00.00 | 4:28.53 | 0 | 20152
2 | 4:28.53 | 5:01.37 | 20153 | 42764
3 | 9:30.15 | 4:54.14 | 42765 | 64828
4 | 14:24.29 | 5:35.62 | 64829 | 90015
5 | 20:00.16 | 4:51.05 | 90016 | 111845
6 | 24:51.21 | 4:55.25 | 111846 | 133995
7 | 29:46.46 | 4:14.44 | 133996 | 153089
8 | 34:01.15 | 5:04.60 | 153090 | 175949
9 | 39:06.00 | 4:57.26 | 175950 | 198250
10 | 44:03.26 | 5:06.40 | 198251 | 221240
11 | 49:09.66 | 4:46.55 | 221241 | 242745
12 | 53:56.46 | 4:56.55 | 242746 | 265000
13 | 58:53.26 | 5:54.70 | 265001 | 291620


Track 1

Filename F:\ЗАГРУЗКИ\ Cafe Del Mar ХIХ 2CD (2013)\CD2\01. D Note - Sylvia.wav

Pre-gap length 0:00:02.00

Peak level 89.0 %
Extraction speed 3.5 X
Track quality 100.0 %
Test CRC BE06B021
Copy CRC BE06B021
Accurately ripped (confidence 4) [D5407A0E]
Copy OK

Track 2

Filename F:\ЗАГРУЗКИ\ Cafe Del Mar ХIХ 2CD (2013)\CD2\02. Space Designer - Nothing Really Matters.wav

Pre-gap length 0:00:01.00

Peak level 82.6 %
Extraction speed 3.3 X
Track quality 99.9 %
Test CRC FD01193E
Copy CRC FD01193E
Accurately ripped (confidence 4) [C35FA120]
Copy OK

Track 3

Filename F:\ЗАГРУЗКИ\ Cafe Del Mar ХIХ 2CD (2013)\CD2\03. Ziller - Peral & Dean.wav

Pre-gap length 0:00:01.00

Peak level 89.1 %
Extraction speed 3.6 X
Track quality 99.9 %
Test CRC 440FF572
Copy CRC 440FF572
Accurately ripped (confidence 4) [F8B0389E]
Copy OK

Track 4

Filename F:\ЗАГРУЗКИ\ Cafe Del Mar ХIХ 2CD (2013)\CD2\04. James Bright - Be.wav

Pre-gap length 0:00:01.00

Peak level 86.4 %
Extraction speed 4.9 X
Track quality 100.0 %
Test CRC D2F3B943
Copy CRC D2F3B943
Accurately ripped (confidence 4) [077FC67C]
Copy OK

Track 5

Filename F:\ЗАГРУЗКИ\ Cafe Del Mar ХIХ 2CD (2013)\CD2\05. Silent Wave - Pretty Good.wav

Pre-gap length 0:00:01.00

Peak level 71.4 %
Extraction speed 5.2 X
Track quality 100.0 %
Test CRC 9AD0220D
Copy CRC 9AD0220D
Accurately ripped (confidence 4) [151F7B64]
Copy OK

Track 6

Filename F:\ЗАГРУЗКИ\ Cafe Del Mar ХIХ 2CD (2013)\CD2\06. Lux - Golden.wav

Pre-gap length 0:00:01.00

Peak level 89.1 %
Extraction speed 5.4 X
Track quality 100.0 %
Test CRC F7B26B75
Copy CRC F7B26B75
Accurately ripped (confidence 4) [5D419D5D]
Copy OK

Track 7

Filename F:\ЗАГРУЗКИ\ Cafe Del Mar ХIХ 2CD (2013)\CD2\07. No Logo - Matter Of Time.wav

Pre-gap length 0:00:01.00

Peak level 88.8 %
Extraction speed 5.6 X
Track quality 100.0 %
Test CRC 132BC8DE
Copy CRC 132BC8DE
Accurately ripped (confidence 4) [32BE9D36]
Copy OK

Track 8

Filename F:\ЗАГРУЗКИ\ Cafe Del Mar ХIХ 2CD (2013)\CD2\08. Kinobe - Lotus Eater.wav

Pre-gap length 0:00:01.00

Peak level 75.4 %
Extraction speed 6.0 X
Track quality 100.0 %
Test CRC 0F2E61D4
Copy CRC 0F2E61D4
Accurately ripped (confidence 4) [8DFA40D6]
Copy OK

Track 9

Filename F:\ЗАГРУЗКИ\ Cafe Del Mar ХIХ 2CD (2013)\CD2\09. Aromabar - Renegade.wav

Pre-gap length 0:00:01.00

Peak level 76.9 %
Extraction speed 6.3 X
Track quality 100.0 %
Test CRC 043E598E
Copy CRC 043E598E
Accurately ripped (confidence 4) [B2202257]
Copy OK

Track 10

Filename F:\ЗАГРУЗКИ\ Cafe Del Mar ХIХ 2CD (2013)\CD2\10. Hazy J - Our Way.wav

Pre-gap length 0:00:01.00

Peak level 73.9 %
Extraction speed 6.5 X
Track quality 100.0 %
Test CRC D0A0E73C
Copy CRC D0A0E73C
Accurately ripped (confidence 4) [F9783240]
Copy OK

Track 11

Filename F:\ЗАГРУЗКИ\ Cafe Del Mar ХIХ 2CD (2013)\CD2\11. Chris Coco & Sascha Puttnam - Human.wav

Pre-gap length 0:00:01.00

Peak level 82.9 %
Extraction speed 6.7 X
Track quality 100.0 %
Test CRC FFB36172
Copy CRC FFB36172
Accurately ripped (confidence 4) [7118E101]
Copy OK

Track 12

Filename F:\ЗАГРУЗКИ\ Cafe Del Mar ХIХ 2CD (2013)\CD2\12. Jacob Gurevitsch - Lovers In Paris.wav

Pre-gap length 0:00:01.00

Peak level 89.0 %
Extraction speed 7.0 X
Track quality 100.0 %
Test CRC C6352E46
Copy CRC C6352E46
Accurately ripped (confidence 4) [575FC023]
Copy OK

Track 13

Filename F:\ЗАГРУЗКИ\ Cafe Del Mar ХIХ 2CD (2013)\CD2\13. Bliss - End Titles.wav

Pre-gap length 0:00:01.00

Peak level 89.0 %
Extraction speed 7.4 X
Track quality 100.0 %
Test CRC C5A91DAF
Copy CRC C5A91DAF
Accurately ripped (confidence 4) [C523DFEA]
Copy OK


All tracks accurately ripped

No errors occurred

End of status report

==== Log checksum C1E28A669F1BD1EB0016FE4900349137305CA3275DCC9CD4D40E0C4F0BC5B66D ====

foobar2000 1.2 / Dynamic Range Meter 1.1.1
log date: 2013-09-27 23:12:26

––––––––––––––––––––––––––––––––––––––––
Analyzed: Aromabar / Cafe Del Mar XIX - CD2 (1)
Bliss / Cafe Del Mar XIX - CD2 (2)
Chris Coco & Sascha Puttnam / Cafe Del Mar XIX - CD2 (3)
D Note / Cafe Del Mar XIX - CD2 (4)
Hazy J / Cafe Del Mar XIX - CD2 (5)
Jacob Gurevitsch / Cafe Del Mar XIX - CD2 (6)
James Bright / Cafe Del Mar XIX - CD2 (7)
Kinobe / Cafe Del Mar XIX - CD2 (8)
Lux / Cafe Del Mar XIX - CD2 (9)
No Logo / Cafe Del Mar XIX - CD2 (10)
Silent Wave / Cafe Del Mar XIX - CD2 (11)
Space Designer / Cafe Del Mar XIX - CD2 (12)
Ziller / Cafe Del Mar XIX - CD2 (13)
––––––––––––––––––––––––––––––––––––––––

DR Peak RMS Duration Track
––––––––––––––––––––––––––––––––––––––––
DR9 -2.28 dB -14.18 dB 4:57 09-Renegade
DR10 -1.01 dB -13.87 dB 5:55 13-End Titles
DR11 -1.62 dB -16.95 dB 4:47 11-Human
DR10 -1.01 dB -14.77 dB 4:29 01-Sylvia
DR10 -2.62 dB -16.80 dB 5:07 10-Our Way
DR11 -1.01 dB -14.55 dB 4:57 12-Lovers In Paris
DR11 -1.26 dB -15.70 dB 5:36 04-Be
DR10 -2.45 dB -14.36 dB 5:05 08-Lotus Eater
DR11 -1.00 dB -13.89 dB 4:55 06-Golden
DR12 -1.03 dB -14.72 dB 4:15 07-Matter Of Time
DR9 -2.92 dB -15.99 dB 4:51 05-Pretty Good
DR10 -1.65 dB -15.02 dB 5:01 02-Nothing Really Matters
DR11 -1.00 dB -13.92 dB 4:54 03-Peral & Dean
––––––––––––––––––––––––––––––––––––––––

Number of tracks: 13
Official DR value: DR10

Samplerate: 44100 Hz
Channels: 2
Bits per sample: 16
Bitrate: 859 kbps
Codec: FLAC
================================================================================

VA - Cafe del Mar XIX: Volumen Diecinueve (2013) Complied By Toni Simonen

VA - Cafe del Mar XIX: Volumen Diecinueve (2013) Complied By Toni Simonen