Tags
Language
Tags

VA - Day of the Dead (2016) 5CD Box Set [Re-Up]

Posted By:
VA - Day of the Dead (2016) 5CD Box Set [Re-Up]

VA - Day of the Dead (2016) 5CD Box Set
EAC | FLAC | Image (Cue&Log) ~ 1.9 Gb | Mp3 (CBR320) ~ 747 Mb | Scans ~ 144 Mb | Time: 05:26:25
Rock, Jam Bands, Country-Rock, Folk-Rock, Indie Rock, Tribute | Label: 4AD | # RAD 3624

Day of the Dead is an epic tribute to the music and artistry of the Grateful Dead, curated by Aaron and Bryce Dessner of The National. They have brought together some of their favourite musicians to reinterpret the songs and sounds of the Dead for a new generation. 59 tracks and over 5 hours of music makes the album a landmark to get lost in, to discover hidden treasures and to make your own playlists for whatever mood you’re in. Covers by The War On Drugs, Kurt Vile, Bill Callahan, Courtney Barnett, Anohni, Wilco, Mumford & Sons, Unknown Mortal Orchestra, The Flaming Lips, Stephen Malkmus, Cass McCombs, Tim Hecker, Lucinda Williams, Perfume Genius, Fucked Up, Bonnie "Prince" Billy, The Tallest Man On Earth and others.

The Grateful Dead were not known for their modesty so perhaps it's fitting that Day of the Dead, the 2016 tribute album assembled by Aaron and Bryce Dessner of the National for the Red Hot Organization, sprawls with abandon. At five and a half hours, the 59-track album – divided into three separate sets, like any good Grateful Dead concert – is longer than any individual Dead show but it's not necessarily as far-reaching. The Dessners favor very specific traits within the Dead, eschewing folk, boogie, blues, and cowboy songs in favor of ever-expanding experimentalism. Bob Weir may sit in with the National for an album-closing "I Know You Rider" but he's essentially been back-benched: his penchant for good-time rock & roll has been erased and he has a mere seven songwriting credits here, and three of those are band compositions ("Dark Star" being repeated twice). This means Day of the Dead is anchored on Jerry Garcia and Robert Hunter songs, all filtered through an out sensibility indebted to Phil Lesh. Some of the contributions break this mold – Charles Bradley lays into a funky "Cumberland Blues," Courtney Barnett sneers through "New Speedway Boogie" – but it's rare to hear the kind of winding, intertwined guitar interplay that characterized so much prime Dead. It surfaces when Weir sits in with the National and Wilco, Stephen Malkmus & the Jicks contribute a rangy, excellent "China Cat Sunflower>I Know You Rider," and J Mascis graces Kurt Vile's "Box of Rain" with a gorgeous solo, but these are accents on an album that strips away any of the seedy, crunchy elements of jam band music. What's left is striking, albeit an idiosyncratic interpretation of the Dead. If very few cuts here are especially rhythmic – an odd thing, considering the Dead had two percussionists – the emphasis on shifting textures is alluring, reaching a pinnacle on a 17-minute interpretation of "Terrapin Station" that emphasizes its suite structure and shimmers with a quiet elegance. Whether it showcases a singer with a guitar or circular improvisations on a theme, most of Day of the Dead follows a similarly understated, tasteful path and, ultimately, that's what's impressive about it: it is a tribute to the Grateful Dead as sonic adventurers, pioneering new avenues into space and beyond.

Review by Stephen Thomas Erlewine, Allmusic.com

VA - Day of the Dead (2016) 5CD Box Set [Re-Up]


Day of the Dead Website
Day of the Dead at Wiki

Tracklist:

CD1:

01. The War on Drugs - Touch of Grey (05:16)
02. Phosphorescent/Jenny Lewis - Sugaree (04:59)
03. Jim James - Candyman (05:33)
04. The Lone Bellow - Dire Wolf (03:02)
05. Courtney Barnett - New Speedway Boogie (05:22)
06. Mumford & Sons - Friend of the Devil (04:30)
07. DeYarmond Edison/Bruce Hornsby - Black Muddy River (07:38)
08. The National - Morning Dew (05:35)
09. Anohni/yMusic - Black Peter (02:25)
10. Ed Droste/Binki Shapiro - Loser (05:15)
11. Perfume Genius/Sharon Van Etten - To Lay Me Down (06:20)

CD2:

01. Kurt Vile/J Mascis - Box of Rain (05:30)
02. Bonnie 'Prince' Billy - Rubin and Cherise (05:46)
03. The Lone Bellow - Me and My Uncle (03:03)
04. Moses Sumney/Jenny Lewis - Cassidy (03:13)
05. Lucius - Uncle John's Band (04:26)
06. Lisa Hannigan/Lee Ranaldo - Mountains of the Moon (03:53)
07. Cass McCombs/Joe Russo - Dark Star (03:57)
08. Various Artists - Nightfall of Diamonds (08:27)
09. Tim Hecker - Transitive Refraction Axis for John Oswald (03:58)
10. Tunde Adebimpe/Lee Ranaldo - Playing in the Band (09:47)
11. Little Scream/Richard Reed Parry/Caroline Shaw/Garth Hudson - Brokedown Palace (04:51)

CD3:

01. The National - Peggy-O (05:36)
02. Bryce Dessner - Garcia Counterpoint (07:12)
03. Josh Kaufman/Conrad Doucette/Daniel Rossen/Brooklyn Youth Chorus/So Percussio… - Terrapin Station (Suite) (16:49)
04. Orchestra Baobab - Clementine Jam (05:00)
05. Stephen Malkmus & the Jicks - China Cat Sunflower/I Know You Rider (11:24)
06. This Is the Kit - Jack-A-Roe (04:30)
07. Bill Callahan - Easy Wind (05:38)
08. Ira Kaplan - Wharf Rat (10:08)
09. Lucinda Williams - Going Down the Road Feelin' Bad (04:05)
10. Sam Amidon - And We Bid You Goodnight (02:44)

CD4:

01. The Walkmen - Ripple (04:25)
02. Marijuana Deathsquads - Truckin' (04:55)
03. The Flaming Lips - Dark Star (06:14)
04. Local Natives - Stella Blue (04:40)
05. Unknown Mortal Orchestra - Shakedown Street (03:29)
06. Orchestra Baobab - Franklin's Tower (06:29)
07. Tal National - Eyes of the World (05:09)
08. Bela Fleck - Help on the Way (07:39)
09. Rileys - Estimated Prophet (05:18)
10. Stargaze - What's Become of the Baby (06:35)
11. Vijay Iyer - King Solomon's Marbles (04:35)
12. Bonnie 'Prince' Billy - If I Had the World to Give (02:39)

CD5:

01. Phosphorescent - Standing on the Moon (05:34)
02. The Tallest Man on Earth - Ship of Fools (05:12)
03. Bonnie 'Prince' Billy - Bird Song (06:09)
04. Hiss Golden Messenger - Brown-Eyed Women (04:48)
05. Real Estate - Here Comes Sunshine (06:00)
06. Charles Bradley/Menahan Street Band - Cumberland Blues (03:17)
07. Man Forever/So Percussion/Oneida - Drums/Space (04:51)
08. Fucked Up - Cream Puff War (06:16)
09. Mina Tindle - Rosemary (02:05)
10. Daniel Rossen/Christopher Bear - High Time (04:16)
11. Xylouris White/Luluc - Till the Morning Comes (05:02)
12. Kodiak Blue/Shura/Winston Marshall - Althea (05:02)
13. Angel Olsen - Attics of My Life (04:15)
14. Wilco/Bob Weir - St. Stephen [Live] (06:34)
15. The National/Bob Weir - I Know You Rider [Live] (08:37)


Exact Audio Copy V1.1 from 23. June 2015

EAC extraction logfile from 25. August 2016, 20:10

Various Artists / Day of the Dead (Disc 1)

Used drive : ASUS BW-12D1S-U Adapter: 1 ID: 1

Read mode : Secure
Utilize accurate stream : Yes
Defeat audio cache : Yes
Make use of C2 pointers : No

Read offset correction : 667
Overread into Lead-In and Lead-Out : No
Fill up missing offset samples with silence : Yes
Delete leading and trailing silent blocks : No
Null samples used in CRC calculations : Yes
Used interface : Native Win32 interface for Win NT & 2000

Used output format : User Defined Encoder
Selected bitrate : 1024 kBit/s
Quality : High
Add ID3 tag : No
Command line compressor : C:\Program Files (x86)\Exact Audio Copy\FLAC\FLAC.EXE
Additional command line options : -6 -V -T "ARTIST=%artist%" -T "TITLE=%title%" -T "ALBUM=%albumtitle%" -T "DATE=%year%" -T "TRACKNUMBER=%tracknr%" -T "GENRE=%genre%" -T "COMMENT=%comment%" -T "BAND=%albuminterpret%" -T "ALBUMARTIST=%albuminterpret%" -T "COMPOSER=%composer%" %haslyrics%–tag-from-file=LYRICS="%lyricsfile%"%haslyrics% -T "DISCNUMBER=%cdnumber%" -T "TOTALDISCS=%totalcds%" -T "TOTALTRACKS=%numtracks%" %hascover%–picture="%coverfile%"%hascover% %source% -o %dest%


TOC of the extracted CD

Track | Start | Length | Start sector | End sector
––––––––––––––––––––––––––––-
1 | 0:00.00 | 5:16.51 | 0 | 23750
2 | 5:16.51 | 4:59.69 | 23751 | 46244
3 | 10:16.45 | 5:33.57 | 46245 | 71276
4 | 15:50.27 | 3:02.63 | 71277 | 84989
5 | 18:53.15 | 5:22.09 | 84990 | 109148
6 | 24:15.24 | 4:30.71 | 109149 | 129469
7 | 28:46.20 | 7:38.39 | 129470 | 163858
8 | 36:24.59 | 5:35.02 | 163859 | 188985
9 | 41:59.61 | 2:25.00 | 188986 | 199860
10 | 44:24.61 | 5:15.28 | 199861 | 223513
11 | 49:40.14 | 6:20.54 | 223514 | 252067


Range status and errors

Selected range

Filename C:\Users\Alexandre\Downloads\Torrents of Autumn\Various Artists - Day of the Dead (Disc 1).wav

Peak level 100.0 %
Extraction speed 7.3 X
Range quality 100.0 %
Test CRC 32322064
Copy CRC 32322064
Copy OK

No errors occurred


AccurateRip summary

Track 1 accurately ripped (confidence 14) [784E1076] (AR v2)
Track 2 accurately ripped (confidence 14) [49FA207F] (AR v2)
Track 3 accurately ripped (confidence 14) [2B65A881] (AR v2)
Track 4 accurately ripped (confidence 14) [179C12A8] (AR v2)
Track 5 accurately ripped (confidence 14) [192A88B0] (AR v2)
Track 6 accurately ripped (confidence 14) [E7263905] (AR v2)
Track 7 accurately ripped (confidence 14) [C9318AB6] (AR v2)
Track 8 accurately ripped (confidence 14) [C5EF5ED3] (AR v2)
Track 9 accurately ripped (confidence 14) [2B95608A] (AR v2)
Track 10 accurately ripped (confidence 14) [0D72AD0C] (AR v2)
Track 11 accurately ripped (confidence 14) [5953F3DD] (AR v2)

All tracks accurately ripped

End of status report

–– CUETools DB Plugin V2.1.6

[CTDB TOCID: 4icliFnpIde_o4os1RNMPwuhuX0-] found
Submit result: 4icliFnpIde_o4os1RNMPwuhuX0- has been confirmed
Track | CTDB Status
1 | (53/54) Accurately ripped
2 | (54/54) Accurately ripped
3 | (54/54) Accurately ripped
4 | (54/54) Accurately ripped
5 | (53/54) Accurately ripped
6 | (53/54) Accurately ripped
7 | (54/54) Accurately ripped
8 | (53/54) Accurately ripped
9 | (54/54) Accurately ripped
10 | (54/54) Accurately ripped
11 | (53/54) Accurately ripped

foobar2000 1.2 / Dynamic Range Meter 1.1.1
log date: 2016-08-30 16:39:43

––––––––––––––––––––––––––––––––––––––––
Analyzed: Courtney Barnett / Day of the Dead (Disc 1) (1)
DeYarmond Edison/Bruce Hornsby / Day of the Dead (Disc 1) (2)
Ed Droste/Binki Shapiro / Day of the Dead (Disc 1) (3)
––––––––––––––––––––––––––––––––––––––––

DR Peak RMS Duration Track
––––––––––––––––––––––––––––––––––––––––
DR7 0.00 dB -7.99 dB 5:22 05-New Speedway Boogie
DR6 -0.60 dB -10.09 dB 7:39 07-Black Muddy River
DR6 -0.10 dB -7.21 dB 5:15 10-Loser
––––––––––––––––––––––––––––––––––––––––

Number of tracks: 3
Official DR value: DR6

Samplerate: 44100 Hz
Channels: 2
Bits per sample: 16
Bitrate: 855 kbps
Codec: FLAC
================================================================================

––––––––––––––––––––––––––––––––––––––––
Analyzed: Jim James / Day of the Dead (Disc 1) (1)
Mumford & Sons / Day of the Dead (Disc 1) (2)
Perfume Genius/Sharon Van Etten / Day of the Dead (Disc 1) (3)
––––––––––––––––––––––––––––––––––––––––

DR Peak RMS Duration Track
––––––––––––––––––––––––––––––––––––––––
DR7 -0.10 dB -8.17 dB 5:34 03-Candyman
DR5 -0.10 dB -7.70 dB 4:31 06-Friend of the Devil
DR7 -0.10 dB -8.26 dB 6:21 11-To Lay Me Down
––––––––––––––––––––––––––––––––––––––––

Number of tracks: 3
Official DR value: DR6

Samplerate: 44100 Hz
Channels: 2
Bits per sample: 16
Bitrate: 855 kbps
Codec: FLAC
================================================================================

––––––––––––––––––––––––––––––––––––––––
Analyzed: Phosphorescent/Jenny Lewis / Day of the Dead (Disc 1) (1)
The Lone Bellow / Day of the Dead (Disc 1) (2)
The National / Day of the Dead (Disc 1) (3)
––––––––––––––––––––––––––––––––––––––––

DR Peak RMS Duration Track
––––––––––––––––––––––––––––––––––––––––
DR6 -0.10 dB -7.11 dB 5:00 02-Sugaree
DR7 -0.10 dB -8.04 dB 3:03 04-Dire Wolf
DR6 -0.07 dB -6.87 dB 5:35 08-Morning Dew
––––––––––––––––––––––––––––––––––––––––

Number of tracks: 3
Official DR value: DR6

Samplerate: 44100 Hz
Channels: 2
Bits per sample: 16
Bitrate: 855 kbps
Codec: FLAC
================================================================================

––––––––––––––––––––––––––––––––––––––––
Statistics for: 01-Touch of Grey
Number of samples: 13965588
Duration: 5:17
––––––––––––––––––––––––––––––––––––––––

Left Right

Peak Value: -0.10 dB –- -0.10 dB
Avg RMS: -7.43 dB –- -7.84 dB
DR channel: 6.08 dB –- 6.33 dB
––––––––––––––––––––––––––––––––––––––––

Official DR Value: DR6

Samplerate: 44100 Hz
Channels: 2
Bits per sample: 16
Bitrate: 855 kbps
Codec: FLAC
================================================================================
foobar2000 1.2 / Dynamic Range Meter 1.1.1
log date: 2016-08-30 16:39:37

––––––––––––––––––––––––––––––––––––––––
Statistics for: 09-Black Peter
Number of samples: 6394500
Duration: 2:25
––––––––––––––––––––––––––––––––––––––––

Left Right

Peak Value: -0.30 dB –- -0.30 dB
Avg RMS: -10.13 dB –- -10.32 dB
DR channel: 7.54 dB –- 7.53 dB
––––––––––––––––––––––––––––––––––––––––

Official DR Value: DR8

Samplerate: 44100 Hz
Channels: 2
Bits per sample: 16
Bitrate: 855 kbps
Codec: FLAC
================================================================================


Exact Audio Copy V1.1 from 23. June 2015

EAC extraction logfile from 26. August 2016, 0:00

Various Artists / Day of the Dead (Disc 2)

Used drive : ASUS BW-12D1S-U Adapter: 1 ID: 1

Read mode : Secure
Utilize accurate stream : Yes
Defeat audio cache : Yes
Make use of C2 pointers : No

Read offset correction : 667
Overread into Lead-In and Lead-Out : No
Fill up missing offset samples with silence : Yes
Delete leading and trailing silent blocks : No
Null samples used in CRC calculations : Yes
Used interface : Native Win32 interface for Win NT & 2000

Used output format : User Defined Encoder
Selected bitrate : 1024 kBit/s
Quality : High
Add ID3 tag : No
Command line compressor : C:\Program Files (x86)\Exact Audio Copy\FLAC\FLAC.EXE
Additional command line options : -6 -V -T "ARTIST=%artist%" -T "TITLE=%title%" -T "ALBUM=%albumtitle%" -T "DATE=%year%" -T "TRACKNUMBER=%tracknr%" -T "GENRE=%genre%" -T "COMMENT=%comment%" -T "BAND=%albuminterpret%" -T "ALBUMARTIST=%albuminterpret%" -T "COMPOSER=%composer%" %haslyrics%–tag-from-file=LYRICS="%lyricsfile%"%haslyrics% -T "DISCNUMBER=%cdnumber%" -T "TOTALDISCS=%totalcds%" -T "TOTALTRACKS=%numtracks%" %hascover%–picture="%coverfile%"%hascover% %source% -o %dest%


TOC of the extracted CD

Track | Start | Length | Start sector | End sector
––––––––––––––––––––––––––––-
1 | 0:00.00 | 5:30.51 | 0 | 24800
2 | 5:30.51 | 5:46.42 | 24801 | 50792
3 | 11:17.18 | 3:03.69 | 50793 | 64586
4 | 14:21.12 | 3:13.11 | 64587 | 79072
5 | 17:34.23 | 4:26.64 | 79073 | 99086
6 | 22:01.12 | 3:53.16 | 99087 | 116577
7 | 25:54.28 | 3:57.32 | 116578 | 134384
8 | 29:51.60 | 8:27.32 | 134385 | 172441
9 | 38:19.17 | 3:58.57 | 172442 | 190348
10 | 42:17.74 | 9:47.20 | 190349 | 234393
11 | 52:05.19 | 4:51.05 | 234394 | 256223


Range status and errors

Selected range

Filename C:\Users\Alexandre\Downloads\Torrents of Autumn\Various Artists - Day of the Dead (Disc 2).wav

Peak level 98.8 %
Extraction speed 7.3 X
Range quality 99.9 %
Test CRC 27AFF717
Copy CRC 27AFF717
Copy OK

No errors occurred


AccurateRip summary

Track 1 accurately ripped (confidence 12) [B9110E55] (AR v2)
Track 2 accurately ripped (confidence 12) [095C8A57] (AR v2)
Track 3 accurately ripped (confidence 12) [C3BB9556] (AR v2)
Track 4 accurately ripped (confidence 12) [5A9D961B] (AR v2)
Track 5 accurately ripped (confidence 12) [2E9500FB] (AR v2)
Track 6 accurately ripped (confidence 12) [0C989A08] (AR v2)
Track 7 accurately ripped (confidence 12) [1434B515] (AR v2)
Track 8 accurately ripped (confidence 12) [8FCC9C29] (AR v2)
Track 9 accurately ripped (confidence 12) [770A192E] (AR v2)
Track 10 accurately ripped (confidence 12) [A68087F5] (AR v2)
Track 11 accurately ripped (confidence 12) [AD005639] (AR v2)

All tracks accurately ripped

End of status report

–– CUETools DB Plugin V2.1.6

[CTDB TOCID: cCIsCtphEC8ta.lv1l.1fkCQsXo-] found
Submit result: cCIsCtphEC8ta.lv1l.1fkCQsXo- has been confirmed
Track | CTDB Status
1 | (49/49) Accurately ripped
2 | (48/49) Accurately ripped
3 | (49/49) Accurately ripped
4 | (49/49) Accurately ripped
5 | (49/49) Accurately ripped
6 | (49/49) Accurately ripped
7 | (49/49) Accurately ripped
8 | (48/49) Accurately ripped
9 | (49/49) Accurately ripped
10 | (48/49) Accurately ripped
11 | (48/49) Accurately ripped

foobar2000 1.2 / Dynamic Range Meter 1.1.1
log date: 2016-08-30 16:39:58

––––––––––––––––––––––––––––––––––––––––
Analyzed: Bonnie 'Prince' Billy / Day of the Dead (Disc 2) (1)
Cass McCombs/Joe Russo / Day of the Dead (Disc 2) (2)
––––––––––––––––––––––––––––––––––––––––

DR Peak RMS Duration Track
––––––––––––––––––––––––––––––––––––––––
DR6 -0.10 dB -6.81 dB 5:47 02-Rubin and Cherise
DR7 -0.10 dB -8.25 dB 3:57 07-Dark Star
––––––––––––––––––––––––––––––––––––––––

Number of tracks: 2
Official DR value: DR6

Samplerate: 44100 Hz
Channels: 2
Bits per sample: 16
Bitrate: 856 kbps
Codec: FLAC
================================================================================

––––––––––––––––––––––––––––––––––––––––
Analyzed: Kurt Vile/J Mascis / Day of the Dead (Disc 2) (1)
Lisa Hannigan/Lee Ranaldo / Day of the Dead (Disc 2) (2)
Little Scream/Richard Reed Parry/Caroline Shaw/Garth Hudson / Day of the Dead (Disc 2) (3)
––––––––––––––––––––––––––––––––––––––––

DR Peak RMS Duration Track
––––––––––––––––––––––––––––––––––––––––
DR6 -0.10 dB -7.11 dB 5:31 01-Box of Rain
DR7 -0.10 dB -9.27 dB 3:53 06-Mountains of the Moon
DR6 -0.10 dB -7.77 dB 4:51 11-Brokedown Palace
––––––––––––––––––––––––––––––––––––––––

Number of tracks: 3
Official DR value: DR6

Samplerate: 44100 Hz
Channels: 2
Bits per sample: 16
Bitrate: 856 kbps
Codec: FLAC
================================================================================

––––––––––––––––––––––––––––––––––––––––
Statistics for: 05-Uncle John's Band
Number of samples: 11768232
Duration: 4:27
––––––––––––––––––––––––––––––––––––––––

Left Right

Peak Value: -0.10 dB –- -0.10 dB
Avg RMS: -9.41 dB –- -9.75 dB
DR channel: 6.91 dB –- 7.01 dB
––––––––––––––––––––––––––––––––––––––––

Official DR Value: DR7

Samplerate: 44100 Hz
Channels: 2
Bits per sample: 16
Bitrate: 856 kbps
Codec: FLAC
================================================================================
––––––––––––––––––––––––––––––––––––––––
Statistics for: 04-Cassidy
Number of samples: 8517768
Duration: 3:13
––––––––––––––––––––––––––––––––––––––––

Left Right

Peak Value: -0.10 dB –- -0.10 dB
Avg RMS: -7.23 dB –- -8.08 dB
DR channel: 5.97 dB –- 6.81 dB
––––––––––––––––––––––––––––––––––––––––

Official DR Value: DR6

Samplerate: 44100 Hz
Channels: 2
Bits per sample: 16
Bitrate: 856 kbps
Codec: FLAC
================================================================================
––––––––––––––––––––––––––––––––––––––––
Analyzed: The Lone Bellow / Day of the Dead (Disc 2) (1)
Tim Hecker / Day of the Dead (Disc 2) (2)
Tunde Adebimpe/Lee Ranaldo / Day of the Dead (Disc 2) (3)
––––––––––––––––––––––––––––––––––––––––

DR Peak RMS Duration Track
––––––––––––––––––––––––––––––––––––––––
DR7 -0.10 dB -7.91 dB 3:04 03-Me and My Uncle
DR8 -0.10 dB -10.44 dB 3:59 09-Transitive Refraction Axis for John Oswald
DR7 -0.10 dB -9.55 dB 9:47 10-Playing in the Band
––––––––––––––––––––––––––––––––––––––––

Number of tracks: 3
Official DR value: DR7

Samplerate: 44100 Hz
Channels: 2
Bits per sample: 16
Bitrate: 856 kbps
Codec: FLAC
================================================================================

––––––––––––––––––––––––––––––––––––––––
Statistics for: 08-Nightfall of Diamonds
Number of samples: 22377516
Duration: 8:27
––––––––––––––––––––––––––––––––––––––––

Left Right

Peak Value: -0.10 dB –- -0.10 dB
Avg RMS: -7.23 dB –- -7.35 dB
DR channel: 6.16 dB –- 6.27 dB
––––––––––––––––––––––––––––––––––––––––

Official DR Value: DR6

Samplerate: 44100 Hz
Channels: 2
Bits per sample: 16
Bitrate: 856 kbps
Codec: FLAC
================================================================================


Exact Audio Copy V1.1 from 23. June 2015

EAC extraction logfile from 26. August 2016, 0:29

Various Artists / Day of the Dead (Disc 3)

Used drive : ASUS BW-12D1S-U Adapter: 1 ID: 1

Read mode : Secure
Utilize accurate stream : Yes
Defeat audio cache : Yes
Make use of C2 pointers : No

Read offset correction : 667
Overread into Lead-In and Lead-Out : No
Fill up missing offset samples with silence : Yes
Delete leading and trailing silent blocks : No
Null samples used in CRC calculations : Yes
Used interface : Native Win32 interface for Win NT & 2000

Used output format : User Defined Encoder
Selected bitrate : 1024 kBit/s
Quality : High
Add ID3 tag : No
Command line compressor : C:\Program Files (x86)\Exact Audio Copy\FLAC\FLAC.EXE
Additional command line options : -6 -V -T "ARTIST=%artist%" -T "TITLE=%title%" -T "ALBUM=%albumtitle%" -T "DATE=%year%" -T "TRACKNUMBER=%tracknr%" -T "GENRE=%genre%" -T "COMMENT=%comment%" -T "BAND=%albuminterpret%" -T "ALBUMARTIST=%albuminterpret%" -T "COMPOSER=%composer%" %haslyrics%–tag-from-file=LYRICS="%lyricsfile%"%haslyrics% -T "DISCNUMBER=%cdnumber%" -T "TOTALDISCS=%totalcds%" -T "TOTALTRACKS=%numtracks%" %hascover%–picture="%coverfile%"%hascover% %source% -o %dest%


TOC of the extracted CD

Track | Start | Length | Start sector | End sector
––––––––––––––––––––––––––––-
1 | 0:00.00 | 5:36.06 | 0 | 25205
2 | 5:36.06 | 7:12.21 | 25206 | 57626
3 | 12:48.27 | 16:49.58 | 57627 | 133359
4 | 29:38.10 | 5:00.22 | 133360 | 155881
5 | 34:38.32 | 11:24.68 | 155882 | 207249
6 | 46:03.25 | 4:30.35 | 207250 | 227534
7 | 50:33.60 | 5:38.05 | 227535 | 252889
8 | 56:11.65 | 10:08.26 | 252890 | 298515
9 | 66:20.16 | 4:05.10 | 298516 | 316900
10 | 70:25.26 | 2:44.31 | 316901 | 329231


Range status and errors

Selected range

Filename C:\Users\Alexandre\Downloads\Torrents of Autumn\Various Artists - Day of the Dead (Disc 3).wav

Peak level 98.8 %
Extraction speed 7.8 X
Range quality 100.0 %
Test CRC F192CD7F
Copy CRC F192CD7F
Copy OK

No errors occurred


AccurateRip summary

Track 1 accurately ripped (confidence 12) [0CE47D9E] (AR v2)
Track 2 accurately ripped (confidence 12) [299DCFF5] (AR v2)
Track 3 accurately ripped (confidence 12) [EF768893] (AR v2)
Track 4 accurately ripped (confidence 12) [55D05235] (AR v2)
Track 5 accurately ripped (confidence 12) [82C3C875] (AR v2)
Track 6 accurately ripped (confidence 12) [CE291F88] (AR v2)
Track 7 accurately ripped (confidence 12) [B5DE2E8F] (AR v2)
Track 8 accurately ripped (confidence 12) [8237A20B] (AR v2)
Track 9 accurately ripped (confidence 12) [DA67AA18] (AR v2)
Track 10 accurately ripped (confidence 10) [A75160D4] (AR v2)

All tracks accurately ripped

End of status report

–– CUETools DB Plugin V2.1.6

[CTDB TOCID: kJruUzBCPGFQTY2nelPmoVhpqq0-] found
Submit result: kJruUzBCPGFQTY2nelPmoVhpqq0- has been confirmed
Track | CTDB Status
1 | (47/47) Accurately ripped
2 | (47/47) Accurately ripped
3 | (47/47) Accurately ripped
4 | (47/47) Accurately ripped
5 | (47/47) Accurately ripped
6 | (47/47) Accurately ripped
7 | (47/47) Accurately ripped
8 | (47/47) Accurately ripped
9 | (47/47) Accurately ripped
10 | (47/47) Accurately ripped

foobar2000 1.2 / Dynamic Range Meter 1.1.1
log date: 2016-08-30 16:40:23

––––––––––––––––––––––––––––––––––––––––
Analyzed: Bryce Dessner / Day of the Dead (Disc 3) (1)
Ira Kaplan / Day of the Dead (Disc 3) (2)
––––––––––––––––––––––––––––––––––––––––

DR Peak RMS Duration Track
––––––––––––––––––––––––––––––––––––––––
DR7 -0.10 dB -10.66 dB 7:12 02-Garcia Counterpoint
DR7 -0.10 dB -9.57 dB 10:08 08-Wharf Rat
––––––––––––––––––––––––––––––––––––––––

Number of tracks: 2
Official DR value: DR7

Samplerate: 44100 Hz
Channels: 2
Bits per sample: 16
Bitrate: 815 kbps
Codec: FLAC
================================================================================

––––––––––––––––––––––––––––––––––––––––
Analyzed: Josh Kaufman/Conrad Doucette/Daniel Rossen/Brooklyn Youth Chorus/So Percussio… / Day of the Dead (Disc 3) (1)
Lucinda Williams / Day of the Dead (Disc 3) (2)
––––––––––––––––––––––––––––––––––––––––

DR Peak RMS Duration Track
––––––––––––––––––––––––––––––––––––––––
DR7 -0.10 dB -8.80 dB 16:50 03-Terrapin Station (Suite)
DR7 -0.10 dB -8.18 dB 4:05 09-Going Down the Road Feelin' Bad
––––––––––––––––––––––––––––––––––––––––

Number of tracks: 2
Official DR value: DR7

Samplerate: 44100 Hz
Channels: 2
Bits per sample: 16
Bitrate: 815 kbps
Codec: FLAC
================================================================================

––––––––––––––––––––––––––––––––––––––––
Analyzed: Orchestra Baobab / Day of the Dead (Disc 3) (1)
Sam Amidon / Day of the Dead (Disc 3) (2)
––––––––––––––––––––––––––––––––––––––––

DR Peak RMS Duration Track
––––––––––––––––––––––––––––––––––––––––
DR8 -0.10 dB -8.95 dB 5:00 04-Clementine Jam
DR7 -0.50 dB -9.31 dB 2:44 10-And We Bid You Goodnight
––––––––––––––––––––––––––––––––––––––––

Number of tracks: 2
Official DR value: DR8

Samplerate: 44100 Hz
Channels: 2
Bits per sample: 16
Bitrate: 815 kbps
Codec: FLAC
================================================================================

––––––––––––––––––––––––––––––––––––––––
Statistics for: 05-China Cat Sunflower/I Know You Rider
Number of samples: 30204384
Duration: 11:25
––––––––––––––––––––––––––––––––––––––––

Left Right

Peak Value: -0.10 dB –- -0.10 dB
Avg RMS: -7.66 dB –- -7.30 dB
DR channel: 6.27 dB –- 6.08 dB
––––––––––––––––––––––––––––––––––––––––

Official DR Value: DR6

Samplerate: 44100 Hz
Channels: 2
Bits per sample: 16
Bitrate: 815 kbps
Codec: FLAC
================================================================================
––––––––––––––––––––––––––––––––––––––––
Analyzed: The National / Day of the Dead (Disc 3) (1)
This Is the Kit / Day of the Dead (Disc 3) (2)
––––––––––––––––––––––––––––––––––––––––

DR Peak RMS Duration Track
––––––––––––––––––––––––––––––––––––––––
DR7 -0.10 dB -8.56 dB 5:36 01-Peggy-O
DR7 -0.10 dB -8.34 dB 4:30 06-Jack-A-Roe
––––––––––––––––––––––––––––––––––––––––

Number of tracks: 2
Official DR value: DR7

Samplerate: 44100 Hz
Channels: 2
Bits per sample: 16
Bitrate: 815 kbps
Codec: FLAC
================================================================================

foobar2000 1.2 / Dynamic Range Meter 1.1.1
log date: 2016-08-30 16:40:17

––––––––––––––––––––––––––––––––––––––––
Statistics for: 07-Easy Wind
Number of samples: 14908740
Duration: 5:38
––––––––––––––––––––––––––––––––––––––––

Left Right

Peak Value: -0.10 dB –- -0.10 dB
Avg RMS: -12.30 dB –- -13.27 dB
DR channel: 8.59 dB –- 9.94 dB
––––––––––––––––––––––––––––––––––––––––

Official DR Value: DR9

Samplerate: 44100 Hz
Channels: 2
Bits per sample: 16
Bitrate: 815 kbps
Codec: FLAC
================================================================================


Exact Audio Copy V1.1 from 23. June 2015

EAC extraction logfile from 26. August 2016, 1:10

Various Artists / Day of the Dead (Disc 4)

Used drive : ASUS BW-12D1S-U Adapter: 1 ID: 1

Read mode : Secure
Utilize accurate stream : Yes
Defeat audio cache : Yes
Make use of C2 pointers : No

Read offset correction : 667
Overread into Lead-In and Lead-Out : No
Fill up missing offset samples with silence : Yes
Delete leading and trailing silent blocks : No
Null samples used in CRC calculations : Yes
Used interface : Native Win32 interface for Win NT & 2000

Used output format : User Defined Encoder
Selected bitrate : 1024 kBit/s
Quality : High
Add ID3 tag : No
Command line compressor : C:\Program Files (x86)\Exact Audio Copy\FLAC\FLAC.EXE
Additional command line options : -6 -V -T "ARTIST=%artist%" -T "TITLE=%title%" -T "ALBUM=%albumtitle%" -T "DATE=%year%" -T "TRACKNUMBER=%tracknr%" -T "GENRE=%genre%" -T "COMMENT=%comment%" -T "BAND=%albuminterpret%" -T "ALBUMARTIST=%albuminterpret%" -T "COMPOSER=%composer%" %haslyrics%–tag-from-file=LYRICS="%lyricsfile%"%haslyrics% -T "DISCNUMBER=%cdnumber%" -T "TOTALDISCS=%totalcds%" -T "TOTALTRACKS=%numtracks%" %hascover%–picture="%coverfile%"%hascover% %source% -o %dest%


TOC of the extracted CD

Track | Start | Length | Start sector | End sector
––––––––––––––––––––––––––––-
1 | 0:00.00 | 4:25.16 | 0 | 19890
2 | 4:25.16 | 4:55.62 | 19891 | 42077
3 | 9:21.03 | 6:14.19 | 42078 | 70146
4 | 15:35.22 | 4:40.18 | 70147 | 91164
5 | 20:15.40 | 3:29.12 | 91165 | 106851
6 | 23:44.52 | 6:29.32 | 106852 | 136058
7 | 30:14.09 | 5:09.53 | 136059 | 159286
8 | 35:23.62 | 7:39.29 | 159287 | 193740
9 | 43:03.16 | 5:18.05 | 193741 | 217595
10 | 48:21.21 | 6:35.64 | 217596 | 247284
11 | 54:57.10 | 4:35.03 | 247285 | 267912
12 | 59:32.13 | 2:39.52 | 267913 | 279889


Range status and errors

Selected range

Filename C:\Users\Alexandre\Downloads\Torrents of Autumn\Various Artists - Day of the Dead (Disc 4).wav

Peak level 98.8 %
Extraction speed 7.5 X
Range quality 100.0 %
Test CRC F63A0398
Copy CRC F63A0398
Copy OK

No errors occurred


AccurateRip summary

Track 1 accurately ripped (confidence 12) [F3EF6B87] (AR v2)
Track 2 accurately ripped (confidence 12) [5AAEAEDB] (AR v2)
Track 3 accurately ripped (confidence 12) [E4265600] (AR v2)
Track 4 accurately ripped (confidence 12) [2620844A] (AR v2)
Track 5 accurately ripped (confidence 12) [9127A0E3] (AR v2)
Track 6 accurately ripped (confidence 12) [8E82A057] (AR v2)
Track 7 accurately ripped (confidence 12) [043B10A6] (AR v2)
Track 8 accurately ripped (confidence 12) [9285EF65] (AR v2)
Track 9 accurately ripped (confidence 12) [B4531B33] (AR v2)
Track 10 accurately ripped (confidence 12) [079699AD] (AR v2)
Track 11 accurately ripped (confidence 12) [CDBD8F29] (AR v2)
Track 12 accurately ripped (confidence 12) [7285ABBA] (AR v2)

All tracks accurately ripped

End of status report

–– CUETools DB Plugin V2.1.6

[CTDB TOCID: Nc.jJTjtVAq8FiyRZBi5u2zb9S0-] found
Submit result: Nc.jJTjtVAq8FiyRZBi5u2zb9S0- has been confirmed
Track | CTDB Status
1 | (46/46) Accurately ripped
2 | (46/46) Accurately ripped
3 | (46/46) Accurately ripped
4 | (46/46) Accurately ripped
5 | (46/46) Accurately ripped
6 | (46/46) Accurately ripped
7 | (46/46) Accurately ripped
8 | (46/46) Accurately ripped
9 | (46/46) Accurately ripped
10 | (46/46) Accurately ripped
11 | (46/46) Accurately ripped
12 | (44/46) Accurately ripped

foobar2000 1.2 / Dynamic Range Meter 1.1.1
log date: 2016-08-30 16:40:45

––––––––––––––––––––––––––––––––––––––––
Statistics for: 08-Help on the Way
Number of samples: 20258952
Duration: 7:39
––––––––––––––––––––––––––––––––––––––––

Left Right

Peak Value: -0.10 dB –- -0.10 dB
Avg RMS: -11.07 dB –- -9.90 dB
DR channel: 9.14 dB –- 7.83 dB
––––––––––––––––––––––––––––––––––––––––

Official DR Value: DR8

Samplerate: 44100 Hz
Channels: 2
Bits per sample: 16
Bitrate: 796 kbps
Codec: FLAC
================================================================================
––––––––––––––––––––––––––––––––––––––––
Statistics for: 04-Stella Blue
Number of samples: 12358584
Duration: 4:40
––––––––––––––––––––––––––––––––––––––––

Left Right

Peak Value: -0.10 dB –- -0.10 dB
Avg RMS: -7.25 dB –- -7.00 dB
DR channel: 5.38 dB –- 5.33 dB
––––––––––––––––––––––––––––––––––––––––

Official DR Value: DR5

Samplerate: 44100 Hz
Channels: 2
Bits per sample: 16
Bitrate: 796 kbps
Codec: FLAC
================================================================================
––––––––––––––––––––––––––––––––––––––––
Analyzed: Marijuana Deathsquads / Day of the Dead (Disc 4) (1)
Orchestra Baobab / Day of the Dead (Disc 4) (2)
Rileys / Day of the Dead (Disc 4) (3)
Stargaze / Day of the Dead (Disc 4) (4)
––––––––––––––––––––––––––––––––––––––––

DR Peak RMS Duration Track
––––––––––––––––––––––––––––––––––––––––
DR6 -0.10 dB -8.84 dB 4:56 02-Truckin'
DR8 -0.10 dB -9.17 dB 6:29 06-Franklin's Tower
DR7 -0.10 dB -8.65 dB 5:18 09-Estimated Prophet
DR7 -0.10 dB -11.37 dB 6:36 10-What's Become of the Baby
––––––––––––––––––––––––––––––––––––––––

Number of tracks: 4
Official DR value: DR7

Samplerate: 44100 Hz
Channels: 2
Bits per sample: 16
Bitrate: 796 kbps
Codec: FLAC
================================================================================

––––––––––––––––––––––––––––––––––––––––
Statistics for: 07-Eyes of the World
Number of samples: 13658064
Duration: 5:10
––––––––––––––––––––––––––––––––––––––––

Left Right

Peak Value: -0.10 dB –- -0.10 dB
Avg RMS: -7.27 dB –- -7.32 dB
DR channel: 6.02 dB –- 6.12 dB
––––––––––––––––––––––––––––––––––––––––

Official DR Value: DR6

Samplerate: 44100 Hz
Channels: 2
Bits per sample: 16
Bitrate: 796 kbps
Codec: FLAC
================================================================================
––––––––––––––––––––––––––––––––––––––––
Statistics for: 03-Dark Star
Number of samples: 16504572
Duration: 6:14
––––––––––––––––––––––––––––––––––––––––

Left Right

Peak Value: -0.10 dB –- -0.10 dB
Avg RMS: -7.57 dB –- -7.64 dB
DR channel: 6.10 dB –- 6.03 dB
––––––––––––––––––––––––––––––––––––––––

Official DR Value: DR6

Samplerate: 44100 Hz
Channels: 2
Bits per sample: 16
Bitrate: 796 kbps
Codec: FLAC
================================================================================
––––––––––––––––––––––––––––––––––––––––
Analyzed: The Walkmen / Day of the Dead (Disc 4) (1)
Unknown Mortal Orchestra / Day of the Dead (Disc 4) (2)
Vijay Iyer / Day of the Dead (Disc 4) (3)
––––––––––––––––––––––––––––––––––––––––

DR Peak RMS Duration Track
––––––––––––––––––––––––––––––––––––––––
DR7 -0.10 dB -10.03 dB 4:25 01-Ripple
DR7 -0.10 dB -8.00 dB 3:29 05-Shakedown Street
DR8 -0.10 dB -12.18 dB 4:35 11-King Solomon's Marbles
––––––––––––––––––––––––––––––––––––––––

Number of tracks: 3
Official DR value: DR7

Samplerate: 44100 Hz
Channels: 2
Bits per sample: 16
Bitrate: 796 kbps
Codec: FLAC
================================================================================
foobar2000 1.2 / Dynamic Range Meter 1.1.1
log date: 2016-08-30 16:40:42

––––––––––––––––––––––––––––––––––––––––
Statistics for: 12-If I Had the World to Give
Number of samples: 7042476
Duration: 2:40
––––––––––––––––––––––––––––––––––––––––

Left Right

Peak Value: -0.10 dB –- -0.10 dB
Avg RMS: -10.23 dB –- -10.37 dB
DR channel: 7.96 dB –- 7.95 dB
––––––––––––––––––––––––––––––––––––––––

Official DR Value: DR8

Samplerate: 44100 Hz
Channels: 2
Bits per sample: 16
Bitrate: 796 kbps
Codec: FLAC
================================================================================


Exact Audio Copy V1.1 from 23. June 2015

EAC extraction logfile from 26. August 2016, 2:25

Various Artists / Day of the Dead (Disc 5)

Used drive : ASUS BW-12D1S-U Adapter: 1 ID: 1

Read mode : Secure
Utilize accurate stream : Yes
Defeat audio cache : Yes
Make use of C2 pointers : No

Read offset correction : 667
Overread into Lead-In and Lead-Out : No
Fill up missing offset samples with silence : Yes
Delete leading and trailing silent blocks : No
Null samples used in CRC calculations : Yes
Used interface : Native Win32 interface for Win NT & 2000

Used output format : User Defined Encoder
Selected bitrate : 1024 kBit/s
Quality : High
Add ID3 tag : No
Command line compressor : C:\Program Files (x86)\Exact Audio Copy\FLAC\FLAC.EXE
Additional command line options : -6 -V -T "ARTIST=%artist%" -T "TITLE=%title%" -T "ALBUM=%albumtitle%" -T "DATE=%year%" -T "TRACKNUMBER=%tracknr%" -T "GENRE=%genre%" -T "COMMENT=%comment%" -T "BAND=%albuminterpret%" -T "ALBUMARTIST=%albuminterpret%" -T "COMPOSER=%composer%" %haslyrics%–tag-from-file=LYRICS="%lyricsfile%"%haslyrics% -T "DISCNUMBER=%cdnumber%" -T "TOTALDISCS=%totalcds%" -T "TOTALTRACKS=%numtracks%" %hascover%–picture="%coverfile%"%hascover% %source% -o %dest%


TOC of the extracted CD

Track | Start | Length | Start sector | End sector
––––––––––––––––––––––––––––-
1 | 0:00.00 | 5:34.63 | 0 | 25112
2 | 5:34.63 | 5:12.67 | 25113 | 48579
3 | 10:47.55 | 6:09.71 | 48580 | 76325
4 | 16:57.51 | 4:48.25 | 76326 | 97950
5 | 21:46.01 | 6:00.21 | 97951 | 124971
6 | 27:46.22 | 3:17.06 | 124972 | 139752
7 | 31:03.28 | 4:51.30 | 139753 | 161607
8 | 35:54.58 | 6:16.74 | 161608 | 189881
9 | 42:11.57 | 2:05.25 | 189882 | 199281
10 | 44:17.07 | 4:16.47 | 199282 | 218528
11 | 48:33.54 | 5:02.45 | 218529 | 241223
12 | 53:36.24 | 5:02.54 | 241224 | 263927
13 | 58:39.03 | 4:15.58 | 263928 | 283110
14 | 62:54.61 | 6:34.10 | 283111 | 312670
15 | 69:28.71 | 8:37.22 | 312671 | 351467


Range status and errors

Selected range

Filename C:\Users\Alexandre\Downloads\Torrents of Autumn\Various Artists - Day of the Dead (Disc 5).wav

Peak level 100.0 %
Extraction speed 2.1 X
Range quality 100.0 %
Test CRC 2CFD487F
Copy CRC 2CFD487F
Copy OK

No errors occurred


AccurateRip summary

Track 1 accurately ripped (confidence 12) [258454D1] (AR v2)
Track 2 accurately ripped (confidence 12) [6FB425F0] (AR v2)
Track 3 accurately ripped (confidence 12) [BE6782F2] (AR v2)
Track 4 accurately ripped (confidence 12) [32650148] (AR v2)
Track 5 accurately ripped (confidence 12) [AE43D225] (AR v2)
Track 6 accurately ripped (confidence 12) [C5369214] (AR v2)
Track 7 accurately ripped (confidence 12) [6C906670] (AR v2)
Track 8 accurately ripped (confidence 12) [3B82B53A] (AR v2)
Track 9 accurately ripped (confidence 12) [A35F4498] (AR v2)
Track 10 accurately ripped (confidence 12) [890BEA74] (AR v2)
Track 11 accurately ripped (confidence 12) [3E8E8122] (AR v2)
Track 12 accurately ripped (confidence 12) [EF86C5AE] (AR v2)
Track 13 accurately ripped (confidence 12) [9BFACA10] (AR v2)
Track 14 accurately ripped (confidence 12) [D2C72015] (AR v2)
Track 15 accurately ripped (confidence 10) [E6F8147D] (AR v2)

All tracks accurately ripped

End of status report

–– CUETools DB Plugin V2.1.6

[CTDB TOCID: 82TdX9qQhQy3nCu4oGLzyJeTmbw-] found
Submit result: 82TdX9qQhQy3nCu4oGLzyJeTmbw- has been confirmed
Track | CTDB Status
1 | (47/47) Accurately ripped
2 | (47/47) Accurately ripped
3 | (47/47) Accurately ripped
4 | (47/47) Accurately ripped
5 | (47/47) Accurately ripped
6 | (47/47) Accurately ripped
7 | (47/47) Accurately ripped
8 | (47/47) Accurately ripped
9 | (47/47) Accurately ripped
10 | (47/47) Accurately ripped
11 | (47/47) Accurately ripped
12 | (47/47) Accurately ripped
13 | (47/47) Accurately ripped
14 | (47/47) Accurately ripped
15 | (47/47) Accurately ripped

foobar2000 1.2 / Dynamic Range Meter 1.1.1
log date: 2016-08-30 16:41:09

––––––––––––––––––––––––––––––––––––––––
Analyzed: Bonnie 'Prince' Billy / Day of the Dead (Disc 5) (1)
Charles Bradley/Menahan Street Band / Day of the Dead (Disc 5) (2)
Daniel Rossen/Christopher Bear / Day of the Dead (Disc 5) (3)
––––––––––––––––––––––––––––––––––––––––

DR Peak RMS Duration Track
––––––––––––––––––––––––––––––––––––––––
DR6 -0.10 dB -8.39 dB 6:10 03-Bird Song
DR7 -0.10 dB -8.10 dB 3:17 06-Cumberland Blues
DR7 -0.10 dB -9.59 dB 4:17 10-High Time
––––––––––––––––––––––––––––––––––––––––

Number of tracks: 3
Official DR value: DR7

Samplerate: 44100 Hz
Channels: 2
Bits per sample: 16
Bitrate: 844 kbps
Codec: FLAC
================================================================================

––––––––––––––––––––––––––––––––––––––––
Statistics for: 08-Cream Puff War
Number of samples: 16625112
Duration: 6:17
––––––––––––––––––––––––––––––––––––––––

Left Right

Peak Value: -0.10 dB –- -0.10 dB
Avg RMS: -8.55 dB –- -8.93 dB
DR channel: 5.96 dB –- 6.05 dB
––––––––––––––––––––––––––––––––––––––––

Official DR Value: DR6

Samplerate: 44100 Hz
Channels: 2
Bits per sample: 16
Bitrate: 844 kbps
Codec: FLAC
================================================================================
––––––––––––––––––––––––––––––––––––––––
Analyzed: Hiss Golden Messenger / Day of the Dead (Disc 5) (1)
Kodiak Blue/Shura/Winston Marshall / Day of the Dead (Disc 5) (2)
––––––––––––––––––––––––––––––––––––––––

DR Peak RMS Duration Track
––––––––––––––––––––––––––––––––––––––––
DR7 -0.10 dB -8.05 dB 4:48 04-Brown-Eyed Women
DR6 -0.10 dB -8.43 dB 5:03 12-Althea
––––––––––––––––––––––––––––––––––––––––

Number of tracks: 2
Official DR value: DR7

Samplerate: 44100 Hz
Channels: 2
Bits per sample: 16
Bitrate: 844 kbps
Codec: FLAC
================================================================================

––––––––––––––––––––––––––––––––––––––––
Analyzed: Man Forever/So Percussion/Oneida / Day of the Dead (Disc 5) (1)
Mina Tindle / Day of the Dead (Disc 5) (2)
––––––––––––––––––––––––––––––––––––––––

DR Peak RMS Duration Track
––––––––––––––––––––––––––––––––––––––––
DR8 -0.10 dB -11.25 dB 4:51 07-Drums/Space
DR7 -0.10 dB -9.03 dB 2:05 09-Rosemary
––––––––––––––––––––––––––––––––––––––––

Number of tracks: 2
Official DR value: DR7

Samplerate: 44100 Hz
Channels: 2
Bits per sample: 16
Bitrate: 844 kbps
Codec: FLAC
================================================================================

––––––––––––––––––––––––––––––––––––––––
Analyzed: Phosphorescent / Day of the Dead (Disc 5) (1)
Real Estate / Day of the Dead (Disc 5) (2)
The National/Bob Weir / Day of the Dead (Disc 5) (3)
––––––––––––––––––––––––––––––––––––––––

DR Peak RMS Duration Track
––––––––––––––––––––––––––––––––––––––––
DR6 -0.08 dB -7.73 dB 5:35 01-Standing on the Moon
DR6 -0.10 dB -7.22 dB 6:00 05-Here Comes Sunshine
DR7 -0.10 dB -8.40 dB 8:37 15-I Know You Rider [Live]
––––––––––––––––––––––––––––––––––––––––

Number of tracks: 3
Official DR value: DR6

Samplerate: 44100 Hz
Channels: 2
Bits per sample: 16
Bitrate: 844 kbps
Codec: FLAC
================================================================================

––––––––––––––––––––––––––––––––––––––––
Analyzed: The Tallest Man on Earth / Day of the Dead (Disc 5) (1)
Wilco/Bob Weir / Day of the Dead (Disc 5) (2)
––––––––––––––––––––––––––––––––––––––––

DR Peak RMS Duration Track
––––––––––––––––––––––––––––––––––––––––
DR7 -0.10 dB -8.56 dB 5:13 02-Ship of Fools
DR6 0.00 dB -8.48 dB 6:34 14-St. Stephen [Live]
––––––––––––––––––––––––––––––––––––––––

Number of tracks: 2
Official DR value: DR7

Samplerate: 44100 Hz
Channels: 2
Bits per sample: 16
Bitrate: 844 kbps
Codec: FLAC
================================================================================

––––––––––––––––––––––––––––––––––––––––
Statistics for: 11-Till the Morning Comes
Number of samples: 13344660
Duration: 5:03
––––––––––––––––––––––––––––––––––––––––

Left Right

Peak Value: -0.10 dB –- -0.10 dB
Avg RMS: -9.80 dB –- -10.76 dB
DR channel: 7.12 dB –- 8.16 dB
––––––––––––––––––––––––––––––––––––––––

Official DR Value: DR8

Samplerate: 44100 Hz
Channels: 2
Bits per sample: 16
Bitrate: 844 kbps
Codec: FLAC
================================================================================
foobar2000 1.2 / Dynamic Range Meter 1.1.1
log date: 2016-08-30 16:41:05

––––––––––––––––––––––––––––––––––––––––
Statistics for: 13-Attics of My Life
Number of samples: 11279604
Duration: 4:16
––––––––––––––––––––––––––––––––––––––––

Left Right

Peak Value: -0.10 dB –- -0.10 dB
Avg RMS: -9.66 dB –- -9.99 dB
DR channel: 6.87 dB –- 7.94 dB
––––––––––––––––––––––––––––––––––––––––

Official DR Value: DR7

Samplerate: 44100 Hz
Channels: 2
Bits per sample: 16
Bitrate: 844 kbps
Codec: FLAC
================================================================================

VA - Day of the Dead (2016) 5CD Box Set [Re-Up]

All thanks to original releaser - DoobieBro

More interesting music in My Blog