Subcategories
Tags
Language
Tags

VA - Woodstock 40: 3 Days Of Peace & Music (2009) 6 CD Box Set [Re-Up]

Posted By: Designol
VA - Woodstock 40: 3 Days Of Peace & Music (2009) 6 CD Box Set [Re-Up]

VA - Woodstock 40: 3 Days Of Peace & Music (2009) 6 CD Box Set
EAC | FLAC | Image (Cue&Log) ~ 2.79 Gb Mp3 (CBR320) ~ 1.05 Gb
Label: Rhino | # 8122 79859 7 | Time: 07:49:27 | Scans ~ 321 Mb
Classic Rock, Folk-Rock, Blues-Rock, Psychedelic Rock, Folk, R&B

As the historic festival marks its 40-year anniversary, Rhino presents Woodstock 40, six-CD boxed set that features the most comprehensive collection ever available of artists that performed at the original festival, sequenced in chronological order of performance, featuring 38 previously unreleased recordings, including the Grateful Dead, The Who, Tim Hardin, Jefferson Airplane, Country Joe & The Fish, and others. Also box includes 80-page book with extensive liner notes, photos and the complete and accurate set lists.

VA - Woodstock 40: 3 Days Of Peace & Music (2009) 6 CD Box Set [Re-Up]

In a year filled with them, Rhino offers its own homage to Woodstock's 40th anniversary by rolling out this lavish six-CD box set. It can be argued that this is merely a cash-in, but a number of things should be considered when critically looking at a set of this size, covering one of the most important events in rock music history. Perhaps the most significant aspect of this set is that it contains tracks by almost every single artist who appeared on the Woodstock stage in their proper sequence. (The exceptions are the Band and Ten Years After, the Keef Hartley Bandas well as the introductory speech by Swami Satchidananda.) The reason for this is simple: Imagine the nightmarish lisencing process the set's compilers and producers had to go through to make this happen. This challenges the assertion of the original soundtrack recording. We also hear from artists such as Sweetwater, Tim Hardin, Johnny Winter, Mountain, Ravi Shankar Quill, the Incredible String Band, the Grateful Dead, Creedence Clearwater Revival, Joe Cocker, and Blood, Sweat & Tears, and, of course, stage announcements by Chip Monck, John Morris, and Wavy Gravy.

In presenting a historical document of this proportion there are some interesting judgment calls to make. Producers Andy Zax, Mason Williams, and Cheryl Pawleski researched the original set lists exhaustively and present them here along with the music and their choices. This is terrific not only because we can "see" what we're missing, but because those of us who aren't necessarily rock historians will finally know. The sound, which was done by Zax and mastering engineer Dave Schultz, is as good as it can possibly get. The book is a monster, loaded with photos and featuring Bud Scoppa's wonderfully researched and presented liner essay, whose chapters account for each day, act by act.

Ultimately, however, it all comes down to the music. While we only get "Dark Star" by the Dead, we get (a bit) more music from the Who. The three tracks by CCR are all monsters, and hearing the five tracks by Crosby, Stills & Nash and then Crosby, Stills, Nash & Young all in correct sequence between BS&T and the Butterfield Blues Band makes total sense. One of the more welcome surprises is the expanded set by Sha Na Na. Fans of individual acts here will be delighted or complain about the treatment individual artists receive. Even though there is a bit more music, the Who still get short-sheeted (but we do get to hear the infamous row between Pete Townshend and Abbie Hoffman), as do the Dead. We didn't need more of Arlo Guthrie than we already had, and why we still needed three tracks by Melanie or more by the completely unmusical Country Joe & the Fish is a mystery. We could have used more of the Incredible String Band or Richie Havens! But these are individual complaints. The set as it stands is the ultimate document – thus far – and will likely be for some time to come.

Review by Thom Jurek, Allmusic.com

Wiki



VA - Woodstock 40: 3 Days Of Peace & Music (2009) 6 CD Box Set [Re-Up]

CD1:


Tracklist:

01. Richie Havens - Handsome Johnny
02. Richie Havens - Freedom
03. John Morris - Speech: 'Choppity Choppity'
04. Sweetwater - Look Out
05. Sweetwater - Two Worlds
06. Bert Sommer - Jennifer
07. Bert Sommer - And When It's Over
08. Bert Sommer - Smile
09. John Morris - Speech: 'There Goes Marilyn!'
10. Tim Hardin - Hang On To A Dream
11. Tim Hardin - Simple Song Of Freedom
12. John Morris - Speech: 'Flat Blue Acid'
13. Ravi Shankar - Raga Puriya-Dhanashri / Gat In Sawarital
14. Melanie - Momma Momma
15. Melanie - Beautiful People
16. Melanie - Birthday Of The Sun
17. Arlo Guthrie - Coming Into Los Angeles
18. Arlo Guthrie - Wheel Of Fortune
19. Arlo Guthrie - Every Hand In The Land
20. John Morris - Speech: 'All You Funny People'


Exact Audio Copy V0.99 prebeta 5 from 4. May 2009

EAC extraction logfile from 30. January 2011, 18:50

Various / Woodstock 40 CD1

Used drive : HL-DT-STDVDRAM GSA-H60N Adapter: 2 ID: 0

Read mode : Secure
Utilize accurate stream : Yes
Defeat audio cache : Yes
Make use of C2 pointers : No

Read offset correction : 667
Overread into Lead-In and Lead-Out : No
Fill up missing offset samples with silence : Yes
Delete leading and trailing silent blocks : No
Null samples used in CRC calculations : Yes
Used interface : Native Win32 interface for Win NT & 2000

Used output format : Internal WAV Routines
Sample format : 44.100 Hz; 16 Bit; Stereo


TOC of the extracted CD

Track | Start | Length | Start sector | End sector
––––––––––––––––––––––––––––-
1 | 0:00.00 | 5:15.07 | 0 | 23631
2 | 5:15.07 | 5:11.54 | 23632 | 47010
3 | 10:26.61 | 0:25.31 | 47011 | 48916
4 | 10:52.17 | 4:27.03 | 48917 | 68944
5 | 15:19.20 | 6:04.67 | 68945 | 96311
6 | 21:24.12 | 3:14.46 | 96312 | 110907
7 | 24:38.58 | 3:02.62 | 110908 | 124619
8 | 27:41.45 | 4:12.16 | 124620 | 143535
9 | 31:53.61 | 1:41.38 | 143536 | 151148
10 | 33:35.24 | 4:23.10 | 151149 | 170883
11 | 37:58.34 | 3:04.50 | 170884 | 184733
12 | 41:03.09 | 1:04.51 | 184734 | 189584
13 | 42:07.60 | 12:26.08 | 189585 | 245542
14 | 54:33.68 | 3:39.03 | 245543 | 261970
15 | 58:12.71 | 4:03.45 | 261971 | 280240
16 | 62:16.41 | 3:34.41 | 280241 | 296331
17 | 65:51.07 | 4:00.61 | 296332 | 314392
18 | 69:51.68 | 2:25.31 | 314393 | 325298
19 | 72:17.24 | 1:46.51 | 325299 | 333299
20 | 74:04.00 | 4:12.33 | 333300 | 352232


Range status and errors

Selected range

Filename C:\Documents and Settings\Администратор\Рабочий стол\Rip by ALLexxess\2009 Woodstock 40 (6CD Box Set Rhino Records)\CD1\Various - Woodstock 40 CD1.wav

Peak level 98.8 %
Range quality 100.0 %
Test CRC 83368AD5
Copy CRC 83368AD5
Copy OK

No errors occurred


AccurateRip summary

Track 1 accurately ripped (confidence 23) [B3B300CA]
Track 2 accurately ripped (confidence 23) [288A3ED3]
Track 3 accurately ripped (confidence 23) [59B5011F]
Track 4 accurately ripped (confidence 23) [CC324BEA]
Track 5 accurately ripped (confidence 23) [1FDE2A8D]
Track 6 accurately ripped (confidence 23) [1C69EB46]
Track 7 accurately ripped (confidence 22) [14E2C32D]
Track 8 accurately ripped (confidence 22) [363FFE53]
Track 9 accurately ripped (confidence 22) [5EEAF263]
Track 10 accurately ripped (confidence 22) [FA49369A]
Track 11 accurately ripped (confidence 21) [F0313414]
Track 12 accurately ripped (confidence 22) [4EFB0519]
Track 13 accurately ripped (confidence 21) [1514AD1E]
Track 14 accurately ripped (confidence 22) [880BD6D3]
Track 15 accurately ripped (confidence 22) [9A298C86]
Track 16 accurately ripped (confidence 22) [5E8A4AF3]
Track 17 accurately ripped (confidence 22) [0ED38025]
Track 18 accurately ripped (confidence 21) [64284B43]
Track 19 accurately ripped (confidence 22) [437B862F]
Track 20 accurately ripped (confidence 22) [EFA7BF5F]

All tracks accurately ripped

End of status report




VA - Woodstock 40: 3 Days Of Peace & Music (2009) 6 CD Box Set [Re-Up]

CD2:


Tracklist:

01. Joan Baez - Joe Hill
02. Joan Baez - Sweet Sir Galahad
03. Joan Baez - Hickory Wind
04. Joan Baez feat. Jeffrey Shurtleff - Drug Store Truck Drivin' Man
05. John Morris - Speech: 'Bring Scully His Asthma Pills'
06. John Morris - Speech: 'Insulin' & Quill - Intro
07. Quill - They Live The Life
08. Quill - That's How I Eat
09. Chip Monk - Speech: 'I Understand Your Wife Is Having A Baby'
10. Country Joe McDonald - Donovan's Reef
11. Country Joe McDonald - The 'Fish' Cheer + I-Feel-Like-I'm-Fixin'-To-Die Rag
12. Santana - Persuasion
13. Santana - Soul Sacrifice
14. John B. Sebastian - How Have You Been
15. John B. Sebastian - Rainbows All Over Your Blues
16. John B. Sebastian - I Had A Dream
17. The Incredible String Band - The Letter
18. The Incredible String Band - When You Find Out Who You Are
19. Chip Monk - Speech: 'She Is Lost'


Exact Audio Copy V0.99 prebeta 5 from 4. May 2009

EAC extraction logfile from 30. January 2011, 20:05

Various / Woodstock 40 CD2

Used drive : HL-DT-STDVDRAM GSA-H60N Adapter: 2 ID: 0

Read mode : Secure
Utilize accurate stream : Yes
Defeat audio cache : Yes
Make use of C2 pointers : No

Read offset correction : 667
Overread into Lead-In and Lead-Out : No
Fill up missing offset samples with silence : Yes
Delete leading and trailing silent blocks : No
Null samples used in CRC calculations : Yes
Used interface : Native Win32 interface for Win NT & 2000

Used output format : Internal WAV Routines
Sample format : 44.100 Hz; 16 Bit; Stereo


TOC of the extracted CD

Track | Start | Length | Start sector | End sector
––––––––––––––––––––––––––––-
1 | 0:00.00 | 2:46.29 | 0 | 12478
2 | 2:46.29 | 3:41.39 | 12479 | 29092
3 | 6:27.68 | 3:32.52 | 29093 | 45044
4 | 10:00.45 | 2:16.24 | 45045 | 55268
5 | 12:16.69 | 0:53.70 | 55269 | 59313
6 | 13:10.64 | 0:30.74 | 59314 | 61637
7 | 13:41.63 | 8:46.42 | 61638 | 101129
8 | 22:28.30 | 5:57.08 | 101130 | 127912
9 | 28:25.38 | 0:59.15 | 127913 | 132352
10 | 29:24.53 | 4:25.50 | 132353 | 152277
11 | 33:50.28 | 4:26.19 | 152278 | 172246
12 | 38:16.47 | 3:07.02 | 172247 | 186273
13 | 41:23.49 | 11:33.36 | 186274 | 238284
14 | 52:57.10 | 5:35.08 | 238285 | 263417
15 | 58:32.18 | 4:24.73 | 263418 | 283290
16 | 62:57.16 | 3:05.45 | 283291 | 297210
17 | 66:02.61 | 3:18.08 | 297211 | 312068
18 | 69:20.69 | 9:31.22 | 312069 | 354915
19 | 78:52.16 | 0:43.38 | 354916 | 358178


Range status and errors

Selected range

Filename C:\Documents and Settings\Администратор\Рабочий стол\Rip by ALLexxess\2009 Woodstock 40 (6CD Box Set Rhino Records)\CD2\Various - Woodstock 40 CD2.wav

Peak level 98.8 %
Range quality 100.0 %
Test CRC 0484A84E
Copy CRC 0484A84E
Copy OK

No errors occurred


AccurateRip summary

Track 1 accurately ripped (confidence 22) [78102C9C]
Track 2 accurately ripped (confidence 22) [759BEF20]
Track 3 accurately ripped (confidence 22) [CED67C70]
Track 4 accurately ripped (confidence 22) [0B0128F5]
Track 5 accurately ripped (confidence 22) [4EF13269]
Track 6 accurately ripped (confidence 22) [08D8BCCA]
Track 7 accurately ripped (confidence 22) [DF649281]
Track 8 accurately ripped (confidence 22) [7B054FB0]
Track 9 accurately ripped (confidence 22) [A5336303]
Track 10 accurately ripped (confidence 22) [7ACB9446]
Track 11 accurately ripped (confidence 22) [D07A1433]
Track 12 accurately ripped (confidence 22) [AE3DE5B4]
Track 13 accurately ripped (confidence 22) [C4C48A1A]
Track 14 accurately ripped (confidence 22) [5EBF01CC]
Track 15 accurately ripped (confidence 22) [6C45E992]
Track 16 accurately ripped (confidence 22) [D68E6C9D]
Track 17 accurately ripped (confidence 22) [DC5470B5]
Track 18 accurately ripped (confidence 22) [FA842124]
Track 19 accurately ripped (confidence 22) [C6BE02D2]

All tracks accurately ripped

End of status report




VA - Woodstock 40: 3 Days Of Peace & Music (2009) 6 CD Box Set [Re-Up]

CD3:


Tracklist:

01. Chip Monck - Speech: 'We're In Pretty Good Shape'
02. Canned Heat - Going Up The Country
03. Canned Heat - Woodstock Boogie
04. Chip Monck - Speech: 'The Brown Acid Is Not Specifically Too Good'
05. Mountain - Blood Of The Sun
06. Mountain - Theme For An Imaginary Western
07. Mountain - For Yasgur's Farm
08. Chip Monck - Speech: 'For Those Of You Who Have Partaken Of The Green Acid'
09. Jerry Garcia & Country Joe McDonald - Green Acid Advice
10. Grateful Dead - Dark Star
11. Creedence Clearwater Revival - Green River
12. Creedence Clearwater Revival - Bad Moon Rising


Exact Audio Copy V0.99 prebeta 5 from 4. May 2009

EAC extraction logfile from 30. January 2011, 21:29

Various / Woodstock 40 CD3

Used drive : HL-DT-STDVDRAM GSA-H60N Adapter: 2 ID: 0

Read mode : Secure
Utilize accurate stream : Yes
Defeat audio cache : Yes
Make use of C2 pointers : No

Read offset correction : 667
Overread into Lead-In and Lead-Out : No
Fill up missing offset samples with silence : Yes
Delete leading and trailing silent blocks : No
Null samples used in CRC calculations : Yes
Used interface : Native Win32 interface for Win NT & 2000

Used output format : Internal WAV Routines
Sample format : 44.100 Hz; 16 Bit; Stereo


TOC of the extracted CD

Track | Start | Length | Start sector | End sector
––––––––––––––––––––––––––––-
1 | 0:00.00 | 0:28.15 | 0 | 2114
2 | 0:28.15 | 3:57.55 | 2115 | 19944
3 | 4:25.70 | 28:33.05 | 19945 | 148424
4 | 32:59.00 | 3:40.21 | 148425 | 164945
5 | 36:39.21 | 2:55.64 | 164946 | 178134
6 | 39:35.10 | 5:13.47 | 178135 | 201656
7 | 44:48.57 | 3:49.08 | 201657 | 218839
8 | 48:37.65 | 0:16.69 | 218840 | 220108
9 | 48:54.59 | 1:39.17 | 220109 | 227550
10 | 50:34.01 | 19:12.27 | 227551 | 313977
11 | 69:46.28 | 3:00.14 | 313978 | 327491
12 | 72:46.42 | 2:12.45 | 327492 | 337436
13 | 74:59.12 | 4:14.17 | 337437 | 356503


Range status and errors

Selected range

Filename C:\Documents and Settings\Администратор\Рабочий стол\Rip by ALLexxess\2009 Woodstock 40 (6CD Box Set Rhino Records)\CD3\Various - Woodstock 40 CD3.wav

Peak level 98.8 %
Range quality 100.0 %
Test CRC 8ECD820E
Copy CRC 8ECD820E
Copy OK

No errors occurred


AccurateRip summary

Track 1 accurately ripped (confidence 20) [EA3AABCA]
Track 2 accurately ripped (confidence 22) [EE0C9288]
Track 3 accurately ripped (confidence 21) [3ED25912]
Track 4 accurately ripped (confidence 21) [D422C803]
Track 5 accurately ripped (confidence 21) [B04141CA]
Track 6 accurately ripped (confidence 21) [F13395C0]
Track 7 accurately ripped (confidence 22) [17E5E7A5]
Track 8 accurately ripped (confidence 21) [68A9D87B]
Track 9 accurately ripped (confidence 21) [CB75B4C6]
Track 10 accurately ripped (confidence 21) [456B0A60]
Track 11 accurately ripped (confidence 22) [DDB36057]
Track 12 accurately ripped (confidence 21) [C1F7C0E4]
Track 13 accurately ripped (confidence 22) [C049ED62]

All tracks accurately ripped

End of status report




VA - Woodstock 40: 3 Days Of Peace & Music (2009) 6 CD Box Set [Re-Up]

CD4:


Tracklist:

01. Janis Joplin - Work Me, Lord
02. Janis Joplin - Ball And Chain
03. Sly & The Family Stone - Medley: Dance To The Music / Music Lover / I Want To Take You Higher
04. Abbie Hoffman - Speech: 'The Politics Of The Situation'
05. The Who - Amazing Journey
06. The Who - Pinball Wizard
07. The Who - Speech: 'Abbie Hoffman vs. Pete Townshend'
08. The Who - We're Not Gonna Take It
09. Jefferson Airplane - The Other Side Of This Life
10. Jefferson Airplane - Somebody To Love
11. Jefferson Airplane - Won't You Try / Saturday Afternoon
12. Grace Slick - We Got A Whole Lot Of Orange
13. Jefferson Airplane - Volunteers
14. Wavy Gravy - Speech: 'Breakfast In Bed For 400,000'
15. John Morris - It Just Keeps Goin'
16. Max Yasgur - Speech: 'Max Yasgur Speaks'


Exact Audio Copy V0.99 prebeta 5 from 4. May 2009

EAC extraction logfile from 31. January 2011, 20:18

Various / Woodstock 40 CD4

Used drive : HL-DT-STDVDRAM GSA-H60N Adapter: 2 ID: 0

Read mode : Secure
Utilize accurate stream : Yes
Defeat audio cache : Yes
Make use of C2 pointers : No

Read offset correction : 667
Overread into Lead-In and Lead-Out : No
Fill up missing offset samples with silence : Yes
Delete leading and trailing silent blocks : No
Null samples used in CRC calculations : Yes
Used interface : Native Win32 interface for Win NT & 2000

Used output format : Internal WAV Routines
Sample format : 44.100 Hz; 16 Bit; Stereo


TOC of the extracted CD

Track | Start | Length | Start sector | End sector
––––––––––––––––––––––––––––-
1 | 0:00.00 | 7:45.43 | 0 | 34917
2 | 7:45.43 | 6:19.51 | 34918 | 63393
3 | 14:05.19 | 17:44.43 | 63394 | 143236
4 | 31:49.62 | 0:33.03 | 143237 | 145714
5 | 32:22.65 | 5:41.06 | 145715 | 171295
6 | 38:03.71 | 2:56.46 | 171296 | 184541
7 | 41:00.42 | 0:25.10 | 184542 | 186426
8 | 41:25.52 | 9:05.12 | 186427 | 227313
9 | 50:30.64 | 8:23.24 | 227314 | 265062
10 | 58:54.13 | 4:29.03 | 265063 | 285240
11 | 63:23.16 | 5:03.36 | 285241 | 308001
12 | 68:26.52 | 0:13.59 | 308002 | 309035
13 | 68:40.36 | 2:51.62 | 309036 | 321922
14 | 71:32.23 | 1:55.14 | 321923 | 330561
15 | 73:27.37 | 0:46.25 | 330562 | 334036
16 | 74:13.62 | 3:11.51 | 334037 | 348412


Range status and errors

Selected range

Filename C:\Documents and Settings\Администратор\Рабочий стол\Rip by ALLexxess\2009 Woodstock 40 (6CD Box Set Rhino Records)\CD4\Various - Woodstock 40 CD4.wav

Peak level 98.8 %
Range quality 100.0 %
Test CRC 67E8843D
Copy CRC 67E8843D
Copy OK

No errors occurred


AccurateRip summary

Track 1 accurately ripped (confidence 23) [80B99A13]
Track 2 accurately ripped (confidence 23) [4D7DEA00]
Track 3 accurately ripped (confidence 22) [10F64B25]
Track 4 accurately ripped (confidence 22) [DB5DFCA7]
Track 5 accurately ripped (confidence 22) [3400595C]
Track 6 accurately ripped (confidence 21) [E1D28E25]
Track 7 accurately ripped (confidence 22) [014FE87A]
Track 8 accurately ripped (confidence 22) [85DE16EF]
Track 9 accurately ripped (confidence 22) [DE9419D3]
Track 10 accurately ripped (confidence 22) [01A589F3]
Track 11 accurately ripped (confidence 22) [530C1488]
Track 12 accurately ripped (confidence 22) [3835ECC6]
Track 13 accurately ripped (confidence 22) [F2E3FC27]
Track 14 accurately ripped (confidence 22) [A89F3651]
Track 15 accurately ripped (confidence 22) [72C81C56]
Track 16 accurately ripped (confidence 21) [C011ADE8]

All tracks accurately ripped

End of status report




VA - Woodstock 40: 3 Days Of Peace & Music (2009) 6 CD Box Set [Re-Up]

CD5:


Tracklist:

01. Joe Cocker - Feelin' Alright
02. Joe Cocker - Let's Go Get Stoned
03. Joe Cocker - With A Little Help From My Friends
04. The Rainstorm
05. Country Joe & The Fish - Rock & Soul Music
06. Country Joe & The Fish - Love
07. Country Joe & The Fish - Not So Sweet Martha Lorraine
08. Country Joe & The Fish - Summer Dresses
09. Country Joe & The Fish - Silver And Gold
10. Country Joe & The Fish - Rock & Soul Music (Reprise)
11. Johnny Winter - Leland Mississippi Blues
12. Johnny Winter - Mean Town Blues
13. Blood, Sweat & Tears - You've Made Me So Very Happy


Exact Audio Copy V0.99 prebeta 5 from 4. May 2009

EAC extraction logfile from 31. January 2011, 21:57

Various / Woodstock 40 CD5

Used drive : HL-DT-STDVDRAM GSA-H60N Adapter: 2 ID: 0

Read mode : Secure
Utilize accurate stream : Yes
Defeat audio cache : Yes
Make use of C2 pointers : No

Read offset correction : 667
Overread into Lead-In and Lead-Out : No
Fill up missing offset samples with silence : Yes
Delete leading and trailing silent blocks : No
Null samples used in CRC calculations : Yes
Used interface : Native Win32 interface for Win NT & 2000

Used output format : Internal WAV Routines
Sample format : 44.100 Hz; 16 Bit; Stereo


TOC of the extracted CD

Track | Start | Length | Start sector | End sector
––––––––––––––––––––––––––––-
1 | 0:00.00 | 5:38.38 | 0 | 25387
2 | 5:38.38 | 6:59.04 | 25388 | 56816
3 | 12:37.42 | 7:44.62 | 56817 | 91678
4 | 20:22.29 | 5:20.33 | 91679 | 115711
5 | 25:42.62 | 2:08.31 | 115712 | 125342
6 | 27:51.18 | 3:03.00 | 125343 | 139067
7 | 30:54.18 | 4:13.54 | 139068 | 158096
8 | 35:07.72 | 5:13.11 | 158097 | 181582
9 | 40:21.08 | 4:48.51 | 181583 | 203233
10 | 45:09.59 | 12:24.60 | 203234 | 259093
11 | 57:34.44 | 4:54.52 | 259094 | 281195
12 | 62:29.21 | 10:33.55 | 281196 | 328725
13 | 73:03.01 | 4:41.00 | 328726 | 349800


Range status and errors

Selected range

Filename C:\Documents and Settings\Администратор\Рабочий стол\Rip by ALLexxess\2009 Woodstock 40 (6CD Box Set Rhino Records)\CD5\Various - Woodstock 40 CD5.wav

Peak level 98.8 %
Range quality 100.0 %
Test CRC E85A0A73
Copy CRC E85A0A73
Copy OK

No errors occurred


AccurateRip summary

Track 1 accurately ripped (confidence 22) [1CD4FFC3]
Track 2 accurately ripped (confidence 22) [2E7F0EEE]
Track 3 accurately ripped (confidence 23) [E7BE72F8]
Track 4 accurately ripped (confidence 22) [C5163B8D]
Track 5 accurately ripped (confidence 22) [66DBB5EA]
Track 6 accurately ripped (confidence 22) [ADC26F97]
Track 7 accurately ripped (confidence 22) [48030217]
Track 8 accurately ripped (confidence 22) [99E579E7]
Track 9 accurately ripped (confidence 22) [E813A366]
Track 10 accurately ripped (confidence 22) [C66A1FFF]
Track 11 accurately ripped (confidence 22) [37769BD7]
Track 12 accurately ripped (confidence 22) [006B8A1E]
Track 13 accurately ripped (confidence 20) [9A92D1A0]

All tracks accurately ripped

End of status report




VA - Woodstock 40: 3 Days Of Peace & Music (2009) 6 CD Box Set [Re-Up]

CD6:


Tracklist:

01. Crosby Stills & Nash - Suite: Judy Blue Eyes
02. Crosby Stills & Nash - Guinnevere
03. Crosby Stills & Nash - Marrakesh Express
04. Crosby Stills & Nash - 4 + 20
05. Crosby Stills & Nash - Sea Of Madness
06. Crosby Stills & Nash - Wooden Ships
07. The Butterfield Blues Band - No Amount Of Loving
08. The Butterfield Blues Band - Love March
09. The Butterfield Blues Band - Everything’s Gonna Be Alright
10. Sha Na Na - Get A Job
11. Sha Na Na - At The Hop
12. Sha Na Na - Get A Job (Reprise)
13. Jimi Hendrix - The Star Spangled Banner, Purple Haze, Woodstock
14. Chip Monk - Speech: 'Woodstock Farewell'


Exact Audio Copy V0.99 prebeta 5 from 4. May 2009

EAC extraction logfile from 31. January 2011, 23:56

Various / Woodstock 40 CD6

Used drive : HL-DT-STDVDRAM GSA-H60N Adapter: 2 ID: 0

Read mode : Secure
Utilize accurate stream : Yes
Defeat audio cache : Yes
Make use of C2 pointers : No

Read offset correction : 667
Overread into Lead-In and Lead-Out : No
Fill up missing offset samples with silence : Yes
Delete leading and trailing silent blocks : No
Null samples used in CRC calculations : Yes
Used interface : Native Win32 interface for Win NT & 2000

Used output format : Internal WAV Routines
Sample format : 44.100 Hz; 16 Bit; Stereo


TOC of the extracted CD

Track | Start | Length | Start sector | End sector
––––––––––––––––––––––––––––-
1 | 0:00.00 | 9:00.26 | 0 | 40525
2 | 9:00.26 | 6:01.22 | 40526 | 67622
3 | 15:01.48 | 2:43.73 | 67623 | 79920
4 | 17:45.46 | 2:27.13 | 79921 | 90958
5 | 20:12.59 | 3:27.16 | 90959 | 106499
6 | 23:40.00 | 5:27.62 | 106500 | 131086
7 | 29:07.62 | 6:46.09 | 131087 | 161545
8 | 35:53.71 | 9:02.66 | 161546 | 202261
9 | 44:56.62 | 9:28.46 | 202262 | 244907
10 | 54:25.33 | 2:22.24 | 244908 | 255581
11 | 56:47.57 | 1:51.24 | 255582 | 263930
12 | 58:39.06 | 0:23.25 | 263931 | 265680
13 | 59:02.31 | 14:40.47 | 265681 | 331727
14 | 73:43.03 | 3:29.39 | 331728 | 347441


Range status and errors

Selected range

Filename C:\Documents and Settings\Администратор\Рабочий стол\Rip by ALLexxess\2009 Woodstock 40 (6CD Box Set Rhino Records)\CD6\Various - Woodstock 40 CD6.wav

Peak level 100.0 %
Range quality 99.9 %
Test CRC B02DE193
Copy CRC B02DE193
Copy OK

No errors occurred


AccurateRip summary

Track 1 accurately ripped (confidence 23) [153D7B5C]
Track 2 accurately ripped (confidence 23) [1135849B]
Track 3 accurately ripped (confidence 23) [3C494A1D]
Track 4 accurately ripped (confidence 23) [A836917D]
Track 5 accurately ripped (confidence 23) [19DB2D17]
Track 6 accurately ripped (confidence 23) [A8707201]
Track 7 accurately ripped (confidence 22) [16B69BB4]
Track 8 accurately ripped (confidence 22) [E9665587]
Track 9 accurately ripped (confidence 22) [E01FA438]
Track 10 accurately ripped (confidence 22) [E97DA9C5]
Track 11 accurately ripped (confidence 22) [032BE874]
Track 12 accurately ripped (confidence 22) [ED7CDD8E]
Track 13 accurately ripped (confidence 23) [C7BB4FCC]
Track 14 accurately ripped (confidence 21) [9A39EF29]

All tracks accurately ripped

End of status report




VA - Woodstock 40: 3 Days Of Peace & Music (2009) 6 CD Box Set [Re-Up]

All thanks to original releaser - ALLexxess

More interesting music in My Blog

VA - Woodstock 94 (1994) 2CDs