Subcategories
Tags
Language
Tags

VA - Native Wisdom: World Music of the Spirit (1996)

Posted By: Designol
VA - Native Wisdom: World Music of the Spirit (1996)

VA - Native Wisdom: World Music of the Spirit (1996)
EAC | FLAC | Image (Cue&Log) ~ 340 Mb | Scans included | Time: 00:52:07
World, Ethnic Fusion, New Age, Folk | Label: Narada | # ND-63923

Native Wisdom: World Music Of The Spirit collects music from all over the globe in an attempt to offer an introduction to world music. Though any effort like this is bound to be incomplete, the album does indeed offer an effective introduction to broad array of musics. Neophyte listeners would be well-served by the collection, since it lets them sample a variety of styles.

Review by Stephen Thomas Erlewine, Allmusic.com

Tracklist:

01. Samite of Uganda - Anzala (4:11)
02. Gabrielle Roth - Spirit (7:03)
03. Rumillajta - Wiracocha (5:00)
04. Primeaux & Mike - Healings Song - Walking in Prayer (1:41)
05. Noirin Ni Riain - An Caoineadh (2:25)
06. Samite of Uganda - Lawaki (4:06)
07. Rumillajta - No Se Muere Nunca (4:39)
08. The Tahitian Choir - Te Pure A Te Fatu (2:56)
09. Mesa Music Consort - Many Feathers' Chant (3:55)
10. Gabrielle Roth - Shaman's Prayer (5:12)
11. Mac-talla - Griogal Cridhe (4:23)
12. Bernardo Rubaja - Celebration in the Village (3:30)
13. Hans Zimmer - Millennium Theme (3:05)


Exact Audio Copy V1.0 beta 3 from 29. August 2011

Отчёт EAC об извлечении, выполненном 30. сентября 2015, 22:37

Various Artists / Native Wisdom - World Music of the Spirit

Дисковод: hp CDDVDW TS-H653T Adapter: 5 ID: 1

Режим чтения : Достоверность
Использование точного потока : Да
Отключение кэша аудио : Да
Использование указателей C2 : Нет

Коррекция смещения при чтении : 6
Способность читать области Lead-in и Lead-out : Нет
Заполнение пропущенных сэмплов тишиной : Да
Удаление блоков с тишиной в начале и конце : Нет
При вычислениях CRC использовались нулевые сэмплы : Да
Интерфейс : Встроенный Win32-интерфейс для Win NT/2000

Выходной формат : Пользовательский кодировщик
Выбранный битрейт : 128 kBit/s
Качество : Высокий
Добавление ID3-тега : Нет
Утилита сжатия : C:\Program Files\Exact Audio Copy\Flac\flac.exe
Дополнительные параметры : -V -8 -T "Date=%year%" -T "Genre=%genre%" %source%


TOC извлечённого CD

Трек | Старт | Длительность | Начальный сектор | Конечный сектор
––––––––––––––––––––––––––––––––––-
1 | 0:00.00 | 4:11.22 | 0 | 18846
2 | 4:11.22 | 7:02.73 | 18847 | 50569
3 | 11:14.20 | 5:00.25 | 50570 | 73094
4 | 16:14.45 | 1:41.25 | 73095 | 80694
5 | 17:55.70 | 2:25.27 | 80695 | 91596
6 | 20:21.22 | 4:05.58 | 91597 | 110029
7 | 24:27.05 | 4:38.67 | 110030 | 130946
8 | 29:05.72 | 2:55.43 | 130947 | 144114
9 | 32:01.40 | 3:55.12 | 144115 | 161751
10 | 35:56.52 | 5:12.25 | 161752 | 185176
11 | 41:09.02 | 4:23.15 | 185177 | 204916
12 | 45:32.17 | 3:29.45 | 204917 | 220636
13 | 49:01.62 | 3:04.68 | 220637 | 234504


Характеристики диапазона извлечения и сообщения об ошибках

Выбранный диапазон

Имя файла C:\Documents and Settings\biotox\Рабочий стол\Новая папка (2)\Various Artists - Native Wisdom - World Music of the Spirit.wav

Пиковый уровень 99.9 %
Скорость извлечения 7.5 X
Качество диапазона 100.0 %
CRC теста C5BD19C8
CRC копии C5BD19C8
Копирование… OK

Ошибок не произошло


AccurateRip: сводка

Трек 1 : извлечено точно (доверие 5) [F0B08AA9] (AR v2)
Трек 2 : извлечено точно (доверие 5) [F3EF3003] (AR v2)
Трек 3 : извлечено точно (доверие 5) [35FB189A] (AR v2)
Трек 4 : извлечено точно (доверие 5) [9AA4D631] (AR v2)
Трек 5 : извлечено точно (доверие 5) [CEFEC764] (AR v2)
Трек 6 : извлечено точно (доверие 5) [3A616536] (AR v2)
Трек 7 : извлечено точно (доверие 5) [382FBB40] (AR v2)
Трек 8 : извлечено точно (доверие 5) [4A03CAC5] (AR v2)
Трек 9 : извлечено точно (доверие 5) [9F855E54] (AR v2)
Трек 10 : извлечено точно (доверие 5) [1ED04641] (AR v2)
Трек 11 : извлечено точно (доверие 5) [03266F2E] (AR v2)
Трек 12 : извлечено точно (доверие 5) [1E8A55D3] (AR v2)
Трек 13 : извлечено точно (доверие 5) [AB9D8607] (AR v2)

Все треки извлечены точно

Конец отчёта

==== Контрольная сумма отчёта 98402F498173A16EEDA77237911E6CAAA77237A807E4E3648ED7773891CAE715 ====

foobar2000 1.2 / Dynamic Range Meter 1.1.1
log date: 2015-10-01 18:28:55

––––––––––––––––––––––––––––––––––––––––
Analyzed: Gabrielle Roth / Native Wisdom - World Music of the Spirit (1-2)
Hans Zimmer / Native Wisdom - World Music of the Spirit (3)
––––––––––––––––––––––––––––––––––––––––

DR Peak RMS Duration Track
––––––––––––––––––––––––––––––––––––––––
DR15 -0.01 dB -16.35 dB 7:03 02-Spirit
DR13 -0.63 dB -16.56 dB 5:12 10-Shaman's Prayer
DR11 -0.01 dB -13.78 dB 3:05 13-Millennium Theme
––––––––––––––––––––––––––––––––––––––––

Number of tracks: 3
Official DR value: DR13

Samplerate: 44100 Hz
Channels: 2
Bits per sample: 16
Bitrate: 805 kbps
Codec: FLAC
================================================================================

––––––––––––––––––––––––––––––––––––––––
Statistics for: 11-Griogal Cridhe
Number of samples: 11607120
Duration: 4:23
––––––––––––––––––––––––––––––––––––––––

Left Right

Peak Value: -1.50 dB –- -1.50 dB
Avg RMS: -16.88 dB –- -16.57 dB
DR channel: 11.22 dB –- 10.94 dB
––––––––––––––––––––––––––––––––––––––––

Official DR Value: DR11

Samplerate: 44100 Hz
Channels: 2
Bits per sample: 16
Bitrate: 805 kbps
Codec: FLAC
================================================================================
––––––––––––––––––––––––––––––––––––––––
Statistics for: 09-Many Feathers' Chant
Number of samples: 10370556
Duration: 3:55
––––––––––––––––––––––––––––––––––––––––

Left Right

Peak Value: -0.51 dB –- -0.51 dB
Avg RMS: -13.98 dB –- -13.66 dB
DR channel: 11.40 dB –- 10.73 dB
––––––––––––––––––––––––––––––––––––––––

Official DR Value: DR11

Samplerate: 44100 Hz
Channels: 2
Bits per sample: 16
Bitrate: 805 kbps
Codec: FLAC
================================================================================
––––––––––––––––––––––––––––––––––––––––
Statistics for: 05-An Caoineadh
Number of samples: 6410376
Duration: 2:25
––––––––––––––––––––––––––––––––––––––––

Left Right

Peak Value: -5.78 dB –- -5.41 dB
Avg RMS: -22.80 dB –- -22.72 dB
DR channel: 10.01 dB –- 10.74 dB
––––––––––––––––––––––––––––––––––––––––

Official DR Value: DR10

Samplerate: 44100 Hz
Channels: 2
Bits per sample: 16
Bitrate: 805 kbps
Codec: FLAC
================================================================================
––––––––––––––––––––––––––––––––––––––––
Statistics for: 04-Healings Song - Walking in Prayer
Number of samples: 4468800
Duration: 1:41
––––––––––––––––––––––––––––––––––––––––

Left Right

Peak Value: -3.01 dB –- -3.01 dB
Avg RMS: -13.76 dB –- -14.31 dB
DR channel: 9.13 dB –- 9.31 dB
––––––––––––––––––––––––––––––––––––––––

Official DR Value: DR9

Samplerate: 44100 Hz
Channels: 2
Bits per sample: 16
Bitrate: 805 kbps
Codec: FLAC
================================================================================
––––––––––––––––––––––––––––––––––––––––
Analyzed: Rumillajta / Native Wisdom - World Music of the Spirit
––––––––––––––––––––––––––––––––––––––––

DR Peak RMS Duration Track
––––––––––––––––––––––––––––––––––––––––
DR12 -0.01 dB -15.20 dB 5:00 03-Wiracocha
DR11 -0.07 dB -13.90 dB 4:39 07-No Se Muere Nunca
––––––––––––––––––––––––––––––––––––––––

Number of tracks: 2
Official DR value: DR11

Samplerate: 44100 Hz
Channels: 2
Bits per sample: 16
Bitrate: 805 kbps
Codec: FLAC
================================================================================

––––––––––––––––––––––––––––––––––––––––
Analyzed: Samite of Uganda / Native Wisdom - World Music of the Spirit (1-2)
The Tahitian Choir / Native Wisdom - World Music of the Spirit (3)
––––––––––––––––––––––––––––––––––––––––

DR Peak RMS Duration Track
––––––––––––––––––––––––––––––––––––––––
DR12 -0.01 dB -14.92 dB 4:11 01-Anzala
DR12 -0.01 dB -13.88 dB 4:06 06-Lawaki
DR12 -0.23 dB -14.32 dB 2:56 08-Te Pure A Te Fatu
––––––––––––––––––––––––––––––––––––––––

Number of tracks: 3
Official DR value: DR12

Samplerate: 44100 Hz
Channels: 2
Bits per sample: 16
Bitrate: 805 kbps
Codec: FLAC
================================================================================

foobar2000 1.2 / Dynamic Range Meter 1.1.1
log date: 2015-10-01 18:28:51

––––––––––––––––––––––––––––––––––––––––
Statistics for: 12-Celebration in the Village
Number of samples: 9243360
Duration: 3:30
––––––––––––––––––––––––––––––––––––––––

Left Right

Peak Value: -1.17 dB –- -0.07 dB
Avg RMS: -17.39 dB –- -16.46 dB
DR channel: 13.47 dB –- 13.33 dB
––––––––––––––––––––––––––––––––––––––––

Official DR Value: DR13

Samplerate: 44100 Hz
Channels: 2
Bits per sample: 16
Bitrate: 805 kbps
Codec: FLAC
================================================================================

VA - Native Wisdom: World Music of the Spirit (1996)

VA - Native Wisdom: World Music of the Spirit (1996)

All thanks to original releaser - biotox18

More interesting music in My Blog