Tags
Language
Tags

V.A. - Simply Spa Chill [4CD Box Set] (2010)

Posted By: gribovar
V.A. - Simply Spa Chill [4CD Box Set] (2010)

V.A. - Simply Spa Chill [4CD Box Set] (2010)
EAC Rip | FLAC (image+.cue+log) - 773 MB | MP3 CBR 320 kbps (LAME 3.93) - 609 MB | Covers - 8 MB
Genre: New Age, Ambient, Relaxation | RAR 3% Rec. | Label: Union Square Music (SIMPLYCD084)

Visiting a spa is an increasingly popular way of escaping the stresses and strains of everyday life. Whether you're a frantic professional, a stressed-out Mum, or just in need of some 'me time' it's important to take a breather from our busy schedules to relax and recharge our batteries. With over four hours of peaceful music, this 4CD collection of Spa Chill recordings will transport you to your sanctuary!
CD 1 Tracklist:
01. Orient Expressions - Tranquility
02. Memories of Goa - Dawn Meditation
03. Beyond Bombay - Adagio
04. Prem Gulshan - Relax
05. Orient Expressions - Beyond Infinity
06. Tabla Temple - Eastern Persuasions
07. Prem Gulshan - Drifting Spirits
08. Karma Soundz - Enchanted Glade

Total time: 01:00:18

CD 2 Tracklist:
01. Hanndi - Peaceful Dawn
02. Karma Soundz - First Light
03. Beyond Bombay - Contact
04. Hanndi - Luminosity
05. Prem Gulshan - Pale Tide
06. Beyond Bombay - Presence
07. Hanndi - Cyclic Motion
08. Saffron Sounds - Ascending Spirits

Total time: 01:07:08

CD 3 Tracklist:
01. Beyond Bombay - Incandescence
02. Karma Soundz - Singerella
03. Hanndi - Resting Place
04. Prem Gulshan - Airbourne
05. Orient Expressions - Forgotten Place
06. Memories of Goa - Seclusion
07. Prem Gulshan - Calm Radience
08. Hanndi - Resonance

Total time: 01:09:54

CD 4 Tracklist:
01. Akash Asher - Distant Memories
02. Prem Gulshan - Another Place
03. Akash Asher - Mindwaves
04. Saffron Sounds - Pulse
05. Akash Asher - Whispering Spirits
06. Karma Beatz - Urban Chill
07. Akash Asher - Affirmation
08. Salaam Soundclash - Changing Tides

Total time: 01:01:42

Exact Audio Copy V1.1 from 23. June 2015

EAC extraction logfile from 23. July 2015, 3:01

Various Artists / Simply Spa Chill CD1

Used drive : PIONEER BD-RW BDR-206 Adapter: 1 ID: 0

Read mode : Secure
Utilize accurate stream : Yes
Defeat audio cache : Yes
Make use of C2 pointers : No

Read offset correction : 667
Overread into Lead-In and Lead-Out : No
Fill up missing offset samples with silence : Yes
Delete leading and trailing silent blocks : No
Null samples used in CRC calculations : Yes
Used interface : Native Win32 interface for Win NT & 2000

Used output format : User Defined Encoder
Selected bitrate : 768 kBit/s
Quality : High
Add ID3 tag : No
Command line compressor : C:\Program Files (x86)\Exact Audio Copy\Flac\flac.exe
Additional command line options : -8 -V -T "TITLE=%title%" -T "ARTIST=%artist%" -T "ALBUMARTIST=%albumartist%" -T "ALBUM=%albumtitle%" -T "DATE=%year%" -T "TRACKNUMBER=%tracknr%" -T "TRACKTOTAL=%numtracks%" -T "GENRE=%genre%" -T "COMMENT=%comment%" -T "PERFORMER=%albuminterpret%" -T "COMPOSER=%composer%" %source% -o %dest%


TOC of the extracted CD

Track | Start | Length | Start sector | End sector
––––––––––––––––––––––––––––-
1 | 0:00.00 | 8:09.41 | 0 | 36715
2 | 8:09.41 | 7:32.49 | 36716 | 70664
3 | 15:42.15 | 8:35.66 | 70665 | 109355
4 | 24:18.06 | 6:28.30 | 109356 | 138485
5 | 30:46.36 | 7:59.23 | 138486 | 174433
6 | 38:45.59 | 5:38.07 | 174434 | 199790
7 | 44:23.66 | 7:56.04 | 199791 | 235494
8 | 52:19.70 | 7:58.08 | 235495 | 271352


Range status and errors

Selected range

Filename D:\Сборники (Flac)\VA - Simply Spa Chill (2010) 4CD (Flac+.cue)\CD1\Various Artists - Simply Spa Chill CD1.wav

Peak level 77.3 %
Extraction speed 1.1 X
Range quality 100.0 %
Test CRC 4144333F
Copy CRC 4144333F
Copy OK

No errors occurred


AccurateRip summary

Track 1 accurately ripped (confidence 1) [0E54D2D8] (AR v1)
Track 2 accurately ripped (confidence 1) [0F56B08D] (AR v1)
Track 3 accurately ripped (confidence 1) [85371C98] (AR v1)
Track 4 accurately ripped (confidence 1) [0CEC41E2] (AR v1)
Track 5 accurately ripped (confidence 1) [7D965ACA] (AR v1)
Track 6 accurately ripped (confidence 1) [ED9FF15C] (AR v1)
Track 7 accurately ripped (confidence 1) [2472984A] (AR v1)
Track 8 accurately ripped (confidence 1) [47C16109] (AR v1)

All tracks accurately ripped

End of status report

–– CUETools DB Plugin V2.1.6

[CTDB TOCID: s53APt3zv4fVtzS0qoy7m3agOJo-] found
Submit result: s53APt3zv4fVtzS0qoy7m3agOJo- has been confirmed
Track | CTDB Status
1 | (1/1) Accurately ripped
2 | (1/1) Accurately ripped
3 | (1/1) Accurately ripped
4 | (1/1) Accurately ripped
5 | (1/1) Accurately ripped
6 | (1/1) Accurately ripped
7 | (1/1) Accurately ripped
8 | (1/1) Accurately ripped


==== Log checksum 058D7CB18679AE9DFBA56D845E7B974BCB6014A49AA41F157747B67F185D20A3 ====

[CUETools log; Date: 06.05.2021 2:21:26; Version: 2.1.4]
[CTDB TOCID: s53APt3zv4fVtzS0qoy7m3agOJo-] found.
Track | CTDB Status
1 | (12/12) Accurately ripped
2 | (12/12) Accurately ripped
3 | (12/12) Accurately ripped
4 | (12/12) Accurately ripped
5 | (12/12) Accurately ripped
6 | (12/12) Accurately ripped
7 | (12/12) Accurately ripped
8 | (12/12) Accurately ripped
[AccurateRip ID: 0012dd48-007ceac0-6b0e2208] found.
Track [ CRC | V2 ] Status
01 [0e54d2d8|6f616d83] (0+3/3) Accurately ripped
02 [0f56b08d|fdb42484] (0+3/3) Accurately ripped
03 [85371c98|e6a4e3a5] (0+3/3) Accurately ripped
04 [0cec41e2|14f83546] (0+3/3) Accurately ripped
05 [7d965aca|0e8c5da8] (0+3/3) Accurately ripped
06 [ed9ff15c|a55df0c0] (0+3/3) Accurately ripped
07 [2472984a|f6866bc9] (0+3/3) Accurately ripped
08 [47c16109|ff5739b0] (0+3/3) Accurately ripped

Track Peak [ CRC32 ] [W/O NULL] [ LOG ]
– 77,3 [4144333F] [95D077D9] CRC32
01 77,3 [0A138CC2] [4E1BD0CF]
02 65,7 [7078BEE3] [8B9B1E94]
03 40,8 [77BEAD28] [8A536818]
04 42,3 [4856BEC2] [CBFD5F3F]
05 41,5 [AE290BEE] [14A97BAA]
06 54,0 [15673D23] [EE925CAF]
07 61,2 [3BDB700A] [CBB2B308]
08 74,6 [42A8B1E2] [15B7D3A0]

Exact Audio Copy V1.1 from 23. June 2015

EAC extraction logfile from 23. July 2015, 10:54

Various Artists / Simply Spa Chill CD2

Used drive : PIONEER BD-RW BDR-206 Adapter: 1 ID: 0

Read mode : Secure
Utilize accurate stream : Yes
Defeat audio cache : Yes
Make use of C2 pointers : No

Read offset correction : 667
Overread into Lead-In and Lead-Out : No
Fill up missing offset samples with silence : Yes
Delete leading and trailing silent blocks : No
Null samples used in CRC calculations : Yes
Used interface : Native Win32 interface for Win NT & 2000

Used output format : User Defined Encoder
Selected bitrate : 768 kBit/s
Quality : High
Add ID3 tag : No
Command line compressor : C:\Program Files (x86)\Exact Audio Copy\Flac\flac.exe
Additional command line options : -8 -V -T "TITLE=%title%" -T "ARTIST=%artist%" -T "ALBUMARTIST=%albumartist%" -T "ALBUM=%albumtitle%" -T "DATE=%year%" -T "TRACKNUMBER=%tracknr%" -T "TRACKTOTAL=%numtracks%" -T "GENRE=%genre%" -T "COMMENT=%comment%" -T "PERFORMER=%albuminterpret%" -T "COMPOSER=%composer%" %source% -o %dest%


TOC of the extracted CD

Track | Start | Length | Start sector | End sector
––––––––––––––––––––––––––––-
1 | 0:00.00 | 8:35.21 | 0 | 38645
2 | 8:35.21 | 7:53.63 | 38646 | 74183
3 | 16:29.09 | 7:37.13 | 74184 | 108471
4 | 24:06.22 | 7:44.28 | 108472 | 143299
5 | 31:50.50 | 8:36.55 | 143300 | 182054
6 | 40:27.30 | 8:33.73 | 182055 | 220602
7 | 49:01.28 | 7:37.04 | 220603 | 254881
8 | 56:38.32 | 10:29.10 | 254882 | 302066


Range status and errors

Selected range

Filename D:\Сборники (Flac)\VA - Simply Spa Chill (2010) 4CD (Flac+.cue)\CD2\Various Artists - Simply Spa Chill CD2.wav

Peak level 91.6 %
Extraction speed 1.1 X
Range quality 100.0 %
Test CRC 697221A6
Copy CRC 697221A6
Copy OK

No errors occurred


AccurateRip summary

Track 1 accurately ripped (confidence 1) [6B5546DC] (AR v1)
Track 2 accurately ripped (confidence 1) [10EB918D] (AR v1)
Track 3 accurately ripped (confidence 1) [07B3D5CD] (AR v1)
Track 4 accurately ripped (confidence 1) [9099D5CD] (AR v1)
Track 5 accurately ripped (confidence 1) [405196A4] (AR v1)
Track 6 accurately ripped (confidence 1) [99132FAE] (AR v1)
Track 7 accurately ripped (confidence 1) [5F107406] (AR v1)
Track 8 accurately ripped (confidence 1) [9955964B] (AR v1)

All tracks accurately ripped

End of status report

–– CUETools DB Plugin V2.1.6

[CTDB TOCID: W.Hr_KAbuHjJ.1xRwBUx5ZQqrfg-] found
Submit result: W.Hr_KAbuHjJ.1xRwBUx5ZQqrfg- has been confirmed
Track | CTDB Status
1 | (1/1) Accurately ripped
2 | (1/1) Accurately ripped
3 | (1/1) Accurately ripped
4 | (1/1) Accurately ripped
5 | (1/1) Accurately ripped
6 | (1/1) Accurately ripped
7 | (1/1) Accurately ripped
8 | (1/1) Accurately ripped


==== Log checksum 18029F344679B8AC0C97A66C63D5D4E6EF6EF01D03C9E7A7CD33E78F8497352B ====

[CUETools log; Date: 06.05.2021 2:22:21; Version: 2.1.4]
[CTDB TOCID: W.Hr_KAbuHjJ.1xRwBUx5ZQqrfg-] found.
Track | CTDB Status
1 | (12/12) Accurately ripped
2 | (12/12) Accurately ripped
3 | (12/12) Accurately ripped
4 | (12/12) Accurately ripped
5 | (12/12) Accurately ripped
6 | (12/12) Accurately ripped
7 | (12/12) Accurately ripped
8 | (12/12) Accurately ripped
[AccurateRip ID: 001434b1-0086f49b-6a0fbb08] found.
Track [ CRC | V2 ] Status
01 [6b5546dc|50aa6d8d] (0+3/3) Accurately ripped
02 [10eb918d|effc0fd2] (0+3/3) Accurately ripped
03 [07b3d5cd|bdbb6c48] (0+3/3) Accurately ripped
04 [9099d5cd|a7e0d4be] (0+3/3) Accurately ripped
05 [405196a4|8df789ac] (0+3/3) Accurately ripped
06 [99132fae|a5756c4e] (0+3/3) Accurately ripped
07 [5f107406|7ee40c5b] (0+3/3) Accurately ripped
08 [9955964b|6dd2150a] (0+3/3) Accurately ripped

Track Peak [ CRC32 ] [W/O NULL] [ LOG ]
– 91,6 [697221A6] [07A1C2F3] CRC32
01 50,3 [9B8D4EB3] [1A0260C4]
02 59,7 [4DA9F09C] [1EF21924]
03 83,7 [AD59F5A0] [29EE3DC3]
04 53,5 [A96A4722] [D593A3AE]
05 60,7 [18E7B7A3] [B5374B6E]
06 60,9 [D6F8FF6C] [5335865B]
07 91,6 [AF146270] [FEE46E58]
08 75,0 [BA290AD8] [3DDB7F41]

Exact Audio Copy V1.1 from 23. June 2015

EAC extraction logfile from 23. July 2015, 18:33

Various Artists / Simply Spa Chill CD3

Used drive : PIONEER BD-RW BDR-206 Adapter: 1 ID: 0

Read mode : Secure
Utilize accurate stream : Yes
Defeat audio cache : Yes
Make use of C2 pointers : No

Read offset correction : 667
Overread into Lead-In and Lead-Out : No
Fill up missing offset samples with silence : Yes
Delete leading and trailing silent blocks : No
Null samples used in CRC calculations : Yes
Used interface : Native Win32 interface for Win NT & 2000

Used output format : User Defined Encoder
Selected bitrate : 768 kBit/s
Quality : High
Add ID3 tag : No
Command line compressor : C:\Program Files (x86)\Exact Audio Copy\Flac\flac.exe
Additional command line options : -8 -V -T "TITLE=%title%" -T "ARTIST=%artist%" -T "ALBUMARTIST=%albumartist%" -T "ALBUM=%albumtitle%" -T "DATE=%year%" -T "TRACKNUMBER=%tracknr%" -T "TRACKTOTAL=%numtracks%" -T "GENRE=%genre%" -T "COMMENT=%comment%" -T "PERFORMER=%albuminterpret%" -T "COMPOSER=%composer%" %source% -o %dest%


TOC of the extracted CD

Track | Start | Length | Start sector | End sector
––––––––––––––––––––––––––––-
1 | 0:00.00 | 10:23.66 | 0 | 46790
2 | 10:23.66 | 6:39.31 | 46791 | 76746
3 | 17:03.22 | 9:08.50 | 76747 | 117896
4 | 26:11.72 | 9:25.43 | 117897 | 160314
5 | 35:37.40 | 7:59.68 | 160315 | 196307
6 | 43:37.33 | 10:24.66 | 196308 | 243173
7 | 54:02.24 | 8:23.19 | 243174 | 280917
8 | 62:25.43 | 7:28.40 | 280918 | 314557


Range status and errors

Selected range

Filename D:\Сборники (Flac)\VA - Simply Spa Chill (2010) 4CD (Flac+.cue)\CD3\Various Artists - Simply Spa Chill CD3.wav

Peak level 98.1 %
Extraction speed 1.1 X
Range quality 100.0 %
Test CRC 5FA61A76
Copy CRC 5FA61A76
Copy OK

No errors occurred


AccurateRip summary

Track 1 accurately ripped (confidence 1) [5A2440FA] (AR v1)
Track 2 accurately ripped (confidence 1) [72C10B9A] (AR v1)
Track 3 accurately ripped (confidence 1) [751E5C66] (AR v1)
Track 4 accurately ripped (confidence 1) [CE1ED015] (AR v1)
Track 5 accurately ripped (confidence 1) [04CBB46C] (AR v1)
Track 6 accurately ripped (confidence 1) [26C631F7] (AR v1)
Track 7 accurately ripped (confidence 1) [B2E29C14] (AR v1)
Track 8 accurately ripped (confidence 1) [A8E24CF8] (AR v1)

All tracks accurately ripped

End of status report

–– CUETools DB Plugin V2.1.6

[CTDB TOCID: m0CUTG83.AKSMgc8xorVVjgJ3sU-] found
Submit result: m0CUTG83.AKSMgc8xorVVjgJ3sU- has been confirmed
Track | CTDB Status
1 | (1/1) Accurately ripped
2 | (1/1) Accurately ripped
3 | (1/1) Accurately ripped
4 | (1/1) Accurately ripped
5 | (1/1) Accurately ripped
6 | (1/1) Accurately ripped
7 | (1/1) Accurately ripped
8 | (1/1) Accurately ripped


==== Log checksum 4AE85E28BBF8903BFF55D18C1FB55503E2E81338BAEF62AAAD570B8291C1DED3 ====

[CUETools log; Date: 06.05.2021 2:22:46; Version: 2.1.4]
[CTDB TOCID: m0CUTG83.AKSMgc8xorVVjgJ3sU-] found.
Track | CTDB Status
1 | (9/9) Accurately ripped
2 | (9/9) Accurately ripped
3 | (9/9) Accurately ripped
4 | (9/9) Accurately ripped
5 | (9/9) Accurately ripped
6 | (9/9) Accurately ripped
7 | (9/9) Accurately ripped
8 | (9/9) Accurately ripped
[AccurateRip ID: 0015ec24-0091cddb-6a106208] found.
Track [ CRC | V2 ] Status
01 [5a2440fa|3620fd9a] (0+3/3) Accurately ripped
02 [72c10b9a|38819e83] (0+3/3) Accurately ripped
03 [751e5c66|c4fada2d] (0+3/3) Accurately ripped
04 [ce1ed015|a778a848] (0+3/3) Accurately ripped
05 [04cbb46c|856344f8] (0+3/3) Accurately ripped
06 [26c631f7|e856d203] (0+3/3) Accurately ripped
07 [b2e29c14|d9ba2c1b] (0+3/3) Accurately ripped
08 [a8e24cf8|8cb05ac5] (0+3/3) Accurately ripped

Track Peak [ CRC32 ] [W/O NULL] [ LOG ]
– 98,1 [5FA61A76] [AC0A19CD] CRC32
01 98,1 [AA7D7A06] [518C1135]
02 39,4 [0B63EEDD] [88D356A0]
03 64,9 [7CA07142] [469F6229]
04 92,8 [A4061C68] [14A14A58]
05 58,9 [6CB04E77] [19C4FDE2]
06 44,6 [68327496] [08D7ACC1]
07 46,8 [6ED003B6] [4DC55563]
08 77,5 [915E99A9] [90FFEB3A]

Exact Audio Copy V1.1 from 23. June 2015

EAC extraction logfile from 23. July 2015, 20:20

Various Artists / Simply Spa Chill CD 4

Used drive : PIONEER BD-RW BDR-206 Adapter: 1 ID: 0

Read mode : Secure
Utilize accurate stream : Yes
Defeat audio cache : Yes
Make use of C2 pointers : No

Read offset correction : 667
Overread into Lead-In and Lead-Out : No
Fill up missing offset samples with silence : Yes
Delete leading and trailing silent blocks : No
Null samples used in CRC calculations : Yes
Used interface : Native Win32 interface for Win NT & 2000

Used output format : User Defined Encoder
Selected bitrate : 768 kBit/s
Quality : High
Add ID3 tag : No
Command line compressor : C:\Program Files (x86)\Exact Audio Copy\Flac\flac.exe
Additional command line options : -8 -V -T "TITLE=%title%" -T "ARTIST=%artist%" -T "ALBUMARTIST=%albumartist%" -T "ALBUM=%albumtitle%" -T "DATE=%year%" -T "TRACKNUMBER=%tracknr%" -T "TRACKTOTAL=%numtracks%" -T "GENRE=%genre%" -T "COMMENT=%comment%" -T "PERFORMER=%albuminterpret%" -T "COMPOSER=%composer%" %source% -o %dest%


TOC of the extracted CD

Track | Start | Length | Start sector | End sector
––––––––––––––––––––––––––––-
1 | 0:00.00 | 7:46.64 | 0 | 35013
2 | 7:46.64 | 6:42.65 | 35014 | 65228
3 | 14:29.54 | 7:34.49 | 65229 | 99327
4 | 22:04.28 | 8:39.37 | 99328 | 138289
5 | 30:43.65 | 7:55.57 | 138290 | 173971
6 | 38:39.47 | 7:11.29 | 173972 | 206325
7 | 45:51.01 | 7:49.49 | 206326 | 241549
8 | 53:40.50 | 8:01.34 | 241550 | 277658


Range status and errors

Selected range

Filename D:\Сборники (Flac)\VA - Simply Spa Chill (2010) 4CD (Flac+.cue)\CD4\Various Artists - Simply Spa Chill CD 4.wav

Peak level 99.8 %
Extraction speed 1.1 X
Range quality 99.9 %
Test CRC 573C20A5
Copy CRC 573C20A5
Copy OK

No errors occurred


AccurateRip summary

Track 1 accurately ripped (confidence 1) [3A73B474] (AR v1)
Track 2 accurately ripped (confidence 1) [DD114F36] (AR v1)
Track 3 accurately ripped (confidence 1) [343C4FD3] (AR v1)
Track 4 accurately ripped (confidence 1) [5E39E0A5] (AR v1)
Track 5 accurately ripped (confidence 1) [5E2F73ED] (AR v1)
Track 6 accurately ripped (confidence 1) [E4944055] (AR v1)
Track 7 accurately ripped (confidence 1) [76A5CF72] (AR v1)
Track 8 accurately ripped (confidence 1) [16AA386D] (AR v1)

All tracks accurately ripped

End of status report

–– CUETools DB Plugin V2.1.6

[CTDB TOCID: 1CYh2eSQ4aiMqHE5EfSRiKdRRXM-] found
Submit result: 1CYh2eSQ4aiMqHE5EfSRiKdRRXM- has been confirmed
Track | CTDB Status
1 | (1/1) Accurately ripped
2 | (1/1) Accurately ripped
3 | (1/1) Accurately ripped
4 | (1/1) Accurately ripped
5 | (1/1) Accurately ripped
6 | (1/1) Accurately ripped
7 | (1/1) Accurately ripped
8 | (1/1) Accurately ripped


==== Log checksum C2FA3642AD9A5F63AB595882B32FDA4F4992AE58818DD9789962E26C0DAA0CDF ====

[CUETools log; Date: 06.05.2021 2:23:31; Version: 2.1.4]
[CTDB TOCID: 1CYh2eSQ4aiMqHE5EfSRiKdRRXM-] found.
Track | CTDB Status
1 | (10/10) Accurately ripped
2 | (10/10) Accurately ripped
3 | (10/10) Accurately ripped
4 | (10/10) Accurately ripped
5 | (10/10) Accurately ripped
6 | (10/10) Accurately ripped
7 | (10/10) Accurately ripped
8 | (10/10) Accurately ripped
[AccurateRip ID: 0012e178-007e4003-640e7608] found.
Track [ CRC | V2 ] Status
01 [3a73b474|2ad822db] (0+3/3) Accurately ripped
02 [dd114f36|e3809ae6] (0+3/3) Accurately ripped
03 [343c4fd3|b07894f7] (0+3/3) Accurately ripped
04 [5e39e0a5|381e1390] (0+3/3) Accurately ripped
05 [5e2f73ed|c33acd17] (0+3/3) Accurately ripped
06 [e4944055|99de3b4d] (0+3/3) Accurately ripped
07 [76a5cf72|9cc098c5] (0+3/3) Accurately ripped
08 [16aa386d|912008d6] (0+3/3) Accurately ripped

Track Peak [ CRC32 ] [W/O NULL] [ LOG ]
– 99,8 [573C20A5] [7D853229] CRC32
01 95,9 [B3CDE8A0] [2A5B0BEC]
02 99,2 [66AE1E4E] [157D1857]
03 99,3 [A5C597F0] [6A0EAD74]
04 99,4 [80835786] [0760E9D7]
05 93,2 [F26C4296] [84A8F409]
06 88,9 [53CFA412] [C7DA19D3]
07 94,3 [8C6CD9FD] [C151DA46]
08 99,8 [E88157C7] [A500A24E]

Thanks to gvm55

See also:
V.A. - Simply Buddhist Meditation [4CD Box Set] (2009)
V.A. - Simply Anti Stress [4CD Box Set] (2010)
V.A. - Simply Relaxation [4CD Box Set] (2010)
V.A. - Simply Late Night Jazz (2010) [2CD]
V.A. - Simply Erotica [4CD Box Set] (2011)