Subcategories
Tags
Language
Tags

VA - Cumbia Madame! South American Female Singers 1963–1983 (2018)

Posted By: delpotro
VA - Cumbia Madame! South American Female Singers 1963–1983 (2018)

VA - Cumbia Madame! South American Female Singers 1963–1983 (2018)
EAC Rip | FLAC (tracks+log+.cue) - 161 Mb | MP3 CBR 320 kbps - 95 Mb | 00:41:11
Latin, Cumbia, Female Vocal | Label: MaAuLa Records

Killer compilation of 14 cumbia tracks from 1963 to 1983 of South-American female singers.
Tracklist:
01. Super Combo Los Tropicales Con Doris Salas - El Arenal
02. Pacho Galán - Currucuchando Currucuchito
03. Los Soneros De Gamero Con Irene Martínez - Rosa
04. Combo Los Galleros - Soledad
05. Lucho Bermúdez Y Su Orquesta Con Matilde Díaz - Colombia Tierra Querida
06. Avelino Muñoz Y Su Conjunto Con Silvia De Grasse - Papelito Blanco
07. Son Palenque Con Estefanía Caicedo - La Verdolaga
08. Los Soneros De Gamero Con Irene Martínez - La Cumbia Del Negro
09. Super Combo Los Tropicales Con Doris Salas - Queja Negra
10. La Negra Del Ritmo - Yo Tengo Una Cosa
11. Los Bestiales Con Lina - Palomitas De Colores
12. Avelino Muñoz Y Su Conjunto Con Silvia De Grasse - Compadre Pancho
13. Doris Salas - Ninfa Morena
14. Edmundo Arias Y Su Prquesta Con Lady - Cumbia Del Caribe

Exact Audio Copy V1.6 from 23. October 2020

EAC extraction logfile from 12. May 2021, 16:07

Various Artists / Cumbia Madame! South American Female Singers 1963–1983

Used drive : ASUS SDRW-08U7M-U Adapter: 1 ID: 0

Read mode : Secure
Utilize accurate stream : Yes
Defeat audio cache : Yes
Make use of C2 pointers : No

Read offset correction : 6
Overread into Lead-In and Lead-Out : No
Fill up missing offset samples with silence : Yes
Delete leading and trailing silent blocks : No
Null samples used in CRC calculations : Yes
Used interface : Native Win32 interface for Win NT & 2000
Gap handling : Appended to previous track

Used output format : User Defined Encoder
Selected bitrate : 1024 kBit/s
Quality : High
Add ID3 tag : No
Command line compressor : C:\Program Files (x86)\Exact Audio Copy\Flac\flac.exe
Additional command line options : -8 -V -T "ARTIST=%artist%" -T "TITLE=%title%" -T "ALBUM=%albumtitle%" -T "DATE=%year%" -T "TRACKNUMBER=%tracknr%" -T "GENRE=%genre%" -T "PERFORMER=%albuminterpret%" -T "COMPOSER=%composer%" -T "ALBUMARTIST=%albumartist%" -T "DISCNUMBER=%cdnumber%" -T "TOTALDISCS=%totalcds%" -T "TOTALTRACKS=%numtracks%" -T "COMMENT=%comment%" %source% -o %dest%


TOC of the extracted CD

Track | Start | Length | Start sector | End sector
––––––––––––––––––––––––––––-
1 | 0:00.00 | 2:40.58 | 0 | 12057
2 | 2:40.58 | 2:21.47 | 12058 | 22679
3 | 5:02.30 | 3:37.46 | 22680 | 39000
4 | 8:40.01 | 2:48.53 | 39001 | 51653
5 | 11:28.54 | 2:33.67 | 51654 | 63195
6 | 14:02.46 | 3:01.22 | 63196 | 76792
7 | 17:03.68 | 3:13.55 | 76793 | 91322
8 | 20:17.48 | 3:09.50 | 91323 | 105547
9 | 23:27.23 | 2:44.45 | 105548 | 117892
10 | 26:11.68 | 3:02.50 | 117893 | 131592
11 | 29:14.43 | 3:07.28 | 131593 | 145645
12 | 32:21.71 | 2:59.72 | 145646 | 159142
13 | 35:21.68 | 2:45.46 | 159143 | 171563
14 | 38:07.39 | 3:04.10 | 171564 | 185373


Track 1

Filename C:\EAC\VA - Cumbia Madame! South American Female Singers 1963–1983 - 2018 - FLAC - CD\01 - Super Combo Los Tropicales Con Doris Salas - El Arenal.wav

Pre-gap length 0:00:02.00

Peak level 98.2 %
Extraction speed 1.0 X
Track quality 100.0 %
Test CRC C99DDF6F
Copy CRC C99DDF6F
Track not present in AccurateRip database
Copy OK

Track 2

Filename C:\EAC\VA - Cumbia Madame! South American Female Singers 1963–1983 - 2018 - FLAC - CD\02 - Pacho Galán - Currucuchando Currucuchito.wav

Pre-gap length 0:00:02.00

Peak level 97.8 %
Extraction speed 1.1 X
Track quality 100.0 %
Test CRC A8142578
Copy CRC A8142578
Track not present in AccurateRip database
Copy OK

Track 3

Filename C:\EAC\VA - Cumbia Madame! South American Female Singers 1963–1983 - 2018 - FLAC - CD\03 - Los Soneros De Gamero Con Irene Martínez - Rosa.wav

Pre-gap length 0:00:02.00

Peak level 98.2 %
Extraction speed 1.2 X
Track quality 100.0 %
Test CRC E4A544D2
Copy CRC E4A544D2
Track not present in AccurateRip database
Copy OK

Track 4

Filename C:\EAC\VA - Cumbia Madame! South American Female Singers 1963–1983 - 2018 - FLAC - CD\04 - Combo Los Galleros - Soledad.wav

Pre-gap length 0:00:02.00

Peak level 98.2 %
Extraction speed 1.3 X
Track quality 100.0 %
Test CRC D6B1DB42
Copy CRC D6B1DB42
Track not present in AccurateRip database
Copy OK

Track 5

Filename C:\EAC\VA - Cumbia Madame! South American Female Singers 1963–1983 - 2018 - FLAC - CD\05 - Lucho Bermúdez Y Su Orquesta Con Matilde Díaz - Colombia Tierra Querida.wav

Pre-gap length 0:00:02.00

Peak level 98.2 %
Extraction speed 1.3 X
Track quality 100.0 %
Test CRC E74745A9
Copy CRC E74745A9
Track not present in AccurateRip database
Copy OK

Track 6

Filename C:\EAC\VA - Cumbia Madame! South American Female Singers 1963–1983 - 2018 - FLAC - CD\06 - Avelino Muñoz Y Su Conjunto Con Silvia De Grasse - Papelito Blanco.wav

Pre-gap length 0:00:02.00

Peak level 98.2 %
Extraction speed 1.4 X
Track quality 100.0 %
Test CRC 441B25CE
Copy CRC 441B25CE
Track not present in AccurateRip database
Copy OK

Track 7

Filename C:\EAC\VA - Cumbia Madame! South American Female Singers 1963–1983 - 2018 - FLAC - CD\07 - Son Palenque Con Estefanía Caicedo - La Verdolaga.wav

Pre-gap length 0:00:02.00

Peak level 98.2 %
Extraction speed 1.5 X
Track quality 100.0 %
Test CRC DE400FDA
Copy CRC DE400FDA
Track not present in AccurateRip database
Copy OK

Track 8

Filename C:\EAC\VA - Cumbia Madame! South American Female Singers 1963–1983 - 2018 - FLAC - CD\08 - Los Soneros De Gamero Con Irene Martínez - La Cumbia Del Negro.wav

Pre-gap length 0:00:02.00

Peak level 98.2 %
Extraction speed 1.6 X
Track quality 100.0 %
Test CRC 5C29FBC7
Copy CRC 5C29FBC7
Track not present in AccurateRip database
Copy OK

Track 9

Filename C:\EAC\VA - Cumbia Madame! South American Female Singers 1963–1983 - 2018 - FLAC - CD\09 - Super Combo Los Tropicales Con Doris Salas - Queja Negra.wav

Pre-gap length 0:00:02.00

Peak level 100.0 %
Extraction speed 1.6 X
Track quality 100.0 %
Test CRC 28B341B4
Copy CRC 28B341B4
Track not present in AccurateRip database
Copy OK

Track 10

Filename C:\EAC\VA - Cumbia Madame! South American Female Singers 1963–1983 - 2018 - FLAC - CD\10 - La Negra Del Ritmo - Yo Tengo Una Cosa.wav

Pre-gap length 0:00:02.00

Peak level 99.9 %
Extraction speed 1.7 X
Track quality 100.0 %
Test CRC CFA6E25A
Copy CRC CFA6E25A
Track not present in AccurateRip database
Copy OK

Track 11

Filename C:\EAC\VA - Cumbia Madame! South American Female Singers 1963–1983 - 2018 - FLAC - CD\11 - Los Bestiales Con Lina - Palomitas De Colores.wav

Pre-gap length 0:00:02.00

Peak level 98.2 %
Extraction speed 1.8 X
Track quality 100.0 %
Test CRC 681F7C24
Copy CRC 681F7C24
Track not present in AccurateRip database
Copy OK

Track 12

Filename C:\EAC\VA - Cumbia Madame! South American Female Singers 1963–1983 - 2018 - FLAC - CD\12 - Avelino Muñoz Y Su Conjunto Con Silvia De Grasse - Compadre Pancho.wav

Pre-gap length 0:00:02.00

Peak level 98.2 %
Extraction speed 1.8 X
Track quality 100.0 %
Test CRC 7E85DD95
Copy CRC 7E85DD95
Track not present in AccurateRip database
Copy OK

Track 13

Filename C:\EAC\VA - Cumbia Madame! South American Female Singers 1963–1983 - 2018 - FLAC - CD\13 - Doris Salas - Ninfa Morena.wav

Pre-gap length 0:00:02.00

Peak level 98.2 %
Extraction speed 1.9 X
Track quality 100.0 %
Test CRC DFB7EEBB
Copy CRC DFB7EEBB
Track not present in AccurateRip database
Copy OK

Track 14

Filename C:\EAC\VA - Cumbia Madame! South American Female Singers 1963–1983 - 2018 - FLAC - CD\14 - Edmundo Arias Y Su Prquesta Con Lady - Cumbia Del Caribe.wav

Pre-gap length 0:00:02.00

Peak level 100.0 %
Extraction speed 1.9 X
Track quality 100.0 %
Test CRC 36B58E9C
Copy CRC 36B58E9C
Track not present in AccurateRip database
Copy OK


None of the tracks are present in the AccurateRip database

No errors occurred

End of status report

–– CUETools DB Plugin V2.1.6

[CTDB TOCID: VZ6gMIPZdl6YSNNNJMOnmsSFpAA-] found
Submit result: VZ6gMIPZdl6YSNNNJMOnmsSFpAA- has been confirmed
Track | CTDB Status
1 | (1/1) Accurately ripped
2 | (1/1) Accurately ripped
3 | (1/1) Accurately ripped
4 | (1/1) Accurately ripped
5 | (1/1) Accurately ripped
6 | (1/1) Accurately ripped
7 | (1/1) Accurately ripped
8 | (1/1) Accurately ripped
9 | (1/1) Accurately ripped
10 | (1/1) Accurately ripped
11 | (1/1) Accurately ripped
12 | (1/1) Accurately ripped
13 | (1/1) Accurately ripped
14 | (1/1) Accurately ripped


==== Log checksum FF818F9AD15DDAE395D07C569FC7DDB7EFADC924D49419CC1286AA6C99B10259 ====

Thanks to the Original ripper !