Subcategories

VA - All Times Rock Ballads 1 (2001) {The Maestro} **[RE-UP]**

Posted By: TestTickles
VA - All Times Rock Ballads 1 (2001) {The Maestro} **[RE-UP]**

VA - All Times Rock Ballads 1 (2001) {The Maestro}
EAC Rip | FLAC with CUE and LOG | scans | 499 mb
MP3 CBR 320kbps | RAR | 162 mb
Genre: folk rock, pop, hard rock, alternative, rock, progressive rock, pop rock

All Times Rock Ballads 1 is a 17-song compilation CD released illegally in Russia by bootleg label The Maestro. All of these are the original songs by the original artists while some, like those by The Moody Blues and R.E.M., are slightly shorter edits.

VA - All Times Rock Ballads 1 (2001) {The Maestro} **[RE-UP]**

01. The Eagles - Hotel California
02. Smokie - What Can I do
03. Rod Stewart - I'm Sailing
04. Bryan Adams - Please, Forgive Me
05. Aerosmith - Crazy
06. Uriah Heep - July Morning
07. Roxette - Spending My Time
08. Deep Purple - Soldier of Fortune
09. R.E.M. - Losing My Religion
10. Bon Jovi - Always
11. Styx - Boat On The River
12. Nazareth - Love Hurts
13. The Moody Blues - Night In White Satin
14. Procol Harum - Whiter Shade Of Pale
15. Scorpions - Still Loving You
16. The Beatles - Let It Be
17. The Animals - House Of The Rising Sun

Exact Audio Copy V0.99 prebeta 5 from 4. May 2009

EAC extraction logfile from 11. November 2010, 9:30

VA / All Times Rock Ballads 1

Used drive : TSSTcorpDVD-ROM SH-D162D Adapter: 0 ID: 0

Read mode : Secure
Utilize accurate stream : Yes
Defeat audio cache : Yes
Make use of C2 pointers : No

Read offset correction : 6
Overread into Lead-In and Lead-Out : No
Fill up missing offset samples with silence : Yes
Delete leading and trailing silent blocks : No
Null samples used in CRC calculations : Yes
Used interface : Native Win32 interface for Win NT & 2000

Used output format : User Defined Encoder
Selected bitrate : 768 kBit/s
Quality : High
Add ID3 tag : No
Command line compressor : C:\Program Files\Exact Audio Copy\Flac\flac.exe
Additional command line options : -8 -V %s


TOC of the extracted CD

Track | Start | Length | Start sector | End sector
––––––––––––––––––––––––––––-
1 | 0:00.00 | 6:30.52 | 0 | 29301
2 | 6:30.52 | 3:37.72 | 29302 | 45648
3 | 10:08.49 | 4:23.48 | 45649 | 65421
4 | 14:32.22 | 5:48.73 | 65422 | 91594
5 | 20:21.20 | 5:09.22 | 91595 | 114791
6 | 25:30.42 | 5:51.58 | 114792 | 141174
7 | 31:22.25 | 4:37.45 | 141175 | 161994
8 | 35:59.70 | 3:15.60 | 161995 | 176679
9 | 39:15.55 | 4:26.73 | 176680 | 196702
10 | 43:42.53 | 5:47.45 | 196703 | 222772
11 | 49:30.23 | 3:11.37 | 222773 | 237134
12 | 52:41.60 | 3:53.48 | 237135 | 254657
13 | 56:35.33 | 4:28.25 | 254658 | 274782
14 | 61:03.58 | 4:02.17 | 274783 | 292949
15 | 65:06.00 | 6:05.00 | 292950 | 320324
16 | 71:11.00 | 4:06.55 | 320325 | 338829
17 | 75:17.55 | 4:28.45 | 338830 | 358974


Range status and errors

Selected range

Filename C:\cuntfist\FLAC\VA - All Times Rock Ballads 1 (2001) [FLAC] {The Maestro}\VA - All Times Rock Ballads 1.wav

Peak level 100.0 %
Range quality 99.9 %
Test CRC B250D1C1
Copy CRC B250D1C1
Copy OK

No errors occurred


AccurateRip summary

Track 1 not present in database
Track 2 not present in database
Track 3 not present in database
Track 4 not present in database
Track 5 not present in database
Track 6 not present in database
Track 7 not present in database
Track 8 not present in database
Track 9 not present in database
Track 10 not present in database
Track 11 not present in database
Track 12 not present in database
Track 13 not present in database
Track 14 not present in database
Track 15 not present in database
Track 16 not present in database
Track 17 not present in database

None of the tracks are present in the AccurateRip database

End of status report


VA - All Times Rock Ballads 1 (2001) {The Maestro} **[RE-UP]**


Thank you to the original uploader.