Subcategories

Clannad - The Essential Clannad (2012) 2CDs

Posted By: Designol
Clannad - The Essential Clannad (2012) 2CDs

Clannad - The Essential Clannad (2012) 2CDs
EAC | FLAC | Tracks (Cue&Log) ~ 727 Mb | Mp3 (CBR320) ~ 280 Mb | Scans ~ 172 Mb
Label: RCA/Legacy | # 88691957752 | Time: 02:01:45
New Age, Celtic, World Fusion, Pop/Rock

Clannad bridged the gap between traditional Celtic music and pop, and the results were an entrancing, enchanting form of pop that managed to fuse the disparate elements together rather seamlessly, creating an invigorating blend of Irish traditional folk with modern influences. Such fusions have earned the band an international cult of fans. Clannad are at their best when unleashing gargantuan choruses against Moya Brennan's hushed leads, and the inclusion of the beautiful "Newgrange," a mystical ode to one of Britain s famous stone circles, and "Caislean Oir," the leadoff track from the band's excellent 1985 release, Macalla, are prime examples. With 30 tracks on 2 CDs, The Essential Clannad touches on fan favorites, collaborations, and songs from films. The material is quite varied in scope, and the arrangements and vocals are vastly pretty and melodic. The full range of the band's styles are presented here, from gorgeous a cappella to slick pop/rock, acoustic guitar ballads, Irish folk strains, and sophisticated power pop crunch.

Although this two-CD Clannad collection is titled Essential, it's not quite an overview of career highlights. It's more a compilation of their most commercially successful period in the 1980s and '90s, with all of the 30 tracks having been recorded between 1982 and 1997. This means there's nothing from the half-dozen albums preceding 1983's Magical Ring, which had a folkier and usually more traditional nature than the ones they did for RCA and Atlantic. However, if this is the decade-and-a-half of Clannad you prefer, or with which you're most familiar, it does a reasonable job of distilling much of their appeal during this era into two discs. Their big U.K. smash "Theme from Harry's Game" is here, of course, as are their smaller TV theme hit "Robin (The Hooded Man)" and their duet with Bono, "In a Lifetime." A duet with Bruce Hornsby ("Something to Believe In") and a track with a guest vocal by Steve Perry ("White Fool") take care of the other celebrity cameos. Overall the material varies between songs close to the band's folk roots; others whose slicker arrangements can make them sound like fusions between Irish folk and adult contemporary or new age music, and even moments on which they verge on mainstream pop ("Closer to Your Heart" doesn't sound much unlike late-'70s Fleetwood Mac). The constant factors distinguishing them from other mainstream artists are the Irish folk elements, which come through strongest in their haunting lead and backup vocals, as well as some of their instrumentation (particularly the harp). It seems like disc two is less commercially oriented than the first CD, with a higher proportion of Irish-language songs, though the programming is smooth enough that fans of Clannad should enjoy most or all of this release.

Review by Richie Unterberger, Allmusic.com

Clannad - The Essential Clannad (2012) 2CDs



Tracklist:

CD1 (01:03:03)

01. I Will Find You (5:15)
02. In A Lifetime (3:04)
03. You're The One (3:53)
04. Something To Believe In (4:45)
05. Robin (The Hooded Man) (2:45)
06. Almost Seems (Too Late to Turn) (4:39)
07. Broken Pieces (4:52)
08. Closer To Your Heart (3:29)
09. Why Worry (4:15)
10. Mystery Game (4:25)
11. A Bridge (That Carries Us Over) (4:24)
12. The Hunter (4:02)
13. White Fool (4:40)
14. There For You (3:59)
15. Let Me See (4:36)


CD2 (00:58:42)

01. Rí Na Cruinne (3:48)
02. Theme From Harry's Game (2:29)
03. Caislean Óir (2:08)
04. Newgrange (4:01)
05. Buachaill Ón Éirne (3:08)
06. Fadó (4:30)
07. Anam (3:51)
08. Coinleach Glas An Fhómhair (5:58)
09. Na Laethe Bhí (5:20)
10. Oh This Land (4:42)
11. Tá' Mé Shuí (3:13)
12. Poison Glen (3:53)
13. Úirchill An Chreagáin (4:20)
14. The Bridge Of Tears (3:56)
15. Banba Óir (3:27)


Exact Audio Copy V1.1 from 23. June 2015

EAC extraction logfile from 27. November 2018, 0:53

Clannad / The Essential Clannad Disc 1

Used drive : HL-DT-STDVDRAM GH24NS90 Adapter: 1 ID: 0

Read mode : Secure
Utilize accurate stream : Yes
Defeat audio cache : Yes
Make use of C2 pointers : No

Read offset correction : 6
Overread into Lead-In and Lead-Out : No
Fill up missing offset samples with silence : Yes
Delete leading and trailing silent blocks : No
Null samples used in CRC calculations : Yes
Used interface : Native Win32 interface for Win NT & 2000
Gap handling : Appended to previous track

Used output format : User Defined Encoder
Selected bitrate : 1024 kBit/s
Quality : High
Add ID3 tag : No
Command line compressor : C:\Program Files (x86)\FLAC\flac.exe


TOC of the extracted CD

Track | Start | Length | Start sector | End sector
––––––––––––––––––––––––––––-
1 | 0:00.00 | 5:15.13 | 0 | 23637
2 | 5:15.13 | 3:03.39 | 23638 | 37401
3 | 8:18.52 | 3:53.07 | 37402 | 54883
4 | 12:11.59 | 4:44.71 | 54884 | 76254
5 | 16:56.55 | 2:44.68 | 76255 | 88622
6 | 19:41.48 | 4:39.20 | 88623 | 109567
7 | 24:20.68 | 4:51.45 | 109568 | 131437
8 | 29:12.38 | 3:29.14 | 131438 | 147126
9 | 32:41.52 | 4:15.11 | 147127 | 166262
10 | 36:56.63 | 4:24.40 | 166263 | 186102
11 | 41:21.28 | 4:24.21 | 186103 | 205923
12 | 45:45.49 | 4:02.37 | 205924 | 224110
13 | 49:48.11 | 4:39.52 | 224111 | 245087
14 | 54:27.63 | 3:59.09 | 245088 | 263021
15 | 58:26.72 | 4:35.48 | 263022 | 283694


Track 1

Filename C:\Exact Audio Copy\Clannad\The Essential Clannad Disc 1\01. I Will Find You.wav

Pre-gap length 0:00:02.00

Peak level 100.0 %
Extraction speed 1.2 X
Track quality 100.0 %
Test CRC 0C82C1D7
Copy CRC 0C82C1D7
Accurately ripped (confidence 15) [DC27D79F] (AR v2)
Copy OK

Track 2

Filename C:\Exact Audio Copy\Clannad\The Essential Clannad Disc 1\02. In A Lifetime.wav

Peak level 99.2 %
Extraction speed 1.2 X
Track quality 100.0 %
Test CRC C09248C6
Copy CRC C09248C6
Accurately ripped (confidence 15) [A1DF2158] (AR v2)
Copy OK

Track 3

Filename C:\Exact Audio Copy\Clannad\The Essential Clannad Disc 1\03. You're The One.wav

Peak level 100.0 %
Extraction speed 1.4 X
Track quality 100.0 %
Test CRC B1574409
Copy CRC B1574409
Accurately ripped (confidence 14) [3D6E87A3] (AR v2)
Copy OK

Track 4

Filename C:\Exact Audio Copy\Clannad\The Essential Clannad Disc 1\04. Something To Believe In.wav

Peak level 96.7 %
Extraction speed 1.5 X
Track quality 100.0 %
Test CRC B168F9D3
Copy CRC B168F9D3
Accurately ripped (confidence 14) [46697802] (AR v2)
Copy OK

Track 5

Filename C:\Exact Audio Copy\Clannad\The Essential Clannad Disc 1\05. Robin (The Hooded Man).wav

Peak level 99.2 %
Extraction speed 1.5 X
Track quality 100.0 %
Test CRC B210D79C
Copy CRC B210D79C
Accurately ripped (confidence 14) [B5B0F197] (AR v2)
Copy OK

Track 6

Filename C:\Exact Audio Copy\Clannad\The Essential Clannad Disc 1\06. Almost Seems (Too Late to Turn).wav

Peak level 97.6 %
Extraction speed 1.7 X
Track quality 100.0 %
Test CRC 9282DBAC
Copy CRC 9282DBAC
Accurately ripped (confidence 14) [DC5932EE] (AR v2)
Copy OK

Track 7

Filename C:\Exact Audio Copy\Clannad\The Essential Clannad Disc 1\07. Broken Pieces.wav

Peak level 99.1 %
Extraction speed 1.8 X
Track quality 100.0 %
Test CRC 311CA787
Copy CRC 311CA787
Accurately ripped (confidence 14) [F3C76EC1] (AR v2)
Copy OK

Track 8

Filename C:\Exact Audio Copy\Clannad\The Essential Clannad Disc 1\08. Closer To Your Heart.wav

Peak level 96.7 %
Extraction speed 1.8 X
Track quality 100.0 %
Test CRC CF83F7E8
Copy CRC CF83F7E8
Accurately ripped (confidence 14) [69B6F3BA] (AR v2)
Copy OK

Track 9

Filename C:\Exact Audio Copy\Clannad\The Essential Clannad Disc 1\09. Why Worry.wav

Peak level 98.8 %
Extraction speed 1.9 X
Track quality 100.0 %
Test CRC 145C279E
Copy CRC 145C279E
Accurately ripped (confidence 14) [3A482D47] (AR v2)
Copy OK

Track 10

Filename C:\Exact Audio Copy\Clannad\The Essential Clannad Disc 1\10. Mystery Game.wav

Peak level 99.7 %
Extraction speed 1.9 X
Track quality 100.0 %
Test CRC 24202B4D
Copy CRC 24202B4D
Accurately ripped (confidence 14) [16A7A023] (AR v2)
Copy OK

Track 11

Filename C:\Exact Audio Copy\Clannad\The Essential Clannad Disc 1\11. A Bridge (That Carries Us Over).wav

Peak level 98.4 %
Extraction speed 1.8 X
Track quality 99.9 %
Test CRC 250325C3
Copy CRC 250325C3
Accurately ripped (confidence 14) [FB1F8A97] (AR v2)
Copy OK

Track 12

Filename C:\Exact Audio Copy\Clannad\The Essential Clannad Disc 1\12. The Hunter.wav

Peak level 100.0 %
Extraction speed 2.1 X
Track quality 100.0 %
Test CRC 2FBA3E23
Copy CRC 2FBA3E23
Accurately ripped (confidence 14) [7C60BA76] (AR v2)
Copy OK

Track 13

Filename C:\Exact Audio Copy\Clannad\The Essential Clannad Disc 1\13. White Fool.wav

Peak level 97.8 %
Extraction speed 2.2 X
Track quality 100.0 %
Test CRC 20E435FF
Copy CRC 20E435FF
Accurately ripped (confidence 14) [273FAE2F] (AR v2)
Copy OK

Track 14

Filename C:\Exact Audio Copy\Clannad\The Essential Clannad Disc 1\14. There For You.wav

Peak level 97.7 %
Extraction speed 2.3 X
Track quality 100.0 %
Test CRC 77F34009
Copy CRC 77F34009
Accurately ripped (confidence 14) [DB711791] (AR v2)
Copy OK

Track 15

Filename C:\Exact Audio Copy\Clannad\The Essential Clannad Disc 1\15. Let Me See.wav

Peak level 100.0 %
Extraction speed 2.3 X
Track quality 100.0 %
Test CRC 3D86DCE1
Copy CRC 3D86DCE1
Accurately ripped (confidence 14) [7FDBAA67] (AR v2)
Copy OK


All tracks accurately ripped

No errors occurred

End of status report

–– CUETools DB Plugin V2.1.6

[CTDB TOCID: OwQPgG5xoqaKJg1h8f5DLbsPASo-] found
Submit result: OwQPgG5xoqaKJg1h8f5DLbsPASo- has been confirmed
Track | CTDB Status
1 | (75/76) Accurately ripped
2 | (76/76) Accurately ripped
3 | (76/76) Accurately ripped
4 | (76/76) Accurately ripped
5 | (76/76) Accurately ripped
6 | (76/76) Accurately ripped
7 | (76/76) Accurately ripped
8 | (76/76) Accurately ripped
9 | (76/76) Accurately ripped
10 | (76/76) Accurately ripped
11 | (76/76) Accurately ripped
12 | (76/76) Accurately ripped
13 | (76/76) Accurately ripped
14 | (76/76) Accurately ripped
15 | (76/76) Accurately ripped

[CUETools log; Date: 11.12.2018 22:50:23; Version: 2.1.4]
[CTDB TOCID: OwQPgG5xoqaKJg1h8f5DLbsPASo-] found.
Track | CTDB Status
1 | (76/77) Accurately ripped
2 | (77/77) Accurately ripped
3 | (77/77) Accurately ripped
4 | (77/77) Accurately ripped
5 | (77/77) Accurately ripped
6 | (77/77) Accurately ripped
7 | (77/77) Accurately ripped
8 | (77/77) Accurately ripped
9 | (77/77) Accurately ripped
10 | (77/77) Accurately ripped
11 | (77/77) Accurately ripped
12 | (77/77) Accurately ripped
13 | (77/77) Accurately ripped
14 | (77/77) Accurately ripped
15 | (77/77) Accurately ripped
[AccurateRip ID: 00223a45-01844117-d10ec60f] found.
Track [ CRC | V2 ] Status
01 [3933af4b|dc27d79f] (02+15/30) Accurately ripped
02 [770d896a|a1df2158] (02+15/31) Accurately ripped
03 [a6091d2d|3d6e87a3] (02+14/30) Accurately ripped
04 [e085f3f1|46697802] (02+14/30) Accurately ripped
05 [fc4c4b8f|b5b0f197] (02+14/29) Accurately ripped
06 [e026ec48|dc5932ee] (02+14/30) Accurately ripped
07 [a7dbbafd|f3c76ec1] (02+14/29) Accurately ripped
08 [51013c14|69b6f3ba] (02+14/29) Accurately ripped
09 [d189bac8|3a482d47] (00+14/28) Accurately ripped
10 [017e7c3e|16a7a023] (02+14/30) Accurately ripped
11 [86016a61|fb1f8a97] (02+14/30) Accurately ripped
12 [6c5fbcdc|7c60ba76] (02+14/29) Accurately ripped
13 [e4b823db|273fae2f] (02+14/29) Accurately ripped
14 [ae75b9c4|db711791] (02+14/29) Accurately ripped
15 [f98fd70a|7fdbaa67] (00+14/28) Accurately ripped
Offsetted by -646:
01 [77da00cb] (00/30) No match (V2 was not tested)
02 [9988dbda] (00/31) No match (V2 was not tested)
03 [ebc53d5e] (00/30) No match (V2 was not tested)
04 [1478f23c] (00/30) No match (V2 was not tested)
05 [3db83513] (00/29) No match (V2 was not tested)
06 [d0c19bc0] (00/30) No match (V2 was not tested)
07 [197656ae] (00/29) No match (V2 was not tested)
08 [34875b25] (00/29) No match (V2 was not tested)
09 [bed02332] (00/28) No match (V2 was not tested)
10 [c76988ab] (00/30) No match (V2 was not tested)
11 [4c0fa542] (00/30) No match (V2 was not tested)
12 [4cbcf0bc] (00/29) No match (V2 was not tested)
13 [0cb6841f] (00/29) No match (V2 was not tested)
14 [35bd0124] (00/29) No match (V2 was not tested)
15 [94ce38da] (00/28) No match (V2 was not tested)
Offsetted by -12:
01 [457df01f] (00/30) No match (V2 was not tested)
02 [37637d86] (00/31) No match (V2 was not tested)
03 [6b6ed5ad] (00/30) No match (V2 was not tested)
04 [bf5de173] (00/30) No match (V2 was not tested)
05 [efa64b0d] (00/29) No match (V2 was not tested)
06 [e23e6738] (00/30) No match (V2 was not tested)
07 [662a529d] (00/29) No match (V2 was not tested)
08 [4f47d6f0] (00/29) No match (V2 was not tested)
09 [63d0c89c] (00/28) No match (V2 was not tested)
10 [162300ca] (00/30) No match (V2 was not tested)
11 [f6740771] (00/30) No match (V2 was not tested)
12 [7155949c] (00/29) No match (V2 was not tested)
13 [9da71a0f] (00/29) No match (V2 was not tested)
14 [42d55a50] (00/29) No match (V2 was not tested)
15 [06bfc2aa] (00/28) No match (V2 was not tested)

Track Peak [ CRC32 ] [W/O NULL] [ LOG ]
– 100,0 [32B55C51] [4B4AFA19]
01 100,0 [0C82C1D7] [896A8E20] CRC32
02 99,2 [C09248C6] [E3754BE0] CRC32
03 100,0 [B1574409] [BC48EAB1] CRC32
04 96,7 [B168F9D3] [FE8A4943] CRC32
05 99,2 [B210D79C] [342E298D] CRC32
06 97,6 [9282DBAC] [A862BB0C] CRC32
07 99,1 [311CA787] [03382913] CRC32
08 96,7 [CF83F7E8] [5BC04FE6] CRC32
09 98,8 [145C279E] [7BAE7EB8] CRC32
10 99,7 [24202B4D] [E19F384B] CRC32
11 98,4 [250325C3] [F5A7B9CA] CRC32
12 100,0 [2FBA3E23] [3E6FA4A0] CRC32
13 97,8 [20E435FF] [6832EFD3] CRC32
14 97,7 [77F34009] [9E61B111] CRC32
15 100,0 [3D86DCE1] [C9397E0C] CRC32

foobar2000 1.2 / Dynamic Range Meter 1.1.1
log date: 2018-12-11 23:04:26

––––––––––––––––––––––––––––––––––––––––
Analyzed: Clannad / The Essential Clannad Disc 1
––––––––––––––––––––––––––––––––––––––––

DR Peak RMS Duration Track
––––––––––––––––––––––––––––––––––––––––
DR11 0.00 dB -13.92 dB 5:15 01-I Will Find You
DR9 -0.07 dB -11.68 dB 3:04 02-In A Lifetime
DR12 0.00 dB -13.97 dB 3:53 03-You're The One
DR8 -0.28 dB -9.98 dB 4:45 04-Something To Believe In
DR8 -0.07 dB -10.57 dB 2:45 05-Robin (The Hooded Man)
DR8 -0.21 dB -11.60 dB 4:39 06-Almost Seems (Too Late to Turn)
DR10 -0.08 dB -11.62 dB 4:52 07-Broken Pieces
DR8 -0.28 dB -9.85 dB 3:29 08-Closer To Your Heart
DR10 -0.10 dB -12.98 dB 4:15 09-Why Worry
DR11 -0.02 dB -14.65 dB 4:25 10-Mystery Game
DR10 -0.14 dB -11.64 dB 4:24 11-A Bridge (That Carries Us Over)
DR11 0.00 dB -13.50 dB 4:02 12-The Hunter
DR8 -0.19 dB -11.34 dB 4:40 13-White Fool
DR9 -0.20 dB -11.77 dB 3:59 14-There For You
DR7 0.00 dB -8.44 dB 4:36 15-Let Me See
––––––––––––––––––––––––––––––––––––––––

Number of tracks: 15
Official DR value: DR9

Samplerate: 44100 Hz
Channels: 2
Bits per sample: 16
Bitrate: 842 kbps
Codec: FLAC
================================================================================


Exact Audio Copy V1.1 from 23. June 2015

EAC extraction logfile from 27. November 2018, 2:06

Clannad / The Essential Clannad Disc 2

Used drive : HL-DT-STDVDRAM GH24NS90 Adapter: 1 ID: 0

Read mode : Secure
Utilize accurate stream : Yes
Defeat audio cache : Yes
Make use of C2 pointers : No

Read offset correction : 6
Overread into Lead-In and Lead-Out : No
Fill up missing offset samples with silence : Yes
Delete leading and trailing silent blocks : No
Null samples used in CRC calculations : Yes
Used interface : Native Win32 interface for Win NT & 2000
Gap handling : Appended to previous track

Used output format : User Defined Encoder
Selected bitrate : 1024 kBit/s
Quality : High
Add ID3 tag : No
Command line compressor : C:\Program Files (x86)\FLAC\flac.exe


TOC of the extracted CD

Track | Start | Length | Start sector | End sector
––––––––––––––––––––––––––––-
1 | 0:00.00 | 3:48.31 | 0 | 17130
2 | 3:48.31 | 2:29.03 | 17131 | 28308
3 | 6:17.34 | 2:07.54 | 28309 | 37887
4 | 8:25.13 | 4:00.54 | 37888 | 55941
5 | 12:25.67 | 3:08.03 | 55942 | 70044
6 | 15:33.70 | 4:29.65 | 70045 | 90284
7 | 20:03.60 | 3:50.67 | 90285 | 107601
8 | 23:54.52 | 5:57.66 | 107602 | 134442
9 | 29:52.43 | 5:19.40 | 134443 | 158407
10 | 35:12.08 | 4:42.01 | 158408 | 179558
11 | 39:54.09 | 3:12.65 | 179559 | 194023
12 | 43:06.74 | 3:52.69 | 194024 | 211492
13 | 46:59.68 | 4:19.59 | 211493 | 230976
14 | 51:19.52 | 3:55.56 | 230977 | 248657
15 | 55:15.33 | 3:26.70 | 248658 | 264177


Track 1

Filename C:\Exact Audio Copy\Clannad\The Essential Clannad Disc 2\01. Rí Na Cruinne.wav

Pre-gap length 0:00:02.00

Peak level 99.7 %
Extraction speed 1.0 X
Track quality 99.9 %
Test CRC AE9E3242
Copy CRC AE9E3242
Accurately ripped (confidence 15) [E8C443A0] (AR v2)
Copy OK

Track 2

Filename C:\Exact Audio Copy\Clannad\The Essential Clannad Disc 2\02. Theme From Harry's Game.wav

Peak level 100.0 %
Extraction speed 0.9 X
Track quality 99.9 %
Test CRC 1B6D9670
Copy CRC 1B6D9670
Accurately ripped (confidence 15) [457CBDB9] (AR v2)
Copy OK

Track 3

Filename C:\Exact Audio Copy\Clannad\The Essential Clannad Disc 2\03. Caislean Óir.wav

Peak level 98.8 %
Extraction speed 1.1 X
Track quality 100.0 %
Test CRC 953D2C38
Copy CRC 953D2C38
Accurately ripped (confidence 15) [2F9323E0] (AR v2)
Copy OK

Track 4

Filename C:\Exact Audio Copy\Clannad\The Essential Clannad Disc 2\04. Newgrange.wav

Peak level 100.0 %
Extraction speed 1.4 X
Track quality 100.0 %
Test CRC 9F578520
Copy CRC 9F578520
Accurately ripped (confidence 15) [94EC8BEC] (AR v2)
Copy OK

Track 5

Filename C:\Exact Audio Copy\Clannad\The Essential Clannad Disc 2\05. Buachaill Ón Éirne.wav

Peak level 98.8 %
Extraction speed 1.4 X
Track quality 100.0 %
Test CRC 9DEC9CFB
Copy CRC 9DEC9CFB
Accurately ripped (confidence 15) [6CBEE70F] (AR v2)
Copy OK

Track 6

Filename C:\Exact Audio Copy\Clannad\The Essential Clannad Disc 2\06. Fadó.wav

Peak level 99.0 %
Extraction speed 1.6 X
Track quality 100.0 %
Test CRC 8573D69A
Copy CRC 8573D69A
Accurately ripped (confidence 15) [96B995E8] (AR v2)
Copy OK

Track 7

Filename C:\Exact Audio Copy\Clannad\The Essential Clannad Disc 2\07. Anam.wav

Peak level 100.0 %
Extraction speed 1.6 X
Track quality 100.0 %
Test CRC 8370B718
Copy CRC 8370B718
Accurately ripped (confidence 15) [B65E98FE] (AR v2)
Copy OK

Track 8

Filename C:\Exact Audio Copy\Clannad\The Essential Clannad Disc 2\08. Coinleach Glas An Fhómhair.wav

Peak level 100.0 %
Extraction speed 1.7 X
Track quality 99.9 %
Test CRC 7E353D83
Copy CRC 7E353D83
Accurately ripped (confidence 15) [18C6E6AC] (AR v2)
Copy OK

Track 9

Filename C:\Exact Audio Copy\Clannad\The Essential Clannad Disc 2\09. Na Laethe Bhí.wav

Peak level 99.7 %
Extraction speed 1.9 X
Track quality 100.0 %
Test CRC BBB42FF4
Copy CRC BBB42FF4
Accurately ripped (confidence 15) [F9A99FE4] (AR v2)
Copy OK

Track 10

Filename C:\Exact Audio Copy\Clannad\The Essential Clannad Disc 2\10. Oh This Land.wav

Peak level 90.3 %
Extraction speed 2.0 X
Track quality 100.0 %
Test CRC 8085B738
Copy CRC 8085B738
Accurately ripped (confidence 15) [BB7EA937] (AR v2)
Copy OK

Track 11

Filename C:\Exact Audio Copy\Clannad\The Essential Clannad Disc 2\11. Tá' Mé Shuí.wav

Peak level 100.0 %
Extraction speed 1.6 X
Track quality 99.9 %
Test CRC 7FB9928A
Copy CRC 7FB9928A
Accurately ripped (confidence 15) [7D4F8009] (AR v2)
Copy OK

Track 12

Filename C:\Exact Audio Copy\Clannad\The Essential Clannad Disc 2\12. Poison Glen.wav

Peak level 99.7 %
Extraction speed 2.0 X
Track quality 100.0 %
Test CRC F28B7E3B
Copy CRC F28B7E3B
Accurately ripped (confidence 15) [6ECDA549] (AR v2)
Copy OK

Track 13

Filename C:\Exact Audio Copy\Clannad\The Essential Clannad Disc 2\13. Úirchill An Chreagáin.wav

Peak level 100.0 %
Extraction speed 2.1 X
Track quality 100.0 %
Test CRC DA796823
Copy CRC DA796823
Accurately ripped (confidence 15) [98557A50] (AR v2)
Copy OK

Track 14

Filename C:\Exact Audio Copy\Clannad\The Essential Clannad Disc 2\14. The Bridge Of Tears.wav

Peak level 98.2 %
Extraction speed 2.2 X
Track quality 100.0 %
Test CRC 5EFF5960
Copy CRC 5EFF5960
Accurately ripped (confidence 15) [8DEE94C8] (AR v2)
Copy OK

Track 15

Filename C:\Exact Audio Copy\Clannad\The Essential Clannad Disc 2\15. Banba Óir.wav

Peak level 99.7 %
Extraction speed 2.2 X
Track quality 100.0 %
Test CRC FBC8D8D1
Copy CRC FBC8D8D1
Accurately ripped (confidence 15) [16629781] (AR v2)
Copy OK


All tracks accurately ripped

No errors occurred

End of status report

–– CUETools DB Plugin V2.1.6

[CTDB TOCID: KJjyXRGZXuzHvJpH7_x3wVJdKgc-] found
Submit result: KJjyXRGZXuzHvJpH7_x3wVJdKgc- has been confirmed
Track | CTDB Status
1 | (78/78) Accurately ripped
2 | (78/78) Accurately ripped
3 | (78/78) Accurately ripped
4 | (78/78) Accurately ripped
5 | (78/78) Accurately ripped
6 | (78/78) Accurately ripped
7 | (78/78) Accurately ripped
8 | (78/78) Accurately ripped
9 | (78/78) Accurately ripped
10 | (76/78) Accurately ripped
11 | (78/78) Accurately ripped
12 | (78/78) Accurately ripped
13 | (78/78) Accurately ripped
14 | (76/78) Accurately ripped
15 | (78/78) Accurately ripped

[CUETools log; Date: 11.12.2018 22:51:20; Version: 2.1.4]
[CTDB TOCID: KJjyXRGZXuzHvJpH7_x3wVJdKgc-] found.
Track | CTDB Status
1 | (79/79) Accurately ripped
2 | (79/79) Accurately ripped
3 | (79/79) Accurately ripped
4 | (79/79) Accurately ripped
5 | (79/79) Accurately ripped
6 | (79/79) Accurately ripped
7 | (79/79) Accurately ripped
8 | (79/79) Accurately ripped
9 | (79/79) Accurately ripped
10 | (77/79) Accurately ripped
11 | (79/79) Accurately ripped
12 | (79/79) Accurately ripped
13 | (79/79) Accurately ripped
14 | (77/79) Accurately ripped
15 | (79/79) Accurately ripped
[AccurateRip ID: 001ef58e-0166982a-ce0dc20f] found.
Track [ CRC | V2 ] Status
01 [10b96f9b|e8c443a0] (02+15/32) Accurately ripped
02 [9b5169d5|457cbdb9] (02+15/32) Accurately ripped
03 [370a318f|2f9323e0] (02+15/32) Accurately ripped
04 [6db2c851|94ec8bec] (02+15/32) Accurately ripped
05 [ad2b5667|6cbee70f] (02+15/32) Accurately ripped
06 [8dd6aae1|96b995e8] (02+15/32) Accurately ripped
07 [6a07101c|b65e98fe] (02+15/31) Accurately ripped
08 [5172a2ae|18c6e6ac] (02+15/32) Accurately ripped
09 [125e3613|f9a99fe4] (02+15/31) Accurately ripped
10 [80f9a236|bb7ea937] (02+15/32) Accurately ripped
11 [b3f5efee|7d4f8009] (02+15/32) Accurately ripped
12 [9ac5e915|6ecda549] (02+15/32) Accurately ripped
13 [489f366b|98557a50] (02+15/31) Accurately ripped
14 [899b1286|8dee94c8] (02+15/30) Accurately ripped
15 [963f3b2e|16629781] (02+15/31) Accurately ripped
Offsetted by -646:
01 [21547949] (00/32) No match (V2 was not tested)
02 [6c7bf0e1] (00/32) No match (V2 was not tested)
03 [dd320325] (00/32) No match (V2 was not tested)
04 [a064998d] (00/32) No match (V2 was not tested)
05 [2e8599bf] (00/32) No match (V2 was not tested)
06 [cbd01ca0] (00/32) No match (V2 was not tested)
07 [b2b92582] (00/31) No match (V2 was not tested)
08 [161ab63b] (00/32) No match (V2 was not tested)
09 [dd19acdf] (00/31) No match (V2 was not tested)
10 [9604a897] (00/32) No match (V2 was not tested)
11 [f939e711] (00/32) No match (V2 was not tested)
12 [6170c80f] (00/32) No match (V2 was not tested)
13 [cf941094] (00/31) No match (V2 was not tested)
14 [d36a3581] (00/30) No match (V2 was not tested)
15 [b313e0d2] (00/31) No match (V2 was not tested)
Offsetted by -12:
01 [a60931f7] (00/32) No match (V2 was not tested)
02 [b3cf6ded] (00/32) No match (V2 was not tested)
03 [120562ad] (00/32) No match (V2 was not tested)
04 [633b76d7] (00/32) No match (V2 was not tested)
05 [79ad6917] (00/32) No match (V2 was not tested)
06 [1267f715] (00/32) No match (V2 was not tested)
07 [7d4999f4] (00/31) No match (V2 was not tested)
08 [b95fdfed] (00/32) No match (V2 was not tested)
09 [cf06ba54] (00/31) No match (V2 was not tested)
10 [6cb8eb63] (00/32) No match (V2 was not tested)
11 [3f36b5cd] (00/32) No match (V2 was not tested)
12 [a1a86b9f] (00/32) No match (V2 was not tested)
13 [62616561] (00/31) No match (V2 was not tested)
14 [aa38237b] (00/30) No match (V2 was not tested)
15 [05aa1111] (00/31) No match (V2 was not tested)

Track Peak [ CRC32 ] [W/O NULL] [ LOG ]
– 100,0 [9270557F] [22DAF2C4]
01 99,7 [AE9E3242] [995C451E] CRC32
02 100,0 [1B6D9670] [83975536] CRC32
03 98,8 [953D2C38] [2843B1C9] CRC32
04 100,0 [9F578520] [CFBCE4F1] CRC32
05 98,8 [9DEC9CFB] [B86F3AA2] CRC32
06 99,0 [8573D69A] [6B1C3485] CRC32
07 100,0 [8370B718] [EB6B3726] CRC32
08 100,0 [7E353D83] [4E0B367F] CRC32
09 99,7 [BBB42FF4] [970B4A0B] CRC32
10 90,3 [8085B738] [5D98BED9] CRC32
11 100,0 [7FB9928A] [1F55C025] CRC32
12 99,7 [F28B7E3B] [6E8E87EE] CRC32
13 100,0 [DA796823] [8756600B] CRC32
14 98,2 [5EFF5960] [E88C8D3F] CRC32
15 99,7 [FBC8D8D1] [83134E9E] CRC32

foobar2000 1.2 / Dynamic Range Meter 1.1.1
log date: 2018-12-11 23:05:30

––––––––––––––––––––––––––––––––––––––––
Analyzed: Clannad / The Essential Clannad Disc 2
––––––––––––––––––––––––––––––––––––––––

DR Peak RMS Duration Track
––––––––––––––––––––––––––––––––––––––––
DR9 -0.02 dB -11.05 dB 3:48 01-Rí Na Cruinne
DR8 0.00 dB -11.72 dB 2:29 02-Theme From Harry's Game
DR11 -0.10 dB -13.52 dB 2:08 03-Caislean Óir
DR9 0.00 dB -11.40 dB 4:01 04-Newgrange
DR11 -0.10 dB -13.08 dB 3:08 05-Buachaill Ón Éirne
DR9 -0.08 dB -11.70 dB 4:30 06-Fadó
DR12 0.00 dB -15.77 dB 3:51 07-Anam
DR10 0.00 dB -13.13 dB 5:58 08-Coinleach Glas An Fhómhair
DR10 -0.02 dB -13.11 dB 5:20 09-Na Laethe Bhí
DR8 -0.88 dB -10.60 dB 4:42 10-Oh This Land
DR13 0.00 dB -16.24 dB 3:13 11-Tá' Mé Shuí
DR10 -0.02 dB -12.54 dB 3:53 12-Poison Glen
DR10 0.00 dB -15.61 dB 4:20 13-Úirchill An Chreagáin
DR8 -0.15 dB -10.33 dB 3:56 14-The Bridge Of Tears
DR10 -0.02 dB -12.57 dB 3:27 15-Banba Óir
––––––––––––––––––––––––––––––––––––––––

Number of tracks: 15
Official DR value: DR10

Samplerate: 44100 Hz
Channels: 2
Bits per sample: 16
Bitrate: 921 kbps
Codec: FLAC
================================================================================

Clannad - The Essential Clannad (2012) 2CDs

All thanks to original releaser - saintsmon

More interesting music in My Blog