Tags
Language
Tags

KISS - Love Gun (1977) [Japan (mini LP) SHM-CD, 2015] 2CD

Posted By: Andi_Deris
KISS - Love Gun (1977) [Japan (mini LP) SHM-CD, 2015] 2CD

KISS - Love Gun (1977) [Japan (mini LP) SHM-CD, 2015] 2CD
EAC Rip | FLAC: Image+Cue+Log | MP3 CBR 320 kbps | Scans
232/288 Mb | 76/107 Mb | 206 Mb | Time: 32:47/46:59
Mercury/Universal Music LLC | UICY-76953/4
Hard Rock, Heavy Metal, Glam

Love Gun is the sixth studio album by American hard rock band Kiss, released on June 30, 1977 by Casablanca Records. Deluxe edition of "Love Gun" from KISS. Japanese edition exclusively features SHM-CD format and cardboard sleeve replicating the US original LP artwork. Disc 1 includes the original tracks with the latest remastering. Disc 2 contains unreleased audio (except for "Reputation (demo)"), including demo tracks, interview, and three live tracks taken from the concert held on December 20, 1977 at the Capital Centre in Landover, Maryland. Comes with a booklet with liner notes.

KISS - Love Gun (1977) [Japan (mini LP) SHM-CD, 2015] 2CD




Original Album - CD ONE

01. I Stole Your Love (03:05)
02. Christine Sixteen (03:13)
03. Got Love For Sale (03:28)
04. Shock Me (03:47)
05. Tomorrow And Tonight (03:41)
06. Love Gun (03:17)
07. Hooligan (03:00)
08. Almost Human (02:49)
09. Plaster Caster (03:28)
10. Then She Kissed Me (03:00)

Bonus Tracks - CD TWON

01. Much Too Soon (Demo) (03:24)
02. Plaster Caster (Demo) (03:36)
03. Reputation (Demo) (05:39)
04. Love Gun (Teaching Demo) (02:14)
05. Love Gun (Demo) (03:19)
06. Gene Simmons Interview (1977) (07:00)
07. Tomorrow And Tonight (Demo) (03:47)
08. I Know Who You Are (Demo) (03:10)
09. Love Gun (Live 1977) (03:34)
10. Christine Sixteen (Live 1977) (02:56)
11. Shock Me (Live 1977) (08:21)

Produced by Eddie Kramer and KISS

The Band

• Paul Stanley - vocals, rhythm guitar, bass on "Love Gun", first guitar solo on "I Stole Your Love"
• Ace Frehley - lead guitar, vocals, second guitar solo on "I Stole Your Love", all guitars and bass on "Shock Me"
• Gene Simmons - bass guitar, rhythm guitar on "Got Love For Sale" and "Christine Sixteen", vocals
• Peter Criss - drums, percussion, vocals

*****
• Eddie Kramer - keyboards on "Christine Sixteen", "Love Gun" and "I Stole Your Love"

Notes

℗ 2014 Simstan Music Ltd. and Mercury Records, a Division of UMG Recordings, Inc.
© 1977 Kiss Catalogue Ltd.

Deluxe Edition, Reissue, Remastered, SHM-CD, Paper Sleeve, Gatefold


Exact Audio Copy V1.0 beta 3 from 29. August 2011

EAC extraction logfile from 18. April 2016, 13:32

Kiss / Love Gun

Used drive : PLDS DVD-RW DA8A5SH Adapter: 0 ID: 0

Read mode : Secure
Utilize accurate stream : Yes
Defeat audio cache : Yes
Make use of C2 pointers : No

Read offset correction : 6
Overread into Lead-In and Lead-Out : No
Fill up missing offset samples with silence : Yes
Delete leading and trailing silent blocks : No
Null samples used in CRC calculations : Yes
Used interface : Native Win32 interface for Win NT & 2000

Used output format : User Defined Encoder
Selected bitrate : 128 kBit/s
Quality : High
Add ID3 tag : No
Command line compressor : C:\Program Files (x86)\Exact Audio Copy\Flac\flac.exe
Additional command line options : -V -8 -T "Date=%year%" -T "Genre=%genre%" %source%


TOC of the extracted CD

Track | Start | Length | Start sector | End sector
––––––––––––––––––––––––––––-
1 | 0:00.00 | 3:04.50 | 0 | 13849
2 | 3:04.50 | 3:12.39 | 13850 | 28288
3 | 6:17.14 | 3:28.16 | 28289 | 43904
4 | 9:45.30 | 3:46.54 | 43905 | 60908
5 | 13:32.09 | 3:40.62 | 60909 | 77470
6 | 17:12.71 | 3:16.70 | 77471 | 92240
7 | 20:29.66 | 3:00.24 | 92241 | 105764
8 | 23:30.15 | 2:48.65 | 105765 | 118429
9 | 26:19.05 | 3:27.47 | 118430 | 134001
10 | 29:46.52 | 2:59.40 | 134002 | 147466


Range status and errors

Selected range

Filename D:\love gun\cd1\Kiss - Love Gun.wav

Peak level 100.0 %
Extraction speed 3.1 X
Range quality 100.0 %
Test CRC 70840715
Copy CRC 70840715
Copy OK

No errors occurred


AccurateRip summary

Track 1 accurately ripped (confidence 7) [0C4D064B] (AR v2)
Track 2 accurately ripped (confidence 7) [8AE446D7] (AR v2)
Track 3 accurately ripped (confidence 7) [DF9E271B] (AR v2)
Track 4 accurately ripped (confidence 7) [56AE6530] (AR v2)
Track 5 accurately ripped (confidence 7) [D738F086] (AR v2)
Track 6 accurately ripped (confidence 7) [6AEFBC01] (AR v2)
Track 7 accurately ripped (confidence 7) [BED250DA] (AR v2)
Track 8 accurately ripped (confidence 7) [AACDA2ED] (AR v2)
Track 9 accurately ripped (confidence 7) [92629174] (AR v2)
Track 10 accurately ripped (confidence 7) [FEB995D1] (AR v2)

All tracks accurately ripped

End of status report

==== Log checksum E2E8E2AB339F9B407396C4B0B115DA8031C820349892CD092F686EA46D1FBEFA ====

Exact Audio Copy V1.0 beta 3 from 29. August 2011

EAC extraction logfile from 18. April 2016, 14:05

Kiss / Love Gun (Deluxe Edition)

Used drive : PLDS DVD-RW DA8A5SH Adapter: 0 ID: 0

Read mode : Secure
Utilize accurate stream : Yes
Defeat audio cache : Yes
Make use of C2 pointers : No

Read offset correction : 6
Overread into Lead-In and Lead-Out : No
Fill up missing offset samples with silence : Yes
Delete leading and trailing silent blocks : No
Null samples used in CRC calculations : Yes
Used interface : Native Win32 interface for Win NT & 2000

Used output format : User Defined Encoder
Selected bitrate : 128 kBit/s
Quality : High
Add ID3 tag : No
Command line compressor : C:\Program Files (x86)\Exact Audio Copy\Flac\flac.exe
Additional command line options : -V -8 -T "Date=%year%" -T "Genre=%genre%" %source%


TOC of the extracted CD

Track | Start | Length | Start sector | End sector
––––––––––––––––––––––––––––-
1 | 0:00.00 | 3:23.71 | 0 | 15295
2 | 3:23.71 | 3:35.46 | 15296 | 31466
3 | 6:59.42 | 5:39.19 | 31467 | 56910
4 | 12:38.61 | 2:14.06 | 56911 | 66966
5 | 14:52.67 | 3:18.62 | 66967 | 81878
6 | 18:11.54 | 6:59.47 | 81879 | 113350
7 | 25:11.26 | 3:46.42 | 113351 | 130342
8 | 28:57.68 | 3:09.54 | 130343 | 144571
9 | 32:07.47 | 3:34.17 | 144572 | 160638
10 | 35:41.64 | 2:55.42 | 160639 | 173805
11 | 38:37.31 | 8:21.08 | 173806 | 211388


Range status and errors

Selected range

Filename D:\love gun\cd2\Kiss - Love Gun (Deluxe Edition).wav

Peak level 100.0 %
Extraction speed 3.4 X
Range quality 100.0 %
Test CRC 442B0028
Copy CRC 442B0028
Copy OK

No errors occurred


AccurateRip summary

Track 1 accurately ripped (confidence 2) [0F5908B3] (AR v1)
Track 2 accurately ripped (confidence 2) [05826CF8] (AR v1)
Track 3 accurately ripped (confidence 2) [8AE91FDE] (AR v1)
Track 4 accurately ripped (confidence 2) [03B9AE71] (AR v1)
Track 5 accurately ripped (confidence 2) [E9DBFE53] (AR v1)
Track 6 accurately ripped (confidence 2) [52F7F108] (AR v1)
Track 7 accurately ripped (confidence 2) [67FCF981] (AR v1)
Track 8 accurately ripped (confidence 2) [9C828AD0] (AR v1)
Track 9 accurately ripped (confidence 2) [D60F516C] (AR v1)
Track 10 accurately ripped (confidence 2) [171CAD24] (AR v1)
Track 11 accurately ripped (confidence 2) [5F84F39D] (AR v1)

All tracks accurately ripped

End of status report

==== Log checksum A38DB8BE71DD1EA84A3E64BEE5EE058FA70FD37D877764ADBEAF9315A171828D ====


Many thanks to the original uploader: A-Lex..Int





Password: pass