Subcategories

Olivia Newton-John - 48 Original Tracks 1971-1975 [2CD] (1994)

Posted By: BlondStyle
Olivia Newton-John - 48 Original Tracks 1971-1975 [2CD] (1994)

Olivia Newton-John - 48 Original Tracks 1971-1975 [2CD] (1994)
Pop/Rock, Soft Rock, Country | EAC Rip | FLAC, Img+CUE+LOG+Scans (JPEG) | 02:33:32 | 976,34 Mb
Label: EMI Records (UK) | Cat.# 7243 8 27110 2 5 | Released: 1994-02-21
Olivia Newton-John - 48 Original Tracks 1971-1975 [2CD] (1994)

48 Original Tracks is a greatest hits album by Olivia Newton-John that was released in 1994, it is the most extensive compilation of her early material launched for the singer. This collection includes three rarities - "Would You Follow Me", "Maybe Then I'll Think Of You" and "It's So Hard To Say Goodbye", which didn't appear on any of Olivia's studio album. The remaining tracks are from her first five original Australian albums - every song from her debut, "If Not For You", nearly every song from her next two, "Olivia" and "Let Me Be There", and some tracks from "Long Live Love" and "Have You Never Been Mellow". All those albums were released in Britain, but America discovered her later so releases there were different. Among the best known songs here are "If Not For You" (a Bob Dylan composition that gave Olivia her first hit), Banks of the Ohio, "What Is Life", "Take Me Home Country Roads" (a hit for John Denver in America but it was Olivia who had the UK hit), "I Honestly Love You", "Let Me Be There", "Please Mr. Please", "If You Love Me Let Me Know" and "Have You Never Been Mellow". All those songs were hits either in Britain or America. Olivia could also write songs and is represented here by two songs, "Changes" and "Rosewater", but there are also many other great original songs. You also get Olivia's excellent covers of "Me And Bobby McGee", "Help Me Make It Through The Night" (both Kris Kristofferson), "If You Could Read My Mind" (Gordon Lightfoot), "No Regrets" (which later became a British hit for the Walker Brothers), "If" (Bread), "Winterwood" (Don McLean), "Everything I Own" (Bread), "Angel Of The Morning" (which has been a hit for several singers), "Mary Skeffington" (Gerry Rafferty), "Amoreuse" (Kiki Dee), "If We Try" (Don McLean), "Air That I Breathe" (Hollies) and "Loving Arms" (Elvis Presley). Committed fans may wish to consider that all the original albums have been re-mastered in Australia with even better sound quality, but there's nothing wrong with the sound quality here, and there are those three tracks that aren't available elsewhere. This is an outstanding compilation of Olivia's early years!
~Review by Peter Durward Harris

Olivia Newton-John - 48 Original Tracks 1971-1975 [2CD] (1994)

Olivia Newton-John - 48 Original Tracks 1971-1975 [2CD] (1994)

Olivia Newton-John - 48 Original Tracks 1971-1975 [2CD] (1994)




Release of this CD-Set: 1994 [CDs EMI Records Ltd. (UK), Cat.# 7243 8 27110 2 5 / UPC: 724382711025]
Disc 1: tracks 01-14 ℗ 1971, 15-25 ℗ 1972.
Disc 2: tracks 1 & 4 ℗ 1972, 2 & 14 ℗ 1973, 3, 5-13, 15-18 & 22 ℗ 1974.
The Copyright in these sound recordings is owned by Festival Records International Ltd.,
under exclusive license to EMI Records Ltd.
Disc 2: tracks 19-21 & 23 ℗ 1975 the Copyright in these sound recordings is owned by EMI Records Ltd.
℗ 1994 the Copyright in this compilation is owned by EMI Records Ltd.
℗ & © 1994 EMI Records Ltd.
Marketed and Distributed by EMI.
Printed/Made in UK


Olivia Newton-John - 48 Original Tracks 1971-1975 [2CD] (1994)


Tracklist:

DISC 1

01. "Love Song" (03:47)
(Lesley Duncan)
02. "Banks Of The Ohio" (03:18)
(Traditional [Arranged by John Farrar / Bruce Welch])
03. "Me And Bobby McGee" (03:48)
(Fred Foster / Kris Kristofferson)
04. "If Not For You" (02:54)
(Bob Dylan)
05. "Help Me Make It Through The Night" (02:22)
(Kris Kristofferson)
06. "If You Could Read My Mind" (03:42)
(Gordon Lightfoot)
07. "In A Station" (03:11)
(Richard Manuel)
08. "Where Are You Going To My Love" (03:24)
(Tony Hiller / John Goodison / Mike Leslie / Billy Day)
09. "Lullaby" (03:02)
(Lesley Duncan)
10. "No Regrets" (03:29)
(Tom Rush)
11. "If I Gotta Leave" (02:45)
(Tony Hiller / Paul Curtis)
12. "Would You Follow Me" (02:40)
(John Kongos)
13. "If" (02:29)
(David Gates)
14. "It's So Hard To Say Goodbye" (04:04)
(Ray Cameron / Alan Hawkshaw)
15. "Winterwood" (02:51)
(Don McLean)
16. "What Is Life" (03:23)
(George Harrison)
17. "Changes" (02:32)
(Olivia Newton-John)
18. "Everything I Own" (03:03)
(David Gates)
19. "I'm A Small And Lonely Light" (02:47)
(John Farrer / Peter Best)
20. "Just A Little Too Much" (02:09)
(Johnny Burnette)
21. "Living In Harmony" (02:51)
(Alan Tarney / Trevor Spencer)
22. "Why Don't You Write Me" (02:41)
(Paul Simon)
23. "Angel Of The Morning" (03:55)
(Chip Taylor)
24. "Mary Skeffington" (02:32)
(Gerry Rafferty)
25. "If We Only Have Love" (03:21)
(Jacques Brel / Mort Schuman / Eric Blau)

DISC 2

01. "My Old Man's Got A Gun" (02:51)
(John Farrer)
02. "Maybe Then I'll Think Of You" (02:55)
(John Farrar)
03. "Amoureuse" (03:39)
(Veronique Sanson / Gary Osborne)
04. "Take Me Home Country Roads" (03:19)
(Bill Danoff / Taffy Nivert / John Denver)
05. "I Love You, I Honestly Love You" (03:39)
(Peter Allen / Jeff Barry)
06. "Music Makes My Day" (03:12)
(John Farrer)
07. "Heartbreaker" (02:32)
(Russ Ballard)
08. "Leaving" (03:58)
(Doug Flett / Guy Fletcher)
09. "You Ain't Got The Right" (03:31)
(Jay David / Dennis Locorriere / Ray Baas Sawyer / Ron Haffkine)
10. "Feeling Best" (03:28)
(Glenn Shorrock)
11. "Rosewater" (03:57)
(Olivia Newton-John)
12. "Being On The Losing End" (03:43)
(Carl Arnold Groszmann / Glynne Jones)
13. "If We Try" (03:25)
(Don McLean)
14. "Let Me Be There" (03:02)
(John Rostill)
15. "Country Girl" (03:52)
(Alan Hawkshaw / Peter Gosling)
16. "Loving You Ain't Easy" (02:49)
(Stuart Leathwood / Bob Saker / Gary Sulsh)
17. "Have Love Will Travel" (02:46)
(Roger Greenaway / Geoff Stephens)
18. "Hands Across The Sea" (02:56)
(Ben Findon / Geoff Wilkins)
19. "Please Mr. Please" (03:25)
(Bruce Welch / John Rostill)
20. "The Air That I Breathe" (03:52)
(Albert Hammond / Mike Hazlewood)
21. "Loving Arms" (02:56)
(Tom Jans)
22. "If You Love Me (Let Me Know)" (03:15)
(John Rostill)
23. "Have You Never Been Mellow" (03:30)
(John Farrar)

Exact Audio Copy V1.0 beta 3 from 29. August 2011

EAC extraction logfile from 1. May 2014, 4:19

Olivia Newton-John / 48 Original Tracks (1971-1975) - CD1

Used drive : ATAPI DVD DW 8X16X8X16 Adapter: 0 ID: 2

Read mode : Secure
Utilize accurate stream : Yes
Defeat audio cache : Yes
Make use of C2 pointers : No

Read offset correction : 618
Overread into Lead-In and Lead-Out : No
Fill up missing offset samples with silence : Yes
Delete leading and trailing silent blocks : No
Null samples used in CRC calculations : Yes
Used interface : Native Win32 interface for Win NT & 2000

Used output format : Internal WAV Routines
Sample format : 44.100 Hz; 16 Bit; Stereo


TOC of the extracted CD

Track | Start | Length | Start sector | End sector
––––––––––––––––––––––––––––-
1 | 0:00.33 | 3:46.45 | 33 | 17027
2 | 3:47.03 | 3:18.02 | 17028 | 31879
3 | 7:05.05 | 3:48.05 | 31880 | 48984
4 | 10:53.10 | 2:54.00 | 48985 | 62034
5 | 13:47.10 | 2:21.73 | 62035 | 72682
6 | 16:09.08 | 3:42.02 | 72683 | 89334
7 | 19:51.10 | 3:10.40 | 89335 | 103624
8 | 23:01.50 | 3:24.33 | 103625 | 118957
9 | 26:26.08 | 3:01.40 | 118958 | 132572
10 | 29:27.48 | 3:29.32 | 132573 | 148279
11 | 32:57.05 | 2:44.48 | 148280 | 160627
12 | 35:41.53 | 2:40.10 | 160628 | 172637
13 | 38:21.63 | 2:28.65 | 172638 | 183802
14 | 40:50.53 | 4:04.27 | 183803 | 202129
15 | 44:55.05 | 2:50.43 | 202130 | 214922
16 | 47:45.48 | 3:23.27 | 214923 | 230174
17 | 51:09.00 | 2:31.50 | 230175 | 241549
18 | 53:40.50 | 3:03.00 | 241550 | 255274
19 | 56:43.50 | 2:47.08 | 255275 | 267807
20 | 59:30.58 | 2:08.47 | 267808 | 277454
21 | 61:39.30 | 2:51.20 | 277455 | 290299
22 | 64:30.50 | 2:41.35 | 290300 | 302409
23 | 67:12.10 | 3:55.25 | 302410 | 320059
24 | 71:07.35 | 2:32.20 | 320060 | 331479
25 | 73:39.55 | 3:21.25 | 331480 | 346579


Range status and errors

Selected range

Filename C:\BlondStyle\CD1.wav

Peak level 100.0 %
Extraction speed 9.8 X
Range quality 100.0 %
Test CRC 2D53F19A
Copy CRC 2D53F19A
Copy OK

No errors occurred


AccurateRip summary

Track 1 accurately ripped (confidence 8) [2102E32C] (AR v2)
Track 2 accurately ripped (confidence 8) [5927E21D] (AR v2)
Track 3 accurately ripped (confidence 8) [F18188AB] (AR v2)
Track 4 accurately ripped (confidence 9) [C66B45BA] (AR v2)
Track 5 accurately ripped (confidence 8) [76726C86] (AR v2)
Track 6 accurately ripped (confidence 8) [4F502A41] (AR v2)
Track 7 accurately ripped (confidence 8) [4DBD9314] (AR v2)
Track 8 accurately ripped (confidence 8) [551C38BD] (AR v2)
Track 9 accurately ripped (confidence 8) [429A2800] (AR v2)
Track 10 accurately ripped (confidence 8) [F95D9AB3] (AR v2)
Track 11 accurately ripped (confidence 8) [897D9707] (AR v2)
Track 12 accurately ripped (confidence 8) [CAC119BA] (AR v2)
Track 13 accurately ripped (confidence 8) [3DC4A674] (AR v2)
Track 14 accurately ripped (confidence 8) [1E4CE438] (AR v2)
Track 15 accurately ripped (confidence 8) [FFE33D78] (AR v2)
Track 16 accurately ripped (confidence 8) [D9BC38FA] (AR v2)
Track 17 accurately ripped (confidence 8) [62F89EC3] (AR v2)
Track 18 accurately ripped (confidence 8) [559BE8F4] (AR v2)
Track 19 accurately ripped (confidence 8) [588FDB60] (AR v2)
Track 20 accurately ripped (confidence 8) [62E0E57F] (AR v2)
Track 21 accurately ripped (confidence 8) [A7BA03CA] (AR v2)
Track 22 accurately ripped (confidence 8) [1578ABBC] (AR v2)
Track 23 accurately ripped (confidence 8) [144F3C5C] (AR v2)
Track 24 accurately ripped (confidence 8) [2D19FDE5] (AR v2)
Track 25 accurately ripped (confidence 8) [CCB96DA2] (AR v2)

All tracks accurately ripped

End of status report

==== Log checksum C54C93B3A216CF688953324966E25DBD0E4A2244958C951671336B17C6A29297 ====

Exact Audio Copy V1.0 beta 3 from 29. August 2011

EAC extraction logfile from 1. May 2014, 5:33

Olivia Newton-John / 48 Original Tracks (1971-1975) - CD2

Used drive : ATAPI DVD DW 8X16X8X16 Adapter: 0 ID: 2

Read mode : Secure
Utilize accurate stream : Yes
Defeat audio cache : Yes
Make use of C2 pointers : No

Read offset correction : 618
Overread into Lead-In and Lead-Out : No
Fill up missing offset samples with silence : Yes
Delete leading and trailing silent blocks : No
Null samples used in CRC calculations : Yes
Used interface : Native Win32 interface for Win NT & 2000

Used output format : Internal WAV Routines
Sample format : 44.100 Hz; 16 Bit; Stereo


TOC of the extracted CD

Track | Start | Length | Start sector | End sector
––––––––––––––––––––––––––––-
1 | 0:00.33 | 2:50.55 | 33 | 12837
2 | 2:51.13 | 2:55.35 | 12838 | 25997
3 | 5:46.48 | 3:38.65 | 25998 | 42412
4 | 9:25.38 | 3:18.42 | 42413 | 57304
5 | 12:44.05 | 3:39.03 | 57305 | 73732
6 | 16:23.08 | 3:12.10 | 73733 | 88142
7 | 19:35.18 | 2:32.07 | 88143 | 99549
8 | 22:07.25 | 3:57.45 | 99550 | 117369
9 | 26:04.70 | 3:31.15 | 117370 | 133209
10 | 29:36.10 | 3:28.33 | 133210 | 148842
11 | 33:04.43 | 3:56.50 | 148843 | 166592
12 | 37:01.18 | 3:43.37 | 166593 | 183354
13 | 40:44.55 | 3:25.30 | 183355 | 198759
14 | 44:10.10 | 3:02.25 | 198760 | 212434
15 | 47:12.35 | 3:52.00 | 212435 | 229834
16 | 51:04.35 | 2:48.55 | 229835 | 242489
17 | 53:53.15 | 2:45.45 | 242490 | 254909
18 | 56:38.60 | 2:56.18 | 254910 | 268127
19 | 59:35.03 | 3:24.42 | 268128 | 283469
20 | 62:59.45 | 3:51.65 | 283470 | 300859
21 | 66:51.35 | 2:55.73 | 300860 | 314057
22 | 69:47.33 | 3:14.60 | 314058 | 328667
23 | 73:02.18 | 3:30.17 | 328668 | 344434


Range status and errors

Selected range

Filename C:\BlondStyle\CD2.wav

Peak level 100.0 %
Extraction speed 9.8 X
Range quality 100.0 %
Test CRC 957A5D13
Copy CRC 957A5D13
Copy OK

No errors occurred


AccurateRip summary

Track 1 accurately ripped (confidence 7) [76D31F7C] (AR v2)
Track 2 accurately ripped (confidence 7) [075E3BA5] (AR v2)
Track 3 accurately ripped (confidence 7) [33AEAAD6] (AR v2)
Track 4 accurately ripped (confidence 7) [AF36B7BF] (AR v2)
Track 5 accurately ripped (confidence 8) [62C1DB9E] (AR v2)
Track 6 accurately ripped (confidence 8) [87FE27AE] (AR v2)
Track 7 accurately ripped (confidence 8) [BE2D9221] (AR v2)
Track 8 accurately ripped (confidence 8) [BB88BB26] (AR v2)
Track 9 accurately ripped (confidence 8) [ABC3DD68] (AR v2)
Track 10 accurately ripped (confidence 8) [E359E963] (AR v2)
Track 11 accurately ripped (confidence 8) [8538A0E7] (AR v2)
Track 12 accurately ripped (confidence 8) [B784B3D8] (AR v2)
Track 13 accurately ripped (confidence 8) [04C19312] (AR v2)
Track 14 accurately ripped (confidence 8) [B3944D2B] (AR v2)
Track 15 accurately ripped (confidence 8) [1C96DDDD] (AR v2)
Track 16 accurately ripped (confidence 8) [05E74FAA] (AR v2)
Track 17 accurately ripped (confidence 8) [8A5BC9BB] (AR v2)
Track 18 accurately ripped (confidence 8) [7D301454] (AR v2)
Track 19 accurately ripped (confidence 8) [D83E3243] (AR v2)
Track 20 accurately ripped (confidence 8) [B5118AD7] (AR v2)
Track 21 accurately ripped (confidence 8) [70E18498] (AR v2)
Track 22 accurately ripped (confidence 8) [4C0DD9A7] (AR v2)
Track 23 accurately ripped (confidence 8) [320E18BE] (AR v2)

All tracks accurately ripped

End of status report

==== Log checksum EC0FFFEDBD441CF460C134CF1FB5EB4FECC20014EB6D67E9BF1AC9E289F44B2E ====

[Disc ID: 00468926-04e917ea-7e120d19]
Track [ CRC ] Status
01 [ab0046aa] (14/36) Accurately ripped as in pressing(s) #1
02 [805c681b] (14/36) Accurately ripped as in pressing(s) #1
03 [ab5ff2a0] (14/36) Accurately ripped as in pressing(s) #1
04 [fb3ffbfd] (14/37) Accurately ripped as in pressing(s) #1
05 [aa7309dd] (14/36) Accurately ripped as in pressing(s) #1
06 [10882325] (14/36) Accurately ripped as in pressing(s) #1
07 [d1f73e03] (14/36) Accurately ripped as in pressing(s) #1
08 [23bdb155] (14/35) Accurately ripped as in pressing(s) #1
09 [c7a025bd] (14/35) Accurately ripped as in pressing(s) #1
10 [24627386] (14/36) Accurately ripped as in pressing(s) #1
11 [4bfc8d42] (14/36) Accurately ripped as in pressing(s) #1
12 [f1d95a62] (14/35) Accurately ripped as in pressing(s) #1
13 [e6a4495c] (14/36) Accurately ripped as in pressing(s) #1
14 [3862540f] (14/34) Accurately ripped as in pressing(s) #1
15 [13cb9843] (14/35) Accurately ripped as in pressing(s) #1
16 [9a86f4c2] (14/35) Accurately ripped as in pressing(s) #1
17 [aa72f045] (14/35) Accurately ripped as in pressing(s) #1
18 [9a0db2c9] (14/34) Accurately ripped as in pressing(s) #1
19 [2b0fcfaa] (13/34) Accurately ripped as in pressing(s) #1
20 [15925797] (13/34) Accurately ripped as in pressing(s) #1
21 [45d060ab] (14/35) Accurately ripped as in pressing(s) #1
22 [929e7784] (14/35) Accurately ripped as in pressing(s) #1
23 [85915e8b] (14/34) Accurately ripped as in pressing(s) #1
24 [7d02fb9e] (14/35) Accurately ripped as in pressing(s) #1
25 [1f252b30] (14/34) Accurately ripped as in pressing(s) #1
Offsetted by 13:
01 [03743ebc] (03/36) Accurately ripped as in pressing(s) #4
02 [16964bdc] (03/36) Accurately ripped as in pressing(s) #4
03 [b1bac10b] (03/36) Accurately ripped as in pressing(s) #4
04 [39bcd07f] (03/37) Accurately ripped as in pressing(s) #4
05 [c1c5c2c7] (03/36) Accurately ripped as in pressing(s) #4
06 [fcdd10c2] (03/36) Accurately ripped as in pressing(s) #4
07 [5540fed5] (03/36) Accurately ripped as in pressing(s) #4
08 [78ef7720] (03/35) Accurately ripped as in pressing(s) #4
09 [bc3bf311] (03/35) Accurately ripped as in pressing(s) #4
10 [4478d979] (03/36) Accurately ripped as in pressing(s) #4
11 [ba84b3a9] (03/36) Accurately ripped as in pressing(s) #4
12 [17b0b63e] (03/35) Accurately ripped as in pressing(s) #4
13 [3ff2fa53] (03/36) Accurately ripped as in pressing(s) #4
14 [e9b9d87c] (03/34) Accurately ripped as in pressing(s) #4
15 [e7878cda] (03/35) Accurately ripped as in pressing(s) #4
16 [5d1c1fbf] (03/35) Accurately ripped as in pressing(s) #4
17 [7a86aa71] (03/35) Accurately ripped as in pressing(s) #4
18 [917c8cbf] (03/34) Accurately ripped as in pressing(s) #4
19 [ea9e4960] (03/34) Accurately ripped as in pressing(s) #4
20 [63c441ce] (03/34) Accurately ripped as in pressing(s) #4
21 [79da72bf] (03/35) Accurately ripped as in pressing(s) #4
22 [104fd942] (03/35) Accurately ripped as in pressing(s) #4
23 [c949151f] (03/34) Accurately ripped as in pressing(s) #4
24 [0369b86a] (03/35) Accurately ripped as in pressing(s) #4
25 [b7514e5f] (03/34) Accurately ripped as in pressing(s) #4
Offsetted by 400:
01 [c2c92b4a] (08/36) Accurately ripped as in pressing(s) #2
02 [c9c7c7eb] (08/36) Accurately ripped as in pressing(s) #2
03 [20229a90] (08/36) Accurately ripped as in pressing(s) #2
04 [e0684b9d] (08/37) Accurately ripped as in pressing(s) #3
05 [2950a5fd] (08/36) Accurately ripped as in pressing(s) #2
06 [b35ad9b5] (08/36) Accurately ripped as in pressing(s) #2
07 [99997ea3] (08/36) Accurately ripped as in pressing(s) #2
08 [fea57745] (07/35) Accurately ripped as in pressing(s) #3
09 [7cd035fd] (07/35) Accurately ripped as in pressing(s) #3
10 [622751f6] (08/36) Accurately ripped as in pressing(s) #2
11 [463265f2] (08/36) Accurately ripped as in pressing(s) #2
12 [f4595122] (07/35) Accurately ripped as in pressing(s) #3
13 [dda3670c] (08/36) Accurately ripped as in pressing(s) #2
14 [b071039f] (06/34) Accurately ripped as in pressing(s) #3
15 [d57687f3] (07/35) Accurately ripped as in pressing(s) #3
16 [9b39a952] (07/35) Accurately ripped as in pressing(s) #3
17 [856f7805] (07/35) Accurately ripped as in pressing(s) #3
18 [2ffe0ca9] (06/34) Accurately ripped as in pressing(s) #3
19 [44cd358a] (07/34) Accurately ripped as in pressing(s) #3
20 [542fb947] (07/34) Accurately ripped as in pressing(s) #3
21 [4bf28ceb] (07/35) Accurately ripped as in pressing(s) #3
22 [c1c8fbe4] (07/35) Accurately ripped as in pressing(s) #3
23 [957eb2cb] (06/34) Accurately ripped as in pressing(s) #3
24 [df83855e] (07/35) Accurately ripped as in pressing(s) #3
25 [a4733e60] (07/34) Accurately ripped as in pressing(s) #3

[Disc ID: 003efac9-041cd4b0-6e11f017]
Track [ CRC ] Status
01 [63590a3e] (14/32) Accurately ripped as in pressing(s) #1
02 [6f79838a] (14/32) Accurately ripped as in pressing(s) #1
03 [0515e89d] (14/32) Accurately ripped as in pressing(s) #1
04 [f9e7b394] (14/32) Accurately ripped as in pressing(s) #1
05 [2467f2d3] (14/33) Accurately ripped as in pressing(s) #1
06 [7bcffd3a] (14/33) Accurately ripped as in pressing(s) #1
07 [fdd81ff5] (14/33) Accurately ripped as in pressing(s) #1
08 [87f9d12d] (14/33) Accurately ripped as in pressing(s) #1
09 [90ba09e3] (14/33) Accurately ripped as in pressing(s) #1
10 [2d821e4a] (14/33) Accurately ripped as in pressing(s) #1
11 [bf57d3ff] (14/33) Accurately ripped as in pressing(s) #1
12 [fd51fe4e] (14/33) Accurately ripped as in pressing(s) #1
13 [0d937b64] (14/33) Accurately ripped as in pressing(s) #1
14 [b1258e49] (14/33) Accurately ripped as in pressing(s) #1
15 [0de56a8b] (14/33) Accurately ripped as in pressing(s) #1
16 [e917b878] (14/33) Accurately ripped as in pressing(s) #1
17 [f542bbd5] (14/33) Accurately ripped as in pressing(s) #1
18 [f4d1e601] (14/33) Accurately ripped as in pressing(s) #1
19 [126ca803] (14/33) Accurately ripped as in pressing(s) #1
20 [ce49d355] (14/33) Accurately ripped as in pressing(s) #1
21 [0691b2aa] (13/32) Accurately ripped as in pressing(s) #1
22 [c3bc9a9b] (13/32) Accurately ripped as in pressing(s) #1
23 [299a356d] (13/31) Accurately ripped as in pressing(s) #1
Offsetted by 277:
01 [2c598da9] (07/32) Accurately ripped as in pressing(s) #2
02 [57501bea] (07/32) Accurately ripped as in pressing(s) #2
03 [0adbfce1] (07/32) Accurately ripped as in pressing(s) #2
04 [70b6d236] (07/32) Accurately ripped as in pressing(s) #2
05 [a09f6427] (07/33) Accurately ripped as in pressing(s) #3
06 [184e6e15] (07/33) Accurately ripped as in pressing(s) #3
07 [f5c088d0] (07/33) Accurately ripped as in pressing(s) #3
08 [5491c360] (07/33) Accurately ripped as in pressing(s) #3
09 [74e9adb3] (07/33) Accurately ripped as in pressing(s) #3
10 [977f1e4d] (07/33) Accurately ripped as in pressing(s) #3
11 [f7ee2d51] (07/33) Accurately ripped as in pressing(s) #3
12 [deb32903] (07/33) Accurately ripped as in pressing(s) #3
13 [c4b6212e] (07/33) Accurately ripped as in pressing(s) #3
14 [52c34b2b] (07/33) Accurately ripped as in pressing(s) #3
15 [fd002369] (07/33) Accurately ripped as in pressing(s) #3
16 [9bbb4c60] (07/33) Accurately ripped as in pressing(s) #3
17 [93f4ad45] (07/33) Accurately ripped as in pressing(s) #3
18 [f3385a05] (07/33) Accurately ripped as in pressing(s) #3
19 [342548bf] (07/33) Accurately ripped as in pressing(s) #3
20 [690227d9] (07/33) Accurately ripped as in pressing(s) #3
21 [8a2da445] (07/32) Accurately ripped as in pressing(s) #3
22 [8ed192b2] (07/32) Accurately ripped as in pressing(s) #3
23 [54b59231] (07/31) Accurately ripped as in pressing(s) #3

––––––––––––––––––––––––––––––––––––––––
Analyzed: Olivia Newton-John / 48 Original Tracks (1971-1975) - CD1
––––––––––––––––––––––––––––––––––––––––

DR Peak RMS Duration Track
––––––––––––––––––––––––––––––––––––––––
DR11 -0.34 dB -14.78 dB 3:47 01-Love Song
DR10 -0.44 dB -13.89 dB 3:18 02-Banks Of The Ohio
DR12 -0.23 dB -14.89 dB 3:48 03-Me And Bobby McGee
DR12 -0.71 dB -15.58 dB 2:54 04-If Not For You
DR10 -1.43 dB -14.31 dB 2:22 05-Help Me Make It Through The Night
DR9 -0.79 dB -13.17 dB 3:42 06-If You Could Read My Mind
DR10 0.00 dB -12.43 dB 3:11 07-In A Station
DR10 -0.73 dB -15.52 dB 3:24 08-Where Are You Going To My Love
DR9 -1.43 dB -13.60 dB 3:02 09-Lullaby
DR12 -0.24 dB -14.71 dB 3:29 10-No Regrets
DR12 -0.70 dB -15.39 dB 2:45 11-If I Gotta Leave
DR10 -1.08 dB -14.01 dB 2:40 12-Would You Follow Me
DR10 -0.40 dB -14.56 dB 2:29 13-If
DR10 -0.51 dB -13.33 dB 4:04 14-It's So Hard To Say Goodbye
DR11 0.00 dB -13.95 dB 2:51 15-Winterwood
DR12 0.00 dB -14.02 dB 3:23 16-What Is Life
DR11 -1.49 dB -15.67 dB 2:32 17-Changes
DR12 -0.76 dB -17.20 dB 3:03 18-Everything I Own
DR10 -0.84 dB -14.37 dB 2:47 19-I'm A Small And Lonely Light
DR10 -0.71 dB -11.96 dB 2:09 20-Just A Little Too Much
DR12 0.00 dB -13.32 dB 2:51 21-Living In Harmony
DR11 -1.16 dB -13.89 dB 2:41 22-Why Don't You Write Me
DR9 -0.35 dB -14.71 dB 3:55 23-Angel Of The Morning
DR11 -0.67 dB -13.45 dB 2:32 24-Mary Skeffington
DR9 -1.03 dB -14.96 dB 3:21 25-If We Only Have Love
––––––––––––––––––––––––––––––––––––––––

Number of tracks: 25
Official DR value: DR11

Samplerate: 44100 Hz
Channels: 2
Bits per sample: 16
Bitrate: 848 kbps
Codec: FLAC
================================================================================

––––––––––––––––––––––––––––––––––––––––
Analyzed: Olivia Newton-John / 48 Original Tracks (1971-1975) - CD2
––––––––––––––––––––––––––––––––––––––––

DR Peak RMS Duration Track
––––––––––––––––––––––––––––––––––––––––
DR10 -0.13 dB -12.85 dB 2:51 01-My Old Man's Got A Gun
DR10 0.00 dB -13.42 dB 2:55 02-Maybe Then I'll Think Of You
DR11 -0.72 dB -16.05 dB 3:39 03-Amoureuse
DR11 0.00 dB -13.68 dB 3:19 04-Take Me Home Country Roads
DR13 -0.29 dB -18.76 dB 3:39 05-I Love You, I Honestly Love You
DR10 -3.14 dB -15.92 dB 3:12 06-Music Makes My Day
DR12 -0.49 dB -14.47 dB 2:32 07-Heartbreaker
DR11 -0.54 dB -15.27 dB 3:58 08-Leaving
DR11 -0.59 dB -14.96 dB 3:31 09-You Ain't Got The Right
DR11 -0.68 dB -14.16 dB 3:28 10-Feeling Best
DR10 -2.72 dB -16.42 dB 3:57 11-Rosewater
DR12 -0.24 dB -15.39 dB 3:43 12-Being On The Losing End
DR11 -1.39 dB -15.77 dB 3:25 13-If We Try
DR12 -0.98 dB -14.89 dB 3:02 14-Let Me Be There
DR11 -0.39 dB -14.55 dB 3:52 15-Country Girl
DR11 -1.39 dB -15.11 dB 2:49 16-Loving You Ain't Easy
DR11 -0.65 dB -13.49 dB 2:46 17-Have Love Will Travel
DR10 -1.75 dB -14.18 dB 2:56 18-Hands Across The Sea
DR12 -0.18 dB -16.94 dB 3:25 19-Please Mr. Please
DR12 0.00 dB -18.70 dB 3:52 20-The Air That I Breathe
DR11 -1.66 dB -16.77 dB 2:56 21-Loving Arms
DR12 0.00 dB -14.89 dB 3:15 22-If You Love Me (Let Me Know)
DR11 -0.59 dB -15.71 dB 3:30 23-Have You Never Been Mellow
––––––––––––––––––––––––––––––––––––––––

Number of tracks: 23
Official DR value: DR11

Samplerate: 44100 Hz
Channels: 2
Bits per sample: 16
Bitrate: 809 kbps
Codec: FLAC
================================================================================

See also:

♫~Welcome To My Blog~♫

password: BlondStyle