Subcategories
Tags
Language
Tags

Olivia Newton-John - Let Me Be There (1973) [1987, Reissue] {Japan for USA}

Posted By: BlondStyle
Olivia Newton-John - Let Me Be There (1973) [1987, Reissue] {Japan for USA}

Olivia Newton-John - Let Me Be There (1973) [1987, Reissue] {Japan for USA}
Country, Pop/Rock, Soft Rock, Vocal | EAC Rip | FLAC, Img+CUE+LOG+Scans (PNG) | 32:27 | 321,01 Mb
Label: MCA Records (USA) | Cat.# MCAD-31017 | Released: 1987 (1973)
Olivia Newton-John - Let Me Be There (1973) [1987, Reissue] {Japan for USA}

"Let Me Be There" is a 1973 album by Olivia Newton-John. The American publication of this 1973 album by MCA Records used the cover art from Olivia's 1972 LP record "Olivia" which was not released by MCA. Some of its songs were taken for the U.S. publication, such as song titles from the British publications of the albums "If Not for You" and "Olivia". Though the title song was a commercial failure in England, it was Olivia Newton-John's first American Top 10 hit, successfully boosting her singing career in North America. She had previously charted in the Billboard Top 40 with the song "If Not for You". This album was published to capitalize on the success of its title track - that had earned Newton-John a Grammy for Best Country Female. The album was certified Gold in 1974, and it peaked at #54 on the Pop charts and at #1 (for two weeks) on the Country charts.
Olivia Newton-John - Let Me Be There (1973) [1987, Reissue] {Japan for USA}

Olivia Newton-John - Let Me Be There (1973) [1987, Reissue] {Japan for USA}




Release of the album: 1973 [LP MCA Records, Cat.# MCA 389, USA]
Release of this CD: 1987 [CD MCA Records (USA), Cat.# MCAD-31017 / UPC: 076731101729]
© 1980 MCA Records, Inc. ℗ 1973 Festival International Production.
Manufactured in Japan for MCA Records. Inc.

Tracks 1-5; 7-10 - Arranged and Produced by Bruce Welch and John Farrar.
Track 6 - Arranged and Produced by John Farrar.
Recorded in England. A Festival Records International Production.


Tracklist:

01. "Let Me Be There" (03:02)
(John Rostill)
02. "Me And Bobby McGee" (03:50)
(Fred Foster / Kris Kristofferson)
03. "Banks Of The Ohio" (03:19)
(Arranged By - Bruce Welch and John Farrar
Written-By - Traditional)

04. "Love Song" (03:48)
(Lesley Duncan)
05. "If Not For You" (02:51)
(Bob Dylan)
06. "Take Me Home Country Roads" (03:21)
(Bill Danoff / Taffy Nivert / John Denver)
07. "Angel Of The Morning" (04:00)
(Chip Taylor)
08. "If You Could Read My Mind" (03:44)
(Gordon Lightfoot)
09. "Help Me Make It Through The Night" (02:25)
(Kris Kristofferson)
10. "Just A Little Too Much" (02:07)
(Johnny Burnette)

Exact Audio Copy V1.3 from 2. September 2016

EAC extraction logfile from 18. March 2020, 17:48

Olivia Newton-John / Let Me Be There

Used drive : PIONEER BD-RW BDR-208D Adapter: 1 ID: 0

Read mode : Secure
Utilize accurate stream : Yes
Defeat audio cache : Yes
Make use of C2 pointers : No

Read offset correction : 667
Overread into Lead-In and Lead-Out : No
Fill up missing offset samples with silence : Yes
Delete leading and trailing silent blocks : No
Null samples used in CRC calculations : Yes
Used interface : Native Win32 interface for Win NT & 2000

Used output format : Internal WAV Routines
Sample format : 44.100 Hz; 16 Bit; Stereo


TOC of the extracted CD

Track | Start | Length | Start sector | End sector
––––––––––––––––––––––––––––-
1 | 0:00.37 | 3:01.55 | 37 | 13666
2 | 3:02.17 | 3:49.38 | 13667 | 30879
3 | 6:51.55 | 3:19.35 | 30880 | 45839
4 | 10:11.15 | 3:47.47 | 45840 | 62911
5 | 13:58.62 | 2:51.18 | 62912 | 75754
6 | 16:50.05 | 3:21.15 | 75755 | 90844
7 | 20:11.20 | 3:59.70 | 90845 | 108839
8 | 24:11.15 | 3:44.37 | 108840 | 125676
9 | 27:55.52 | 2:24.48 | 125677 | 136524
10 | 30:20.25 | 2:07.15 | 136525 | 146064


Range status and errors

Selected range

Filename D:\BlondStyle\Olivia Newton-John - Let Me Be There.wav

Peak level 100.0 %
Extraction speed 6.4 X
Range quality 99.9 %
Test CRC 15AC059A
Copy CRC 15AC059A
Copy OK

No errors occurred


AccurateRip summary

Track 1 accurately ripped (confidence 9) [460436DC] (AR v2)
Track 2 accurately ripped (confidence 9) [93282509] (AR v2)
Track 3 accurately ripped (confidence 9) [26A5193B] (AR v2)
Track 4 accurately ripped (confidence 9) [54F4A7E7] (AR v2)
Track 5 accurately ripped (confidence 9) [FE6CC885] (AR v2)
Track 6 accurately ripped (confidence 9) [F97849FF] (AR v2)
Track 7 accurately ripped (confidence 9) [8D6B89A5] (AR v2)
Track 8 accurately ripped (confidence 9) [C97E554B] (AR v2)
Track 9 accurately ripped (confidence 9) [B31838E7] (AR v2)
Track 10 accurately ripped (confidence 9) [23970111] (AR v2)

All tracks accurately ripped

End of status report

–– CUETools DB Plugin V2.1.6

[CTDB TOCID: Gh.PjL2urKjdMayHAyk2ELIo.As-] found
Submit result: Gh.PjL2urKjdMayHAyk2ELIo.As- has been confirmed
Track | CTDB Status
1 | (11/11) Accurately ripped
2 | (11/11) Accurately ripped
3 | (11/11) Accurately ripped
4 | (11/11) Accurately ripped
5 | (11/11) Accurately ripped
6 | (11/11) Accurately ripped
7 | (11/11) Accurately ripped
8 | (11/11) Accurately ripped
9 | (11/11) Accurately ripped
10 | (11/11) Accurately ripped


==== Log checksum 1CA6AE2FD5BBB7F5BA30600724122C4F0DFDFCC2E16C521B47189820B49781C3 ====

[Disc ID: 000cc5b3-0065f62a-67079b0a]
Track [ CRC ] Status
01 [e08815ef] (07/16) Accurately ripped as in pressing(s) #2
02 [09368b5e] (07/16) Accurately ripped as in pressing(s) #2
03 [c6bc80ba] (06/15) Accurately ripped as in pressing(s) #2
04 [505b08a6] (07/16) Accurately ripped as in pressing(s) #2
05 [17381ad7] (07/16) Accurately ripped as in pressing(s) #2
06 [6100dcc2] (07/16) Accurately ripped as in pressing(s) #2
07 [4a9bd115] (07/16) Accurately ripped as in pressing(s) #2
08 [0478914e] (07/16) Accurately ripped as in pressing(s) #2
09 [b49d2087] (07/16) Accurately ripped as in pressing(s) #2
10 [808a5c7b] (07/16) Accurately ripped as in pressing(s) #2

––––––––––––––––––––––––––––––––––––––––
Analyzed: Olivia Newton-John / Let Me Be There
––––––––––––––––––––––––––––––––––––––––

DR Peak RMS Duration Track
––––––––––––––––––––––––––––––––––––––––
DR13 0.00 dB -16.15 dB 3:02 01-Let Me Be There
DR12 -0.60 dB -13.85 dB 3:50 02-Me & Bobby McGee
DR11 0.00 dB -13.91 dB 3:19 03-Banks Of The Ohio
DR10 -6.52 dB -19.41 dB 3:48 04-Love Song
DR12 -0.85 dB -15.03 dB 2:51 05-If Not For You
DR11 -1.51 dB -15.91 dB 3:21 06-Take Me Home, Country Roads
DR13 0.00 dB -17.63 dB 4:00 07-Angel Of The Morning
DR11 -1.55 dB -15.26 dB 3:44 08-If You Could Read My Mind
DR10 0.00 dB -13.41 dB 2:25 09-Help Me Make It Through The Night
DR12 0.00 dB -12.75 dB 2:07 10-Just A Little Too Much
––––––––––––––––––––––––––––––––––––––––

Number of tracks: 10
Official DR value: DR11

Samplerate: 44100 Hz
Channels: 2
Bits per sample: 16
Bitrate: 827 kbps
Codec: FLAC
================================================================================

See also:

♫~Welcome To My Blog~♫

password: BlondStyle