Subcategories

Renaud Capuçon - Le violon ROI [3CDs] (2013)

Posted By: ArlegZ
Renaud Capuçon - Le violon ROI [3CDs] (2013)

Renaud Capuçon - Le violon ROI [3CDs] (2013)
EAC | FLAC | Image (Cue & Log) ~ 1.03 Gb | Total time: 76:21+78:55+79:35 | Scans included
Classical | Label: Erato | # 2564631360 | Recorded: 2001-2013

A violinist in a class of his own, Renaud Capuçon shows why he is 'Le Violon Roi'; (The Violin King) in this 3-CD collection. As the leading French violinist of his generation, Capucon records exclusively for Virgin Classics and has a rich discography. The set brings together not only some of his best and most popular performances as a soloist but as a collaborator.
Each CD in the set represents a musical side of Renaud Capucon. CD One contains his recordings of concertos including Beethoven's sublime concerto for violin & orchestra in D major. A touchstone of any major violinist's repertoire, Capcuon elevates this performance of the concerto with his virtuosity. The Rotterdamn Philharmonic under the direction of Yannick Nezet-Seguin support Capcuon in the recording. CD Two is devoted to chamber music. Capucon's popular recording of Beethoven's Sonatas for violin and piano with Frank Braley is one of the many featured pieces on this disc. Finally, CD Three contains Capucon's favorite Petite Pieces including his recording of Johann Halvorsen's Passacaille d'apres Haendel, a piece he collaborated with his brother Gautier. As one notices from this set, Renaud is a frequent collaborator. Many of artists he performs with are those whom he counts as close friends. His collaborations is one of the distinctive things that sets Renaud apart from his contemporaries. Over the years, as his reputation and virtuosity have grown, as his mastery and maturity have increased, he has been able to build up a network of friendships, partnerships and common bonds. From Vienna to Lugano, from France and Europe to Australia, Renaud Capucon has built his own world, developed his own tastes, his own affinity with other artists who love him and whom he loves in return - they are his family.

Performer:
Renaud Capuçon, violin

Track List:
CD1:
Felix Mendelssohn (1809-1847)
01. Concerto pour violon & orchestre en mi mineur Op.64 - I. Allegro molto appassionato
Mahler Chamber Orchestra / Daniel Harding
Erich Korngold (1897-1957)
02. Concerto pour violon & orchestre en ré majeur Op.35 - II. Romance: Andante
Orchestre Philharmonique de Rotterdam / Yannick Nézet-Séguin
Johannes Brahms (1833-1897)
03. Concerto pour violon & orchestre en ré majeur Op.77 - III. Allegro giocoso, ma non troppo vivace
Orchestre Philharmonique de Vienne / Daniel Harding
Robert Schumann (1810-1856)
04. Concerto pour violon & orchestre en ré mineur - II. Langsam
Mahler Chamber Orchestra / Daniel Harding
Ludwig Van Beethoven (1770-1827)
05. Concerto pour violon & orchestre en ré majeur Op.61 - III. Rondo: Allegro
Orchestre Philharmonique de Rotterdam / Yannick Nézet-Séguin
06. Concerto pour piano violon violoncelle & orchestre en ut majeur Op.56 - II. Largo
Orchestra della Svizzera Italiana / Alexandre Rabinovitch-Barakovsky
Johannes Brahms (1833-1897)
07. Double concerto pour violon violoncelle & orchestre en la mineur Op.102 - III. Vivace non troppo
Gautier Capuçon / Gustav Mahler Jugendorchester / Myung-Whun Chung
Wolfgang Amadeus Mozart (1756-1791)
08. Symphonie concertante pour violon alto & orchestre en mi bémol majeur K.364 - II. Andante
09. Concerto pour violon n° 1 & orchestre en si bémol majeur L.207 - III. Presto
Antoine Tamestit / Scottish Chamber Orchestra / Louis Langrée
CD2:
Johannes Brahms (1833-1897)
01. Quatuor avec piano n°1 en sol mineur Op.25 - IV. Rondo alla Zingarese. Presto
Nicholas Angelich / Gérard Caussé / Gautier Capuçon
02. Sonate pour violon & piano n°2 en la majeur Op.100 - III. Allegretto grazioso (quasi andante)
Nicholas Angelich, piano
Ludwig van Beethoven (1770-1827)
03. Trio avec piano en ré majeur Op.70 n°1 « des esprits » - II. Largo assai ed espressivo
Martha Argerich / Mischa Maisky
04. Sonate pour violon & piano n°5 en fa majeur Op.24 'Printemps' - I. Allegro
Frank Braley, piano
05. Sonate pour violon & piano n°8 en sol majeur Op.30 n°3 - III. Allegro vivace
Martha Argerich, piano
Robert Schumann (1810-1856)
06. Sonate pour violon & piano n°1 en la mineur Op.105 - I. Mit leidenshaftlichem Ausdruck
07. Sonate pour violon & piano n°2 en ré mineur Op.121 : II. Sehr lebhaft
Martha Argerich, piano
Franz Schubert (1797-1828)
08. Quintette avec piano en la majeur D.667 'La Truite' - IV. Tema con variazioni
Gérard Caussé / Gautier Capuçon / Alois Posch / Frank Braley
Gabriel Fauré (1845-1924)
09. Sonate pour violon & piano n°1 en la majeur Op.13 - IV: Allegro quasi presto
Michel Dalberto, piano
Maurice Ravel (1875-1937)
10. Sonate pour violon et piano - III. Perpetuum mobile
Frank Braley, piano
Félix Mendelssohn (1809-1847)
11. Trio avec piano n°1 en ré mineur Op.49 : III. Scherzo. Leggiero e vivace
Martha Argerich / Gautier Capuçon
Franz Schubert (1797-1828)
12. Trio avec piano n°2 en mi bémol majeur D.929 : II. Andante con moto
Gautier Capuçon / Frank Braley
CD3:
Jules Massenet (1842-1912)
01. Méditation de Thaïs
Die Deutsche Kammerphilharmonie Bremen / Daniel Harding
Claude Debussy (1862-1918)
02. Clair de lune (Suite Bergamasque)
Jérôme Ducros, piano
Johann Halvorsen (1864-1935)
03. Passacaille d'après Haendel (Suite no 7 en sol mineur)
Gautier Capuçon, violoncelle
Christoph von Gluck (1714-1787)
04. Ballet des ombres heureuses (Orfeo ed Euridice)
Jérôme Ducros, piano
Antonín Dvořák (1841-1904)
05. Humoresque en si bémol majeur Op.101 no 7
Jérôme Ducros, piano
Maurice Ravel (1875-1937)
06. Tzigane, rapsodie de concert pour violon & orchestre
Die Deutsche Kammerphilharmonie Bremen / Daniel Harding
Fritz Kreisler (1875-1962)
07. Liebesleid
Jérôme Ducros, piano
08. Marche miniature viennoise - Tempo di marcia
Gautier Capuçon / Aude Capuçon
Grigoras Dinicu (1889-1949)
09. Hora staccato
Jérôme Ducros, piano
Camille Saint-Saëns (1835-1921)
10. Introduction et rondo capriccioso en la mineur Op.28
Die Deutsche Kammerphilharmonie Bremen / Daniel Harding
Erich Korngold (1897-1957)
11. Mariettas Lied zur Laute (Die tote Stadt)
Jérôme Ducros, piano
Josef Suk (1874-1935)
12. Un poco triste Op.17 no 3
Jérôme Ducros, piano
Gabriel Fauré (1845-1924)
13. Berceuse Op.16
Michel Dalberto, piano
Erich Korngold (1897-1957)
14. Much ado about nothing Op.11 : Gartenszene
Jérôme Ducros, piano
Piotr Ilyich Tchaïkovski (1840-1893)
15. Valse sentimentale en fa mineur Op.51 no 6
Jérôme Ducros, piano
Camille Saint-Saëns (1835-1921)
16. Danse macabre, poème symphonique Op.40
Die Deutsche Kammerphilharmonie Bremen / Daniel Harding
17. Le Carnaval des Animaux, grande fantaisie zoologique, No.14 Final (Molto allegro)
Esther Hoppe / Béatrice Muthelet / Gautier Capuçon / Frank Braley / Michel Dalberto / Emmanuel Pahud / Paul Meyer / Janne Saksala / Florent Jodelet


Exact Audio Copy V1.3 from 2. September 2016

EAC extraction logfile from 29. June 2019, 14:52

Renaud Capuçon & VA / Le violon ROI [cd 01]

Used drive : MATSHITADVD-RAM UJ8G6 Adapter: 1 ID: 0

Read mode : Secure
Utilize accurate stream : Yes
Defeat audio cache : Yes
Make use of C2 pointers : No

Read offset correction : 103
Overread into Lead-In and Lead-Out : No
Fill up missing offset samples with silence : Yes
Delete leading and trailing silent blocks : No
Null samples used in CRC calculations : Yes
Used interface : Native Win32 interface for Win NT & 2000

Used output format : User Defined Encoder
Selected bitrate : 1024 kBit/s
Quality : High
Add ID3 tag : No
Command line compressor : C:\Program Files (x86)\Exact Audio Copy\FLAC\FLAC.EXE
Additional command line options : -6 -V -T "ARTIST=%artist%" -T "TITLE=%title%" -T "ALBUM=%albumtitle%" -T "DATE=%year%" -T "TRACKNUMBER=%tracknr%" -T "GENRE=%genre%" -T "COMMENT=%comment%" -T "BAND=%albuminterpret%" -T "ALBUMARTIST=%albuminterpret%" -T "COMPOSER=%composer%" %haslyrics%–tag-from-file=LYRICS="%lyricsfile%"%haslyrics% -T "DISCNUMBER=%cdnumber%" -T "TOTALDISCS=%totalcds%" -T "TOTALTRACKS=%numtracks%" %hascover%–picture="%coverfile%"%hascover% %source% -o %dest%


TOC of the extracted CD

Track | Start | Length | Start sector | End sector
––––––––––––––––––––––––––––-
1 | 0:00.00 | 12:46.40 | 0 | 57489
2 | 12:46.40 | 9:09.03 | 57490 | 98667
3 | 21:55.43 | 7:49.20 | 98668 | 133862
4 | 29:44.63 | 6:04.68 | 133863 | 161230
5 | 35:49.56 | 10:21.00 | 161231 | 207805
6 | 46:10.56 | 5:26.70 | 207806 | 232325
7 | 51:37.51 | 8:36.53 | 232326 | 271078
8 | 60:14.29 | 10:44.60 | 271079 | 319438
9 | 70:59.14 | 5:20.05 | 319439 | 343443


Range status and errors

Selected range

Filename F:\RAT\0 - Attente UP\Renaud Capuçon & VA - Le violon ROI [cd 01].wav

Peak level 96.6 %
Extraction speed 2.8 X
Range quality 99.9 %
Test CRC 56D3E50F
Copy CRC 56D3E50F
Copy OK

No errors occurred


AccurateRip summary

Track 1 accurately ripped (confidence 15) [C6A0B223] (AR v2)
Track 2 accurately ripped (confidence 15) [E9765F4E] (AR v2)
Track 3 accurately ripped (confidence 15) [C481A1AF] (AR v2)
Track 4 accurately ripped (confidence 15) [6545FE2F] (AR v2)
Track 5 accurately ripped (confidence 15) [75F50A7E] (AR v2)
Track 6 accurately ripped (confidence 15) [8EB6716B] (AR v2)
Track 7 accurately ripped (confidence 15) [B05768C9] (AR v2)
Track 8 accurately ripped (confidence 15) [48DBD3BA] (AR v2)
Track 9 accurately ripped (confidence 15) [D9ECB68A] (AR v2)

All tracks accurately ripped

End of status report

–– CUETools DB Plugin V2.1.6

[CTDB TOCID: 1UaCKZN0CToqeRrnX5lfxj1CYnk-] found
Submit result: 1UaCKZN0CToqeRrnX5lfxj1CYnk- has been confirmed
Track | CTDB Status
1 | (51/55) Accurately ripped
2 | (51/55) Accurately ripped
3 | (50/55) Accurately ripped
4 | (51/55) Accurately ripped
5 | (50/55) Accurately ripped
6 | (51/55) Accurately ripped
7 | (51/55) Accurately ripped
8 | (50/55) Accurately ripped
9 | (50/55) Accurately ripped


==== Log checksum 5B094BE0C8A61C0BFCF8C49FF371BA1E3F3AFFCE1F70FA905793FE98E32673EB ====


Exact Audio Copy V1.3 from 2. September 2016

EAC extraction logfile from 29. June 2019, 16:22

Renaud CAPUÇON & VA / Le violon ROI [cd 02]

Used drive : MATSHITADVD-RAM UJ8G6 Adapter: 1 ID: 0

Read mode : Secure
Utilize accurate stream : Yes
Defeat audio cache : Yes
Make use of C2 pointers : No

Read offset correction : 103
Overread into Lead-In and Lead-Out : No
Fill up missing offset samples with silence : Yes
Delete leading and trailing silent blocks : No
Null samples used in CRC calculations : Yes
Used interface : Native Win32 interface for Win NT & 2000

Used output format : User Defined Encoder
Selected bitrate : 1024 kBit/s
Quality : High
Add ID3 tag : No
Command line compressor : C:\Program Files (x86)\Exact Audio Copy\FLAC\FLAC.EXE
Additional command line options : -6 -V -T "ARTIST=%artist%" -T "TITLE=%title%" -T "ALBUM=%albumtitle%" -T "DATE=%year%" -T "TRACKNUMBER=%tracknr%" -T "GENRE=%genre%" -T "COMMENT=%comment%" -T "BAND=%albuminterpret%" -T "ALBUMARTIST=%albuminterpret%" -T "COMPOSER=%composer%" %haslyrics%–tag-from-file=LYRICS="%lyricsfile%"%haslyrics% -T "DISCNUMBER=%cdnumber%" -T "TOTALDISCS=%totalcds%" -T "TOTALTRACKS=%numtracks%" %hascover%–picture="%coverfile%"%hascover% %source% -o %dest%


TOC of the extracted CD

Track | Start | Length | Start sector | End sector
––––––––––––––––––––––––––––-
1 | 0:00.00 | 8:18.40 | 0 | 37389
2 | 8:18.40 | 5:50.58 | 37390 | 63697
3 | 14:09.23 | 10:45.57 | 63698 | 112129
4 | 24:55.05 | 9:50.09 | 112130 | 156388
5 | 34:45.14 | 3:14.09 | 156389 | 170947
6 | 37:59.23 | 7:17.66 | 170948 | 203788
7 | 45:17.14 | 4:34.44 | 203789 | 224382
8 | 49:51.58 | 7:33.48 | 224383 | 258405
9 | 57:25.31 | 5:53.17 | 258406 | 284897
10 | 63:18.48 | 3:32.19 | 284898 | 300816
11 | 66:50.67 | 3:22.51 | 300817 | 316017
12 | 70:13.43 | 8:39.35 | 316018 | 354977


Range status and errors

Selected range

Filename F:\RAT\0 - Attente UP\Renaud CAPUÇON & VA - Le violon ROI [cd 02].wav

Peak level 96.8 %
Extraction speed 4.6 X
Range quality 100.0 %
Test CRC 4C28C658
Copy CRC 4C28C658
Copy OK

No errors occurred


AccurateRip summary

Track 1 accurately ripped (confidence 2) [4C78FB61] (AR v2)
Track 2 accurately ripped (confidence 2) [C8694E89] (AR v2)
Track 3 accurately ripped (confidence 2) [79A3BA49] (AR v2)
Track 4 accurately ripped (confidence 2) [6A6DD7D1] (AR v2)
Track 5 accurately ripped (confidence 2) [D5E10D69] (AR v2)
Track 6 accurately ripped (confidence 2) [A18046B4] (AR v2)
Track 7 accurately ripped (confidence 2) [6F45318D] (AR v2)
Track 8 accurately ripped (confidence 2) [EA07457E] (AR v2)
Track 9 accurately ripped (confidence 2) [3AC98C41] (AR v2)
Track 10 accurately ripped (confidence 2) [64CC5B2C] (AR v2)
Track 11 accurately ripped (confidence 2) [277D68A7] (AR v2)
Track 12 accurately ripped (confidence 2) [5985804D] (AR v2)

All tracks accurately ripped

End of status report

–– CUETools DB Plugin V2.1.6

[CTDB TOCID: s_wdZOeAc92tIDEpGPD4ZqVjKi0-] found
Submit result: s_wdZOeAc92tIDEpGPD4ZqVjKi0- has been confirmed
Track | CTDB Status
1 | (59/59) Accurately ripped
2 | (59/59) Accurately ripped
3 | (59/59) Accurately ripped
4 | (59/59) Accurately ripped
5 | (59/59) Accurately ripped
6 | (59/59) Accurately ripped
7 | (59/59) Accurately ripped
8 | (59/59) Accurately ripped
9 | (59/59) Accurately ripped
10 | (59/59) Accurately ripped
11 | (58/59) Accurately ripped
12 | (59/59) Accurately ripped


==== Log checksum 341F31860AA7269DA282094C1D712E745A497A465E28780B965E56D6E3EFC746 ====


Exact Audio Copy V1.3 from 2. September 2016

EAC extraction logfile from 29. June 2019, 17:10

Renaud CAPUÇON & VA / Renaud CAPUÇON & VA - Le violon ROI [cd 03]

Used drive : MATSHITADVD-RAM UJ8G6 Adapter: 1 ID: 0

Read mode : Secure
Utilize accurate stream : Yes
Defeat audio cache : Yes
Make use of C2 pointers : No

Read offset correction : 103
Overread into Lead-In and Lead-Out : No
Fill up missing offset samples with silence : Yes
Delete leading and trailing silent blocks : No
Null samples used in CRC calculations : Yes
Used interface : Native Win32 interface for Win NT & 2000

Used output format : User Defined Encoder
Selected bitrate : 1024 kBit/s
Quality : High
Add ID3 tag : No
Command line compressor : C:\Program Files (x86)\Exact Audio Copy\FLAC\FLAC.EXE
Additional command line options : -6 -V -T "ARTIST=%artist%" -T "TITLE=%title%" -T "ALBUM=%albumtitle%" -T "DATE=%year%" -T "TRACKNUMBER=%tracknr%" -T "GENRE=%genre%" -T "COMMENT=%comment%" -T "BAND=%albuminterpret%" -T "ALBUMARTIST=%albuminterpret%" -T "COMPOSER=%composer%" %haslyrics%–tag-from-file=LYRICS="%lyricsfile%"%haslyrics% -T "DISCNUMBER=%cdnumber%" -T "TOTALDISCS=%totalcds%" -T "TOTALTRACKS=%numtracks%" %hascover%–picture="%coverfile%"%hascover% %source% -o %dest%


TOC of the extracted CD

Track | Start | Length | Start sector | End sector
––––––––––––––––––––––––––––-
1 | 0:00.00 | 5:20.62 | 0 | 24061
2 | 5:20.62 | 4:16.26 | 24062 | 43287
3 | 9:37.13 | 6:12.29 | 43288 | 71216
4 | 15:49.42 | 3:46.37 | 71217 | 88203
5 | 19:36.04 | 3:06.37 | 88204 | 102190
6 | 22:42.41 | 10:03.49 | 102191 | 147464
7 | 32:46.15 | 3:14.40 | 147465 | 162054
8 | 36:00.55 | 3:16.36 | 162055 | 176790
9 | 39:17.16 | 2:03.45 | 176791 | 186060
10 | 41:20.61 | 8:45.51 | 186061 | 225486
11 | 50:06.37 | 5:04.36 | 225487 | 248322
12 | 55:10.73 | 3:41.25 | 248323 | 264922
13 | 58:52.23 | 3:39.01 | 264923 | 281348
14 | 62:31.24 | 5:16.04 | 281349 | 305052
15 | 67:47.28 | 3:24.58 | 305053 | 320410
16 | 71:12.11 | 6:25.35 | 320411 | 349320
17 | 77:37.46 | 1:56.06 | 349321 | 358026


Range status and errors

Selected range

Filename F:\RAT\0 - Attente UP\Renaud CAPUÇON & VA - Renaud CAPUÇON & VA - Le violon ROI [cd 03].wav

Peak level 94.5 %
Extraction speed 4.6 X
Range quality 100.0 %
Test CRC F9A46E67
Copy CRC F9A46E67
Copy OK

No errors occurred


AccurateRip summary

Track 1 accurately ripped (confidence 2) [D0F3DFD6] (AR v2)
Track 2 accurately ripped (confidence 2) [4EDE541B] (AR v2)
Track 3 accurately ripped (confidence 2) [CF8A7EEB] (AR v2)
Track 4 accurately ripped (confidence 2) [17456768] (AR v2)
Track 5 accurately ripped (confidence 2) [45A0578A] (AR v2)
Track 6 accurately ripped (confidence 2) [D78BD167] (AR v2)
Track 7 accurately ripped (confidence 2) [EE28B266] (AR v2)
Track 8 accurately ripped (confidence 2) [97AF56A5] (AR v2)
Track 9 accurately ripped (confidence 2) [255AFD16] (AR v2)
Track 10 accurately ripped (confidence 2) [420E7D3C] (AR v2)
Track 11 accurately ripped (confidence 2) [9E199057] (AR v2)
Track 12 accurately ripped (confidence 2) [895688DD] (AR v2)
Track 13 accurately ripped (confidence 2) [2020D95E] (AR v2)
Track 14 accurately ripped (confidence 2) [EE425EEE] (AR v2)
Track 15 accurately ripped (confidence 2) [80044A69] (AR v2)
Track 16 cannot be verified as accurate (confidence 8) [17746DF4], AccurateRip returned [BC9F9656] (AR v2)
Track 17 cannot be verified as accurate (confidence 8) [B585EFC5], AccurateRip returned [91EC13C4] (AR v2)

15 track(s) accurately ripped
2 track(s) could not be verified as accurate

Some tracks could not be verified as accurate

End of status report

–– CUETools DB Plugin V2.1.6

[CTDB TOCID: xu.mZWh8HMtzIAtMJkDQz_yPpOA-] found
Submit result: xu.mZWh8HMtzIAtMJkDQz_yPpOA- has been confirmed
Track | CTDB Status
1 | (48/48) Accurately ripped
2 | (48/48) Accurately ripped
3 | (48/48) Accurately ripped
4 | (48/48) Accurately ripped
5 | (48/48) Accurately ripped
6 | (48/48) Accurately ripped
7 | (48/48) Accurately ripped
8 | (48/48) Accurately ripped
9 | (48/48) Accurately ripped
10 | (48/48) Accurately ripped
11 | (48/48) Accurately ripped
12 | (48/48) Accurately ripped
13 | (48/48) Accurately ripped
14 | (48/48) Accurately ripped
15 | (48/48) Accurately ripped
16 | (48/48) Accurately ripped
17 | (47/48) Accurately ripped


==== Log checksum 5F7AACF6FE715D0E50BCCD86719AC8D4E533F559C6C38C35614E93939501E858 ====

Renaud Capuçon - Le violon ROI [3CDs] (2013)

Thanks to the original releaser