Subcategories
Tags
Language
Tags

Ryuichi Sakamoto - Illustrated Musical Encyclopedia (1986) [Re-Up]

Posted By: Designol
Ryuichi Sakamoto - Illustrated Musical Encyclopedia (1986) [Re-Up]

Ryuichi Sakamoto - Illustrated Musical Encyclopedia (1986)
EAC | FLAC | Tracks (Cue&Log) ~ 231 Mb | Mp3 (CBR320) ~ 104 Mb | Scans included | 00:40:42
Electronic, Fusion, Avantgarde, Synthpop | Label: 10 Records/Virgin | # DIXCD34

Professor Sakamoto gives a lesson on what is practically a different style of music with each track on Illustrated Musical Encyclopedia, beginning with a sure-fire hit: the extroverted, quintessentially Japanese synth workout "Field Work" (with Thomas Dolby). From there, Sakamoto hits riff-ready crossover jazz-fusion ("Etude"), electronic minimalism ("M.A.Y. in the Backyard"), and Oriental dub ("Paradise Lost"). There is a return to sampladelic Eastern synth-pop with "Steppin' Into Asia," but for the most part Sakamoto displays his impressive stylistic range on this solo album.

Review by John Bush, Allmusic.com

Ryuichi Sakamoto at Allmusic
Ryuichi Sakamoto at Wiki

Tracklist:

01. Field Work (4.03)
02. Etude (5.16)
03. Paradise Lost (5.24)
04. M.A.Y. in the Backyard (5.36)
05. Steppin' into Asia (5.18)
06. Tibetan Dance (5.01)
07. Zen-Gun (4.28)
08. In a Forest of Feathers (5.39)


Exact Audio Copy V0.99 prebeta 5 from 4. May 2009

EAC extraction logfile from 7. November 2009, 18:57

Ryuichi Sakamoto / Illustrated Musical Encyclopedia

Used drive : ASUS DRW-2014L1 Adapter: 0 ID: 0

Read mode : Secure
Utilize accurate stream : Yes
Defeat audio cache : Yes
Make use of C2 pointers : No

Read offset correction : 6
Overread into Lead-In and Lead-Out : No
Fill up missing offset samples with silence : Yes
Delete leading and trailing silent blocks : No
Null samples used in CRC calculations : Yes
Used interface : Native Win32 interface for Win NT & 2000
Gap handling : Appended to previous track

Used output format : User Defined Encoder
Selected bitrate : 1024 kBit/s
Quality : High
Add ID3 tag : No
Command line compressor : C:\Program Files\Exact Audio Copy\FLAC\FLAC.EXE
Additional command line options : -8 -V -T "ARTIST=%a" -T "TITLE=%t" -T "ALBUM=%g" -T "DATE=%y" -T "TRACKNUMBER=%n" -T "GENRE=%m" -T "COMMENT=EAC FLAC -8" %s


TOC of the extracted CD

Track | Start | Length | Start sector | End sector
––––––––––––––––––––––––––––-
1 | 0:00.32 | 4:05.08 | 32 | 18414
2 | 4:05.40 | 5:14.40 | 18415 | 42004
3 | 9:20.05 | 5:24.02 | 42005 | 66306
4 | 14:44.07 | 5:37.40 | 66307 | 91621
5 | 20:21.47 | 5:18.25 | 91622 | 115496
6 | 25:39.72 | 5:02.00 | 115497 | 138146
7 | 30:41.72 | 4:27.10 | 138147 | 158181
8 | 35:09.07 | 5:40.10 | 158182 | 183691


Track 1

Filename C:\Ryuichi Sakamoto - Illustrated Musical Encyclopedia (1986) [FLAC] {10 Records DIXCD34}\01 - Field Work.wav

Pre-gap length 0:00:02.32

Peak level 76.9 %
Track quality 100.0 %
Test CRC F56617C9
Copy CRC F56617C9
Accurately ripped (confidence 5) [29F52F19]
Copy OK

Track 2

Filename C:\Ryuichi Sakamoto - Illustrated Musical Encyclopedia (1986) [FLAC] {10 Records DIXCD34}\02 - Etude.wav

Peak level 84.0 %
Track quality 99.9 %
Test CRC E2365DDE
Copy CRC E2365DDE
Accurately ripped (confidence 5) [143C66D8]
Copy OK

Track 3

Filename C:\Ryuichi Sakamoto - Illustrated Musical Encyclopedia (1986) [FLAC] {10 Records DIXCD34}\03 - Paradise Lost.wav

Pre-gap length 0:00:00.48

Peak level 73.2 %
Track quality 100.0 %
Test CRC E9955D91
Copy CRC E9955D91
Accurately ripped (confidence 5) [3AE13006]
Copy OK

Track 4

Filename C:\Ryuichi Sakamoto - Illustrated Musical Encyclopedia (1986) [FLAC] {10 Records DIXCD34}\04 - M.A.Y. in the Backyard.wav

Peak level 80.9 %
Track quality 100.0 %
Test CRC 0BFEDE6F
Copy CRC 0BFEDE6F
Accurately ripped (confidence 5) [C44C2D8E]
Copy OK

Track 5

Filename C:\Ryuichi Sakamoto - Illustrated Musical Encyclopedia (1986) [FLAC] {10 Records DIXCD34}\05 - Steppin' into Asia.wav

Pre-gap length 0:00:01.02

Peak level 88.0 %
Track quality 100.0 %
Test CRC C8956E90
Copy CRC C8956E90
Accurately ripped (confidence 5) [A24CAFD4]
Copy OK

Track 6

Filename C:\Ryuichi Sakamoto - Illustrated Musical Encyclopedia (1986) [FLAC] {10 Records DIXCD34}\06 - Tibetan Dance.wav

Peak level 85.0 %
Track quality 100.0 %
Test CRC E0FEB3C9
Copy CRC E0FEB3C9
Accurately ripped (confidence 5) [A3AE0536]
Copy OK

Track 7

Filename C:\Ryuichi Sakamoto - Illustrated Musical Encyclopedia (1986) [FLAC] {10 Records DIXCD34}\07 - Zen-Gun.wav

Pre-gap length 0:00:01.37

Peak level 59.4 %
Track quality 100.0 %
Test CRC F691C2D8
Copy CRC F691C2D8
Accurately ripped (confidence 5) [2601C9CE]
Copy OK

Track 8

Filename C:\Ryuichi Sakamoto - Illustrated Musical Encyclopedia (1986) [FLAC] {10 Records DIXCD34}\08 - In a Forest of Feathers.wav

Peak level 88.4 %
Track quality 100.0 %
Test CRC 2BBC652B
Copy CRC 2BBC652B
Accurately ripped (confidence 5) [7BEFF40C]
Copy OK


All tracks accurately ripped

No errors occurred

End of status report

[CUETools log; Date: 09.05.2018 19:26:40; Version: 2.1.4]
Pregap length 00:00:32.
[CTDB TOCID: mrxlatYq23fr1NWVonm_EfE7m6Y-] found.
Track | CTDB Status
1 | (46/46) Accurately ripped
2 | (46/46) Accurately ripped
3 | (45/46) Accurately ripped
4 | (45/46) Accurately ripped
5 | (46/46) Accurately ripped
6 | (45/46) Accurately ripped
7 | (45/46) Accurately ripped
8 | (45/46) Accurately ripped
[AccurateRip ID: 000c6b4b-0053634e-5a099108] found.
Track [ CRC | V2 ] Status
01 [29f52f19|fab6d507] (09+15/46) Accurately ripped
02 [143c66d8|4db7a3e4] (09+16/47) Accurately ripped
03 [3ae13006|94f96529] (09+16/47) Accurately ripped
04 [c44c2d8e|a3af2196] (09+16/46) Accurately ripped
05 [a24cafd4|2b8d2570] (09+16/46) Accurately ripped
06 [a3ae0536|fcba8a86] (09+16/47) Accurately ripped
07 [2601c9ce|5493ef12] (09+16/47) Accurately ripped
08 [7beff40c|dcf59d7e] (09+15/46) Accurately ripped
Offsetted by 1281:
01 [036c5349] (08/46) Accurately ripped
02 [b7e5b069] (08/47) Accurately ripped
03 [745cd743] (08/47) Accurately ripped
04 [05d8d096] (07/46) Accurately ripped
05 [4e6b8b45] (07/46) Accurately ripped
06 [b42dd587] (08/47) Accurately ripped
07 [deb538aa] (08/47) Accurately ripped
08 [20cd1293] (08/46) Accurately ripped
Offsetted by 1202:
01 [41374069] (00/46) No match (V2 was not tested)
02 [6877513b] (00/47) No match (V2 was not tested)
03 [997b44e7] (00/47) No match (V2 was not tested)
04 [540af870] (00/46) No match (V2 was not tested)
05 [62f441f5] (00/46) No match (V2 was not tested)
06 [8660e093] (00/47) No match (V2 was not tested)
07 [d4ba7474] (00/47) No match (V2 was not tested)
08 [68b8edb0] (00/46) No match (V2 was not tested)

Track Peak [ CRC32 ] [W/O NULL] [ LOG ]
– 88,4 [2CE3E9E6] [177ACF60]
01 76,9 [F56617C9] [75721DD5] CRC32
02 84,0 [E2365DDE] [F722D920] CRC32
03 73,2 [E9955D91] [05F799D6] CRC32
04 80,9 [0BFEDE6F] [8DE52A56] CRC32
05 88,0 [C8956E90] [5085E45F] CRC32
06 85,0 [E0FEB3C9] [BF369DED] CRC32
07 59,4 [F691C2D8] [9DDC9766] CRC32
08 88,4 [2BBC652B] [9BD5D69C] CRC32

foobar2000 1.2 / Dynamic Range Meter 1.1.1
log date: 2013-03-14 23:34:56

––––––––––––––––––––––––––––––––––––––––
Analyzed: Ryuichi Sakamoto / Illustrated Musical Encyclopedia
––––––––––––––––––––––––––––––––––––––––

DR Peak RMS Duration Track
––––––––––––––––––––––––––––––––––––––––
DR12 -2.27 dB -17.33 dB 4:05 01-Field Work
DR15 -1.51 dB -19.73 dB 5:15 02-Etude
DR15 -2.70 dB -19.99 dB 5:24 03-Paradise Lost
DR18 -1.83 dB -23.55 dB 5:38 04-M.A.Y. in the Backyard
DR14 -1.11 dB -18.18 dB 5:18 05-Steppin' into Asia
DR17 -1.40 dB -20.78 dB 5:02 06-Tibetan Dance
DR14 -4.52 dB -21.73 dB 4:27 07-Zen-Gun
DR16 -1.06 dB -20.53 dB 5:40 08-In a Forest of Feathers
––––––––––––––––––––––––––––––––––––––––

Number of tracks: 8
Official DR value: DR15

Samplerate: 44100 Hz
Channels: 2
Bits per sample: 16
Bitrate: 708 kbps
Codec: FLAC
================================================================================

Ryuichi Sakamoto - Illustrated Musical Encyclopedia (1986) [Re-Up]

All thanks to original releaser - dkmusik

More interesting music in My Blog