Subcategories

VA - 12"/80s Grooves (2007) 3CD Set [Re-Up]

Posted By: Designol
VA - 12"/80s Grooves (2007) 3CD Set [Re-Up]

VA - 12"/80s Grooves (2007) 3CD Set
EAC | FLAC | Tracks (Cue&Log) ~ 1.49 Gb | Mp3 (CBR320) ~ 494 Mb | Scans included
Label: Family/Universal | # 5303387 | Time: 03:33:34
R&B, Electro, Hip-Hop, Funk, New Jack Swing

2007 three CD set, the latest installment in the critically acclaimed 12 Inch/80s series. Luther Vandross, Chaka Khan, Grandmaster Flash & The Furious Five, Bobby Brown, Kool And The Gang, Womack & Womack, Commodores, Grace Jones, and more, and more…

The series of 12" 80's era CD box sets highlight just what a rich tapestry of output this period had, and reading through the reviews, also how opinions divide so much over track listings.

Dealing with the track listing issue, I won't be doing a track by track analysis as others have already done so (no point in repeating others work), and I reckon if you are looking at the items page, the track listing, and my review, you will already know if this album is what you want, and if you know or like the tracks or not.

The albums in the 12" series seem to average between 30-40 tracks, so back in the day (let alone now at collectors' fairs) to buy all of the tracks included would cost at least a £120 or more. You can now buy a collection for a tenth of that price. So by my reckoning, if you buy any of these compilations and you have only a few that you like, or get hold of an old favourite that is totally unavailable by any other means, you are quid's in. For me the ultimate compliment to this series, are the other pale imitators that have been subsequently released by other labels, in a bid to cash in on the success and quality of the 12" series of albums.

Ignore the critics, these albums represent outstanding value for money, and for those of us who where around at the time (or maybe wish they were) the 12" series of CD's represent an outstanding opportunity to acquire a collection of quality tracks that realistically, would be otherwise virtually impossible to achieve.

Review by BD, Amazon.com

VA - 12"/80s Grooves (2007) 3CD Set [Re-Up]

VA - 12"/80s Grooves (2007) 3CD Set [Re-Up]

VA - 12"/80s Grooves (2007) 3CD Set [Re-Up]


Tracklist:

CD1:

01. Luther Vandross - Never Too Much (12'' Mix) (05:39)
02. D Train - You're The One For Me (12'' Mix) (06:56)
03. Chaka Khan - I'm Every Woman ([Full Length) (04:05)
04. Alyson Williams - Sleep Talk (12'' Mix) (05:23)
05. De La Soul - Me Myself & I (12'' Mix) (09:33)
06. Eric B & Rakim - I Know You Got Soul (U.S. 12'' Mix) (04:42)
07. Grandmaster Flash & The Furious Five - White Lines (U.S. 12'' Mix) (06:35)
08. Young MC - Know How (12'' Mix) (04:01)
09. Kurtis Blow - If I Ruled The World (12'' Mix) (07:03)
10. Ollie & Jerry - Aint No Stoppin Us (12'' Mix) (04:28)
11. Jackson Sisters - I Believe In Miracles (12'' Mix) (04:49)
12. Maceo & The Macks - Cross The Tracks (12'' Mix) (06:12)

CD2:

01. Change - Change of Heart [12'] (07:01)
02. The Pointer Sisters - Automatic [Long Mix] (06:02)
03. Shannon - Let the Music Play [12'] (05:56)
04. Bobby Brown - My Perogative [12'] (04:49)
05. Heavy D And The Boys - We Got Our Own Thang [12'] (05:45)
06. Tone Loc - Tone Loc - Funky Cold Medina [12'] (04:08)
07. Full Force - Alice, I Want You Just For Me! [12'] (06:14)
08. Dazz Band - Let It All Blow [Full Length] (06:46)
09. Jody Watley - Looking For A New Love [Remix] (07:30)
10. Kool And The Gang - Fresh [12'] (06:17)
11. Womack & Womack - Womack And Womack - Teardrops [12'] (07:36)
12. Cameo - Word Up [Original 12' Club Mix] (05:56)

CD3:

01. Jocelyn Brown - Somebody Else's Guy [12'] (06:25)
02. Mary Jane Girls - All Night Long [12'] (05:30)
03. Fatback Band - I Found Lovin' [12' Mix] (07:07)
04. Dennis Edwards - Don't Look Any Further [12'] (05:21)
05. Gwen Guthrie - Ain't Nothing Going On But The Rent [12' Mix] (07:14)
06. Oran Juice Jones - The Rain [12' Mix] (05:06)
07. Commodores - Night Shift [Long Version] (05:04)
08. Will Downing - A Love Supreme [Extended] (05:48)
09. Third World - Now That We've Found Love [12'] (08:17)
10. Gregory Isaacs - Night Nurse [12'] (06:57)
11. Grace Jones - My Jamaican Guy [12'] (07:02)


Exact Audio Copy V1.0 beta 3 from 29. August 2011

EAC extraction logfile from 23. July 2014, 19:34

Various / 12" 80's Grooves CD01

Used drive : HL-DT-STDVDRAM GSA-T50L Adapter: 1 ID: 0

Read mode : Secure
Utilize accurate stream : Yes
Defeat audio cache : No
Make use of C2 pointers : No

Read offset correction : 667
Overread into Lead-In and Lead-Out : No
Fill up missing offset samples with silence : Yes
Delete leading and trailing silent blocks : No
Null samples used in CRC calculations : Yes
Used interface : Native Win32 interface for Win NT & 2000
Gap handling : Appended to previous track

Used output format : User Defined Encoder
Selected bitrate : 1024 kBit/s
Quality : High
Add ID3 tag : No
Command line compressor : C:\Program Files\Exact Audio Copy\Flac\flac.exe
Additional command line options : -8 -V -T "ARTIST=%artist%" -T "TITLE=%title%" -T "ALBUM=%albumtitle%" -T "DATE=%year%" -T "TRACKNUMBER=%tracknr%" -T "GENRE=%genre%" -T "PERFORMER=%albuminterpret%" -T "COMPOSER=%composer%" %haslyrics%–tag-from-file=LYRICS="%lyricsfile%"%haslyrics% -T "ALBUMARTIST=%albumartist%" -T "DISCNUMBER=%cdnumber%" -T "TOTALDISCS=%totalcds%" -T "TOTALTRACKS=%numtracks%" -T "COMMENT=%comment%" %source% -o %dest%


TOC of the extracted CD

Track | Start | Length | Start sector | End sector
––––––––––––––––––––––––––––-
1 | 0:00.00 | 5:39.40 | 0 | 25464
2 | 5:39.40 | 6:56.69 | 25465 | 56733
3 | 12:36.34 | 4:05.09 | 56734 | 75117
4 | 16:41.43 | 5:23.35 | 75118 | 99377
5 | 22:05.03 | 9:33.47 | 99378 | 142399
6 | 31:38.50 | 4:42.07 | 142400 | 163556
7 | 36:20.57 | 6:35.55 | 163557 | 193236
8 | 42:56.37 | 4:01.52 | 193237 | 211363
9 | 46:58.14 | 7:03.70 | 211364 | 243158
10 | 54:02.09 | 4:28.65 | 243159 | 263323
11 | 58:30.74 | 4:49.52 | 263324 | 285050
12 | 63:20.51 | 6:12.40 | 285051 | 312990


Track 1

Filename C:\FLAC\01 - Luther Vandross - Never Too Much (12'' Mix).wav

Pre-gap length 0:00:02.00

Peak level 98.8 %
Extraction speed 4.4 X
Track quality 100.0 %
Test CRC FB00E473
Copy CRC FB00E473
Accurately ripped (confidence 9) [8A8ABE15] (AR v2)
Copy OK

Track 2

Filename C:\FLAC\02 - D Train - You're The One For Me (12'' Mix).wav

Pre-gap length 0:00:00.32

Peak level 98.8 %
Extraction speed 5.0 X
Track quality 100.0 %
Test CRC B23FEB3D
Copy CRC B23FEB3D
Accurately ripped (confidence 9) [FCEB962E] (AR v2)
Copy OK

Track 3

Filename C:\FLAC\03 - Chaka Khan - I'm Every Woman ([Full Length).wav

Pre-gap length 0:00:00.18

Peak level 98.8 %
Extraction speed 5.7 X
Track quality 100.0 %
Test CRC CA13DC18
Copy CRC CA13DC18
Accurately ripped (confidence 9) [92F7101D] (AR v2)
Copy OK

Track 4

Filename C:\FLAC\04 - Alyson Williams - Sleep Talk (12'' Mix).wav

Pre-gap length 0:00:00.24

Peak level 98.8 %
Extraction speed 6.1 X
Track quality 100.0 %
Test CRC 5A75A6BA
Copy CRC 5A75A6BA
Accurately ripped (confidence 9) [E69AE711] (AR v2)
Copy OK

Track 5

Filename C:\FLAC\05 - De La Soul - Me Myself & I (12'' Mix).wav

Pre-gap length 0:00:00.06

Peak level 98.8 %
Extraction speed 6.6 X
Track quality 100.0 %
Test CRC D4C2F76A
Copy CRC D4C2F76A
Accurately ripped (confidence 9) [EB0B8335] (AR v2)
Copy OK

Track 6

Filename C:\FLAC\06 - Eric B & Rakim - I Know You Got Soul (U.S. 12'' Mix).wav

Pre-gap length 0:00:00.12

Peak level 98.8 %
Extraction speed 7.1 X
Track quality 100.0 %
Test CRC 4DFD0A35
Copy CRC 4DFD0A35
Accurately ripped (confidence 9) [FD70FFDB] (AR v2)
Copy OK

Track 7

Filename C:\FLAC\07 - Grandmaster Flash & The Furious Five - White Lines (U.S. 12'' Mix).wav

Pre-gap length 0:00:00.18

Peak level 98.8 %
Extraction speed 7.5 X
Track quality 99.9 %
Test CRC 1664E6BB
Copy CRC 1664E6BB
Accurately ripped (confidence 10) [DFBE56BE] (AR v2)
Copy OK

Track 8

Filename C:\FLAC\08 - Young MC - Know How (12'' Mix).wav

Pre-gap length 0:00:00.21

Peak level 98.8 %
Extraction speed 7.7 X
Track quality 99.9 %
Test CRC F3F3B8DF
Copy CRC F3F3B8DF
Accurately ripped (confidence 9) [6C93B58D] (AR v2)
Copy OK

Track 9

Filename C:\FLAC\09 - Kurtis Blow - If I Ruled The World (12'' Mix).wav

Pre-gap length 0:00:00.38

Peak level 98.8 %
Extraction speed 8.2 X
Track quality 99.9 %
Test CRC AA452D29
Copy CRC AA452D29
Accurately ripped (confidence 9) [7407DA05] (AR v2)
Copy OK

Track 10

Filename C:\FLAC\10 - Ollie & Jerry - Aint No Stoppin Us (12'' Mix).wav

Pre-gap length 0:00:00.29

Peak level 98.8 %
Extraction speed 8.4 X
Track quality 100.0 %
Test CRC 2B800AC6
Copy CRC 2B800AC6
Accurately ripped (confidence 9) [43995E1F] (AR v2)
Copy OK

Track 11

Filename C:\FLAC\11 - Jackson Sisters - I Believe In Miracles (12'' Mix).wav

Pre-gap length 0:00:00.16

Peak level 98.8 %
Extraction speed 8.7 X
Track quality 100.0 %
Test CRC A65EAAB5
Copy CRC A65EAAB5
Accurately ripped (confidence 9) [38DE7CB1] (AR v2)
Copy OK

Track 12

Filename C:\FLAC\12 - Maceo & The Macks - Cross The Tracks (12'' Mix).wav

Pre-gap length 0:00:00.22

Peak level 98.8 %
Extraction speed 9.2 X
Track quality 99.9 %
Test CRC 601D5525
Copy CRC 601D5525
Accurately ripped (confidence 9) [ADC9AF04] (AR v2)
Copy OK


All tracks accurately ripped

No errors occurred

End of status report

–– CUETools DB Plugin V2.1.3

[CTDB TOCID: xY8FmT9VQfjjlJptnWnT8gk9mfU-] found, Submit result: xY8FmT9VQfjjlJptnWnT8gk9mfU- has been confirmed
[f0e1f303] (22/22) Accurately ripped


==== Log checksum D1C3179090F3924361A6CA3125F44861A0CA5E657B24DCDC7D6526AF8807EAE4 ====

foobar2000 1.2 / Dynamic Range Meter 1.1.1
log date: 2014-07-28 17:39:59

––––––––––––––––––––––––––––––––––––––––
Analyzed: Alyson Williams / 12' 80's Grooves CD01 (1)
Chaka Khan / 12' 80's Grooves CD01 (2)
D Train / 12' 80's Grooves CD01 (3)
De La Soul / 12' 80's Grooves CD01 (4)
Eric B & Rakim / 12' 80's Grooves CD01 (5)
Grandmaster Flash & The Furious Five / 12' 80's Grooves CD01 (6)
Jackson Sisters / 12' 80's Grooves CD01 (7)
Kurtis Blow / 12' 80's Grooves CD01 (8)
Luther Vandross / 12' 80's Grooves CD01 (9)
Maceo & The Macks / 12' 80's Grooves CD01 (10)
Ollie & Jerry / 12' 80's Grooves CD01 (11)
Young MC / 12' 80's Grooves CD01 (12)
––––––––––––––––––––––––––––––––––––––––

DR Peak RMS Duration Track
––––––––––––––––––––––––––––––––––––––––
DR9 -0.10 dB -10.42 dB 5:23 04-Sleep Talk (12'' Mix)
DR6 -0.10 dB -8.79 dB 4:05 03-I'm Every Woman ([Full Length)
DR9 -0.10 dB -10.71 dB 6:57 02-You're The One For Me (12'' Mix)
DR10 -0.10 dB -11.53 dB 9:34 05-Me Myself & I (12'' Mix)
DR8 -0.10 dB -9.77 dB 4:42 06-I Know You Got Soul (U.S. 12'' Mix)
DR7 -0.10 dB -8.42 dB 6:36 07-White Lines (U.S. 12'' Mix)
DR7 -0.10 dB -8.88 dB 4:50 11-I Believe In Miracles (12'' Mix)
DR7 -0.10 dB -8.64 dB 7:04 09-If I Ruled The World (12'' Mix)
DR9 -0.10 dB -10.06 dB 5:40 01-Never Too Much (12'' Mix)
DR9 -0.10 dB -10.88 dB 6:13 12-Cross The Tracks (12'' Mix)
DR7 -0.10 dB -8.78 dB 4:29 10-Aint No Stoppin Us (12'' Mix)
DR7 -0.10 dB -9.29 dB 4:02 08-Know How (12'' Mix)
––––––––––––––––––––––––––––––––––––––––

Number of tracks: 12
Official DR value: DR8

Samplerate: 44100 Hz
Channels: 2
Bits per sample: 16
Bitrate: 946 kbps
Codec: FLAC
================================================================================


Exact Audio Copy V1.0 beta 3 from 29. August 2011

EAC extraction logfile from 23. July 2014, 22:16

Various / 12" 80s Grooves CD02

Used drive : HL-DT-STDVDRAM GSA-T50L Adapter: 1 ID: 0

Read mode : Secure
Utilize accurate stream : Yes
Defeat audio cache : No
Make use of C2 pointers : No

Read offset correction : 667
Overread into Lead-In and Lead-Out : No
Fill up missing offset samples with silence : Yes
Delete leading and trailing silent blocks : No
Null samples used in CRC calculations : Yes
Used interface : Native Win32 interface for Win NT & 2000
Gap handling : Appended to previous track

Used output format : User Defined Encoder
Selected bitrate : 1024 kBit/s
Quality : High
Add ID3 tag : No
Command line compressor : C:\Program Files\Exact Audio Copy\Flac\flac.exe
Additional command line options : -8 -V -T "ARTIST=%artist%" -T "TITLE=%title%" -T "ALBUM=%albumtitle%" -T "DATE=%year%" -T "TRACKNUMBER=%tracknr%" -T "GENRE=%genre%" -T "PERFORMER=%albuminterpret%" -T "COMPOSER=%composer%" %haslyrics%–tag-from-file=LYRICS="%lyricsfile%"%haslyrics% -T "ALBUMARTIST=%albumartist%" -T "DISCNUMBER=%cdnumber%" -T "TOTALDISCS=%totalcds%" -T "TOTALTRACKS=%numtracks%" -T "COMMENT=%comment%" %source% -o %dest%


TOC of the extracted CD

Track | Start | Length | Start sector | End sector
––––––––––––––––––––––––––––-
1 | 0:00.00 | 7:01.69 | 0 | 31643
2 | 7:01.69 | 6:02.01 | 31644 | 58794
3 | 13:03.70 | 5:56.41 | 58795 | 85535
4 | 19:00.36 | 4:49.37 | 85536 | 107247
5 | 23:49.73 | 5:45.08 | 107248 | 133130
6 | 29:35.06 | 4:08.22 | 133131 | 151752
7 | 33:43.28 | 6:14.61 | 151753 | 179863
8 | 39:58.14 | 6:46.34 | 179864 | 210347
9 | 46:44.48 | 7:30.51 | 210348 | 244148
10 | 54:15.24 | 6:17.18 | 244149 | 272441
11 | 60:32.42 | 7:36.03 | 272442 | 306644
12 | 68:08.45 | 5:56.38 | 306645 | 333382


Track 1

Filename C:\FLAC\01 - Change - Change of Heart [12''].wav

Pre-gap length 0:00:02.00

Peak level 98.8 %
Extraction speed 4.5 X
Track quality 100.0 %
Test CRC 474E4032
Copy CRC 474E4032
Accurately ripped (confidence 9) [88AF5D74] (AR v2)
Copy OK

Track 2

Filename C:\FLAC\02 - The Pointer Sisters - Automatic [Long Mix].wav

Pre-gap length 0:00:02.38

Peak level 98.8 %
Extraction speed 5.2 X
Track quality 100.0 %
Test CRC FFFA2582
Copy CRC FFFA2582
Accurately ripped (confidence 10) [05188878] (AR v2)
Copy OK

Track 3

Filename C:\FLAC\03 - Shannon - Let the Music Play [12''].wav

Pre-gap length 0:00:00.17

Peak level 98.8 %
Extraction speed 5.6 X
Track quality 99.9 %
Test CRC 9ECF7364
Copy CRC 9ECF7364
Accurately ripped (confidence 9) [52F5DC3B] (AR v2)
Copy OK

Track 4

Filename C:\FLAC\04 - Bobby Brown - My Perogative [12''].wav

Pre-gap length 0:00:00.30

Peak level 98.8 %
Extraction speed 6.0 X
Track quality 99.9 %
Test CRC CF4C545F
Copy CRC CF4C545F
Accurately ripped (confidence 9) [68CB30D8] (AR v2)
Copy OK

Track 5

Filename C:\FLAC\05 - Heavy D And The Boys - We Got Our Own Thang [12''].wav

Pre-gap length 0:00:00.58

Peak level 98.8 %
Extraction speed 6.5 X
Track quality 100.0 %
Test CRC BA58D369
Copy CRC BA58D369
Accurately ripped (confidence 9) [89697F8E] (AR v2)
Copy OK

Track 6

Filename C:\FLAC\06 - Tone Loc - Tone Loc - Funky Cold Medina [12''].wav

Pre-gap length 0:00:00.12

Peak level 98.8 %
Extraction speed 6.7 X
Track quality 99.9 %
Test CRC 245B4377
Copy CRC 245B4377
Accurately ripped (confidence 10) [B694D980] (AR v2)
Copy OK

Track 7

Filename C:\FLAC\07 - Full Force - Alice, I Want You Just For Me! [12''].wav

Pre-gap length 0:00:00.36

Peak level 98.8 %
Extraction speed 7.2 X
Track quality 99.9 %
Test CRC 00E54B3B
Copy CRC 00E54B3B
Accurately ripped (confidence 10) [472E1789] (AR v2)
Copy OK

Track 8

Filename C:\FLAC\08 - Dazz Band - Let It All Blow [Full Length].wav

Pre-gap length 0:00:00.33

Peak level 98.8 %
Extraction speed 7.8 X
Track quality 100.0 %
Test CRC 6AE499F8
Copy CRC 6AE499F8
Accurately ripped (confidence 9) [F897918E] (AR v2)
Copy OK

Track 9

Filename C:\FLAC\09 - Jody Watley - Looking For A New Love [Remix].wav

Pre-gap length 0:00:00.18

Peak level 98.8 %
Extraction speed 8.1 X
Track quality 100.0 %
Test CRC 56D4814D
Copy CRC 56D4814D
Accurately ripped (confidence 9) [97CAFFC9] (AR v2)
Copy OK

Track 10

Filename C:\FLAC\10 - Kool And The Gang - Fresh [12''].wav

Pre-gap length 0:00:00.29

Peak level 98.8 %
Extraction speed 8.6 X
Track quality 100.0 %
Test CRC EE9C0CBF
Copy CRC EE9C0CBF
Accurately ripped (confidence 10) [AC68EEFB] (AR v2)
Copy OK

Track 11

Filename C:\FLAC\11 - Womack & Womack - Womack And Womack - Teardrops [12''].wav

Pre-gap length 0:00:00.33

Peak level 98.8 %
Extraction speed 8.9 X
Track quality 100.0 %
Test CRC E3C33D9E
Copy CRC E3C33D9E
Accurately ripped (confidence 9) [A1DD95DF] (AR v2)
Copy OK

Track 12

Filename C:\FLAC\12 - Cameo - Word Up [Original 12'' Club Mix].wav

Pre-gap length 0:00:00.24

Peak level 98.8 %
Extraction speed 9.1 X
Track quality 100.0 %
Test CRC 6AF4D610
Copy CRC 6AF4D610
Accurately ripped (confidence 9) [DD40EFF5] (AR v2)
Copy OK


All tracks accurately ripped

No errors occurred

End of status report

–– CUETools DB Plugin V2.1.3

[CTDB TOCID: DULqkQwZuqcPqhO_NLG.WBI4cq4-] found, Submit result: DULqkQwZuqcPqhO_NLG.WBI4cq4- has been confirmed
[dde28b26] (20/20) Accurately ripped


==== Log checksum 68615471E45DF933A4AB05EA8CBD657A3BE42259DB078A03E4E0B4129E2BA2F2 ====

––––––––––––––––––––––––––––––

Exact Audio Copy V1.0 beta 3 from 29. August 2011

EAC extraction logfile from 23. July 2014, 22:16

Various / 12" 80s Grooves CD02

Used drive : HL-DT-STDVDRAM GSA-T50L Adapter: 1 ID: 0

Read mode : Secure
Utilize accurate stream : Yes
Defeat audio cache : No
Make use of C2 pointers : No

Read offset correction : 667
Overread into Lead-In and Lead-Out : No
Fill up missing offset samples with silence : Yes
Delete leading and trailing silent blocks : No
Null samples used in CRC calculations : Yes
Used interface : Native Win32 interface for Win NT & 2000
Gap handling : Appended to previous track

Used output format : User Defined Encoder
Selected bitrate : 1024 kBit/s
Quality : High
Add ID3 tag : No
Command line compressor : C:\Program Files\Exact Audio Copy\Flac\flac.exe
Additional command line options : -8 -V -T "ARTIST=%artist%" -T "TITLE=%title%" -T "ALBUM=%albumtitle%" -T "DATE=%year%" -T "TRACKNUMBER=%tracknr%" -T "GENRE=%genre%" -T "PERFORMER=%albuminterpret%" -T "COMPOSER=%composer%" %haslyrics%–tag-from-file=LYRICS="%lyricsfile%"%haslyrics% -T "ALBUMARTIST=%albumartist%" -T "DISCNUMBER=%cdnumber%" -T "TOTALDISCS=%totalcds%" -T "TOTALTRACKS=%numtracks%" -T "COMMENT=%comment%" %source% -o %dest%


TOC of the extracted CD

Track | Start | Length | Start sector | End sector
––––––––––––––––––––––––––––-
1 | 0:00.00 | 7:01.69 | 0 | 31643
2 | 7:01.69 | 6:02.01 | 31644 | 58794
3 | 13:03.70 | 5:56.41 | 58795 | 85535
4 | 19:00.36 | 4:49.37 | 85536 | 107247
5 | 23:49.73 | 5:45.08 | 107248 | 133130
6 | 29:35.06 | 4:08.22 | 133131 | 151752
7 | 33:43.28 | 6:14.61 | 151753 | 179863
8 | 39:58.14 | 6:46.34 | 179864 | 210347
9 | 46:44.48 | 7:30.51 | 210348 | 244148
10 | 54:15.24 | 6:17.18 | 244149 | 272441
11 | 60:32.42 | 7:36.03 | 272442 | 306644
12 | 68:08.45 | 5:56.38 | 306645 | 333382


Track 1

Filename C:\FLAC\01 - Change - Change of Heart [12''].wav

Pre-gap length 0:00:02.00

Peak level 98.8 %
Extraction speed 4.5 X
Track quality 100.0 %
Test CRC 474E4032
Copy CRC 474E4032
Accurately ripped (confidence 9) [88AF5D74] (AR v2)
Copy OK

Track 2

Filename C:\FLAC\02 - The Pointer Sisters - Automatic [Long Mix].wav

Pre-gap length 0:00:02.38

Peak level 98.8 %
Extraction speed 5.2 X
Track quality 100.0 %
Test CRC FFFA2582
Copy CRC FFFA2582
Accurately ripped (confidence 10) [05188878] (AR v2)
Copy OK

Track 3

Filename C:\FLAC\03 - Shannon - Let the Music Play [12''].wav

Pre-gap length 0:00:00.17

Peak level 98.8 %
Extraction speed 5.6 X
Track quality 99.9 %
Test CRC 9ECF7364
Copy CRC 9ECF7364
Accurately ripped (confidence 9) [52F5DC3B] (AR v2)
Copy OK

Track 4

Filename C:\FLAC\04 - Bobby Brown - My Perogative [12''].wav

Pre-gap length 0:00:00.30

Peak level 98.8 %
Extraction speed 6.0 X
Track quality 99.9 %
Test CRC CF4C545F
Copy CRC CF4C545F
Accurately ripped (confidence 9) [68CB30D8] (AR v2)
Copy OK

Track 5

Filename C:\FLAC\05 - Heavy D And The Boys - We Got Our Own Thang [12''].wav

Pre-gap length 0:00:00.58

Peak level 98.8 %
Extraction speed 6.5 X
Track quality 100.0 %
Test CRC BA58D369
Copy CRC BA58D369
Accurately ripped (confidence 9) [89697F8E] (AR v2)
Copy OK

Track 6

Filename C:\FLAC\06 - Tone Loc - Tone Loc - Funky Cold Medina [12''].wav

Pre-gap length 0:00:00.12

Peak level 98.8 %
Extraction speed 6.7 X
Track quality 99.9 %
Test CRC 245B4377
Copy CRC 245B4377
Accurately ripped (confidence 10) [B694D980] (AR v2)
Copy OK

Track 7

Filename C:\FLAC\07 - Full Force - Alice, I Want You Just For Me! [12''].wav

Pre-gap length 0:00:00.36

Peak level 98.8 %
Extraction speed 7.2 X
Track quality 99.9 %
Test CRC 00E54B3B
Copy CRC 00E54B3B
Accurately ripped (confidence 10) [472E1789] (AR v2)
Copy OK

Track 8

Filename C:\FLAC\08 - Dazz Band - Let It All Blow [Full Length].wav

Pre-gap length 0:00:00.33

Peak level 98.8 %
Extraction speed 7.8 X
Track quality 100.0 %
Test CRC 6AE499F8
Copy CRC 6AE499F8
Accurately ripped (confidence 9) [F897918E] (AR v2)
Copy OK

Track 9

Filename C:\FLAC\09 - Jody Watley - Looking For A New Love [Remix].wav

Pre-gap length 0:00:00.18

Peak level 98.8 %
Extraction speed 8.1 X
Track quality 100.0 %
Test CRC 56D4814D
Copy CRC 56D4814D
Accurately ripped (confidence 9) [97CAFFC9] (AR v2)
Copy OK

Track 10

Filename C:\FLAC\10 - Kool And The Gang - Fresh [12''].wav

Pre-gap length 0:00:00.29

Peak level 98.8 %
Extraction speed 8.6 X
Track quality 100.0 %
Test CRC EE9C0CBF
Copy CRC EE9C0CBF
Accurately ripped (confidence 10) [AC68EEFB] (AR v2)
Copy OK

Track 11

Filename C:\FLAC\11 - Womack & Womack - Womack And Womack - Teardrops [12''].wav

Pre-gap length 0:00:00.33

Peak level 98.8 %
Extraction speed 8.9 X
Track quality 100.0 %
Test CRC E3C33D9E
Copy CRC E3C33D9E
Accurately ripped (confidence 9) [A1DD95DF] (AR v2)
Copy OK

Track 12

Filename C:\FLAC\12 - Cameo - Word Up [Original 12'' Club Mix].wav

Pre-gap length 0:00:00.24

Peak level 98.8 %
Extraction speed 9.1 X
Track quality 100.0 %
Test CRC 6AF4D610
Copy CRC 6AF4D610
Accurately ripped (confidence 9) [DD40EFF5] (AR v2)
Copy OK


All tracks accurately ripped

No errors occurred

End of status report

–– CUETools DB Plugin V2.1.3

[CTDB TOCID: DULqkQwZuqcPqhO_NLG.WBI4cq4-] found, Submit result: DULqkQwZuqcPqhO_NLG.WBI4cq4- has been confirmed
[dde28b26] (20/20) Accurately ripped


==== Log checksum 68615471E45DF933A4AB05EA8CBD657A3BE42259DB078A03E4E0B4129E2BA2F2 ====

foobar2000 1.2 / Dynamic Range Meter 1.1.1
log date: 2014-07-28 17:40:30

––––––––––––––––––––––––––––––––––––––––
Analyzed: Bobby Brown / 12' 80s Grooves CD02 (1)
Cameo / 12' 80s Grooves CD02 (2)
Change / 12' 80s Grooves CD02 (3)
Dazz Band / 12' 80s Grooves CD02 (4)
Full Force / 12' 80s Grooves CD02 (5)
Heavy D And The Boys / 12' 80s Grooves CD02 (6)
Jody Watley / 12' 80s Grooves CD02 (7)
Kool And The Gang / 12' 80s Grooves CD02 (8)
Shannon / 12' 80s Grooves CD02 (9)
The Pointer Sisters / 12' 80s Grooves CD02 (10)
Tone Loc / 12' 80s Grooves CD02 (11)
Womack & Womack / 12' 80s Grooves CD02 (12)
––––––––––––––––––––––––––––––––––––––––

DR Peak RMS Duration Track
––––––––––––––––––––––––––––––––––––––––
DR9 -0.10 dB -9.90 dB 4:49 04-My Perogative [12']
DR9 -0.10 dB -10.65 dB 5:57 12-Word Up [Original 12' Club Mix]
DR9 -0.10 dB -10.20 dB 7:02 01-Change of Heart [12']
DR9 -0.10 dB -9.82 dB 6:46 08-Let It All Blow [Full Length]
DR8 -0.10 dB -9.55 dB 6:15 07-Alice, I Want You Just For Me! [12']
DR9 -0.10 dB -10.24 dB 5:45 05-We Got Our Own Thang [12']
DR8 -0.10 dB -10.01 dB 7:31 09-Looking For A New Love [Remix]
DR7 -0.10 dB -8.33 dB 6:17 10-Fresh [12']
DR8 -0.10 dB -8.79 dB 5:57 03-Let the Music Play [12']
DR8 -0.10 dB -9.44 dB 6:02 02-Automatic [Long Mix]
DR9 -0.10 dB -10.07 dB 4:08 06-Tone Loc - Funky Cold Medina [12']
DR8 -0.10 dB -9.39 dB 7:36 11-Womack And Womack - Teardrops [12']
––––––––––––––––––––––––––––––––––––––––

Number of tracks: 12
Official DR value: DR8

Samplerate: 44100 Hz
Channels: 2
Bits per sample: 16
Bitrate: 935 kbps
Codec: FLAC
================================================================================


Exact Audio Copy V1.0 beta 3 from 29. August 2011

EAC extraction logfile from 23. July 2014, 23:39

Various / 12'' 80s Grooves CD03

Used drive : HL-DT-STDVDRAM GSA-T50L Adapter: 1 ID: 0

Read mode : Secure
Utilize accurate stream : Yes
Defeat audio cache : No
Make use of C2 pointers : No

Read offset correction : 667
Overread into Lead-In and Lead-Out : No
Fill up missing offset samples with silence : Yes
Delete leading and trailing silent blocks : No
Null samples used in CRC calculations : Yes
Used interface : Native Win32 interface for Win NT & 2000
Gap handling : Appended to previous track

Used output format : User Defined Encoder
Selected bitrate : 1024 kBit/s
Quality : High
Add ID3 tag : No
Command line compressor : C:\Program Files\Exact Audio Copy\Flac\flac.exe
Additional command line options : -8 -V -T "ARTIST=%artist%" -T "TITLE=%title%" -T "ALBUM=%albumtitle%" -T "DATE=%year%" -T "TRACKNUMBER=%tracknr%" -T "GENRE=%genre%" -T "PERFORMER=%albuminterpret%" -T "COMPOSER=%composer%" %haslyrics%–tag-from-file=LYRICS="%lyricsfile%"%haslyrics% -T "ALBUMARTIST=%albumartist%" -T "DISCNUMBER=%cdnumber%" -T "TOTALDISCS=%totalcds%" -T "TOTALTRACKS=%numtracks%" -T "COMMENT=%comment%" %source% -o %dest%


TOC of the extracted CD

Track | Start | Length | Start sector | End sector
––––––––––––––––––––––––––––-
1 | 0:00.00 | 6:25.22 | 0 | 28896
2 | 6:25.22 | 5:30.46 | 28897 | 53692
3 | 11:55.68 | 7:07.15 | 53693 | 85732
4 | 19:03.08 | 5:21.67 | 85733 | 109874
5 | 24:25.00 | 7:14.50 | 109875 | 142474
6 | 31:39.50 | 5:06.74 | 142475 | 165498
7 | 36:46.49 | 5:04.19 | 165499 | 188317
8 | 41:50.68 | 5:48.13 | 188318 | 214430
9 | 47:39.06 | 8:17.06 | 214431 | 251711
10 | 55:56.12 | 6:57.05 | 251712 | 282991
11 | 62:53.17 | 7:02.70 | 282992 | 314711


Track 1

Filename C:\FLAC\01 - Jocelyn Brown - Somebody Else's Guy [12''].wav

Pre-gap length 0:00:02.00

Peak level 98.8 %
Extraction speed 4.4 X
Track quality 100.0 %
Test CRC 6DEB8DFE
Copy CRC 6DEB8DFE
Accurately ripped (confidence 9) [3C037D5A] (AR v2)
Copy OK

Track 2

Filename C:\FLAC\02 - Mary Jane Girls - All Night Long [12''].wav

Pre-gap length 0:00:00.17

Peak level 98.8 %
Extraction speed 5.0 X
Track quality 100.0 %
Test CRC 29E5C315
Copy CRC 29E5C315
Accurately ripped (confidence 9) [585308D6] (AR v2)
Copy OK

Track 3

Filename C:\FLAC\03 - Fatback Band - I Found Lovin' [12'' Mix].wav

Pre-gap length 0:00:00.13

Peak level 98.8 %
Extraction speed 5.6 X
Track quality 100.0 %
Test CRC 56E64290
Copy CRC 56E64290
Accurately ripped (confidence 9) [16BE4A8D] (AR v2)
Copy OK

Track 4

Filename C:\FLAC\04 - Dennis Edwards - Don't Look Any Further [12''].wav

Pre-gap length 0:00:00.38

Peak level 98.8 %
Extraction speed 6.1 X
Track quality 100.0 %
Test CRC FA199C15
Copy CRC FA199C15
Accurately ripped (confidence 9) [D4900824] (AR v2)
Copy OK

Track 5

Filename C:\FLAC\05 - Gwen Guthrie - Ain't Nothing Going On But The Rent [12'' Mix].wav

Pre-gap length 0:00:00.30

Peak level 98.8 %
Extraction speed 6.5 X
Track quality 99.9 %
Test CRC BEAB4093
Copy CRC BEAB4093
Accurately ripped (confidence 10) [7D8A1EE5] (AR v2)
Copy OK

Track 6

Filename C:\FLAC\06 - Oran Juice Jones - The Rain [12'' Mix].wav

Pre-gap length 0:00:00.26

Peak level 98.8 %
Extraction speed 7.1 X
Track quality 100.0 %
Test CRC 85DD4AD3
Copy CRC 85DD4AD3
Accurately ripped (confidence 9) [2603256B] (AR v2)
Copy OK

Track 7

Filename C:\FLAC\07 - Commodores - Night Shift [Long Version].wav

Pre-gap length 0:00:00.44

Peak level 98.8 %
Extraction speed 7.6 X
Track quality 100.0 %
Test CRC 089A0B28
Copy CRC 089A0B28
Accurately ripped (confidence 9) [CEC8322C] (AR v2)
Copy OK

Track 8

Filename C:\FLAC\08 - Will Downing - A Love Supreme [Extended].wav

Pre-gap length 0:00:00.28

Peak level 98.8 %
Extraction speed 7.8 X
Track quality 100.0 %
Test CRC CE6E3B52
Copy CRC CE6E3B52
Accurately ripped (confidence 9) [932661F7] (AR v2)
Copy OK

Track 9

Filename C:\FLAC\09 - Third World - Now That We've Found Love [12''].wav

Pre-gap length 0:00:00.10

Peak level 98.8 %
Extraction speed 8.4 X
Track quality 100.0 %
Test CRC 8B94ADAA
Copy CRC 8B94ADAA
Accurately ripped (confidence 8) [5A5FDDEE] (AR v2)
Copy OK

Track 10

Filename C:\FLAC\10 - Gregory Isaacs - Night Nurse [12''].wav

Pre-gap length 0:00:03.02

Peak level 98.8 %
Extraction speed 8.8 X
Track quality 100.0 %
Test CRC 02018997
Copy CRC 02018997
Accurately ripped (confidence 9) [F896264F] (AR v2)
Copy OK

Track 11

Filename C:\FLAC\11 - Grace Jones - My Jamaican Guy [12''].wav

Pre-gap length 0:00:00.37

Peak level 100.0 %
Extraction speed 9.0 X
Track quality 100.0 %
Test CRC 7672BDF2
Copy CRC 7672BDF2
Accurately ripped (confidence 8) [CF9B3943] (AR v2)
Copy OK


All tracks accurately ripped

No errors occurred

End of status report

–– CUETools DB Plugin V2.1.3

[CTDB TOCID: mh4SaZSpRsTK1sQcjAHhY__KUps-] found, Submit result: mh4SaZSpRsTK1sQcjAHhY__KUps- has been confirmed
[45c2af42] (20/20) Accurately ripped


==== Log checksum C93C2EAEBEA257E8365B7BDDB4A1B0F1972E632BAB2DE5D4AD906C44487A9B76 ====

––––––––––––––––––––––––––––––

Exact Audio Copy V1.0 beta 3 from 29. August 2011

EAC extraction logfile from 23. July 2014, 23:39

Various / 12'' 80s Grooves CD03

Used drive : HL-DT-STDVDRAM GSA-T50L Adapter: 1 ID: 0

Read mode : Secure
Utilize accurate stream : Yes
Defeat audio cache : No
Make use of C2 pointers : No

Read offset correction : 667
Overread into Lead-In and Lead-Out : No
Fill up missing offset samples with silence : Yes
Delete leading and trailing silent blocks : No
Null samples used in CRC calculations : Yes
Used interface : Native Win32 interface for Win NT & 2000
Gap handling : Appended to previous track

Used output format : User Defined Encoder
Selected bitrate : 1024 kBit/s
Quality : High
Add ID3 tag : No
Command line compressor : C:\Program Files\Exact Audio Copy\Flac\flac.exe
Additional command line options : -8 -V -T "ARTIST=%artist%" -T "TITLE=%title%" -T "ALBUM=%albumtitle%" -T "DATE=%year%" -T "TRACKNUMBER=%tracknr%" -T "GENRE=%genre%" -T "PERFORMER=%albuminterpret%" -T "COMPOSER=%composer%" %haslyrics%–tag-from-file=LYRICS="%lyricsfile%"%haslyrics% -T "ALBUMARTIST=%albumartist%" -T "DISCNUMBER=%cdnumber%" -T "TOTALDISCS=%totalcds%" -T "TOTALTRACKS=%numtracks%" -T "COMMENT=%comment%" %source% -o %dest%


TOC of the extracted CD

Track | Start | Length | Start sector | End sector
––––––––––––––––––––––––––––-
1 | 0:00.00 | 6:25.22 | 0 | 28896
2 | 6:25.22 | 5:30.46 | 28897 | 53692
3 | 11:55.68 | 7:07.15 | 53693 | 85732
4 | 19:03.08 | 5:21.67 | 85733 | 109874
5 | 24:25.00 | 7:14.50 | 109875 | 142474
6 | 31:39.50 | 5:06.74 | 142475 | 165498
7 | 36:46.49 | 5:04.19 | 165499 | 188317
8 | 41:50.68 | 5:48.13 | 188318 | 214430
9 | 47:39.06 | 8:17.06 | 214431 | 251711
10 | 55:56.12 | 6:57.05 | 251712 | 282991
11 | 62:53.17 | 7:02.70 | 282992 | 314711


Track 1

Filename C:\FLAC\01 - Jocelyn Brown - Somebody Else's Guy [12''].wav

Pre-gap length 0:00:02.00

Peak level 98.8 %
Extraction speed 4.4 X
Track quality 100.0 %
Test CRC 6DEB8DFE
Copy CRC 6DEB8DFE
Accurately ripped (confidence 9) [3C037D5A] (AR v2)
Copy OK

Track 2

Filename C:\FLAC\02 - Mary Jane Girls - All Night Long [12''].wav

Pre-gap length 0:00:00.17

Peak level 98.8 %
Extraction speed 5.0 X
Track quality 100.0 %
Test CRC 29E5C315
Copy CRC 29E5C315
Accurately ripped (confidence 9) [585308D6] (AR v2)
Copy OK

Track 3

Filename C:\FLAC\03 - Fatback Band - I Found Lovin' [12'' Mix].wav

Pre-gap length 0:00:00.13

Peak level 98.8 %
Extraction speed 5.6 X
Track quality 100.0 %
Test CRC 56E64290
Copy CRC 56E64290
Accurately ripped (confidence 9) [16BE4A8D] (AR v2)
Copy OK

Track 4

Filename C:\FLAC\04 - Dennis Edwards - Don't Look Any Further [12''].wav

Pre-gap length 0:00:00.38

Peak level 98.8 %
Extraction speed 6.1 X
Track quality 100.0 %
Test CRC FA199C15
Copy CRC FA199C15
Accurately ripped (confidence 9) [D4900824] (AR v2)
Copy OK

Track 5

Filename C:\FLAC\05 - Gwen Guthrie - Ain't Nothing Going On But The Rent [12'' Mix].wav

Pre-gap length 0:00:00.30

Peak level 98.8 %
Extraction speed 6.5 X
Track quality 99.9 %
Test CRC BEAB4093
Copy CRC BEAB4093
Accurately ripped (confidence 10) [7D8A1EE5] (AR v2)
Copy OK

Track 6

Filename C:\FLAC\06 - Oran Juice Jones - The Rain [12'' Mix].wav

Pre-gap length 0:00:00.26

Peak level 98.8 %
Extraction speed 7.1 X
Track quality 100.0 %
Test CRC 85DD4AD3
Copy CRC 85DD4AD3
Accurately ripped (confidence 9) [2603256B] (AR v2)
Copy OK

Track 7

Filename C:\FLAC\07 - Commodores - Night Shift [Long Version].wav

Pre-gap length 0:00:00.44

Peak level 98.8 %
Extraction speed 7.6 X
Track quality 100.0 %
Test CRC 089A0B28
Copy CRC 089A0B28
Accurately ripped (confidence 9) [CEC8322C] (AR v2)
Copy OK

Track 8

Filename C:\FLAC\08 - Will Downing - A Love Supreme [Extended].wav

Pre-gap length 0:00:00.28

Peak level 98.8 %
Extraction speed 7.8 X
Track quality 100.0 %
Test CRC CE6E3B52
Copy CRC CE6E3B52
Accurately ripped (confidence 9) [932661F7] (AR v2)
Copy OK

Track 9

Filename C:\FLAC\09 - Third World - Now That We've Found Love [12''].wav

Pre-gap length 0:00:00.10

Peak level 98.8 %
Extraction speed 8.4 X
Track quality 100.0 %
Test CRC 8B94ADAA
Copy CRC 8B94ADAA
Accurately ripped (confidence 8) [5A5FDDEE] (AR v2)
Copy OK

Track 10

Filename C:\FLAC\10 - Gregory Isaacs - Night Nurse [12''].wav

Pre-gap length 0:00:03.02

Peak level 98.8 %
Extraction speed 8.8 X
Track quality 100.0 %
Test CRC 02018997
Copy CRC 02018997
Accurately ripped (confidence 9) [F896264F] (AR v2)
Copy OK

Track 11

Filename C:\FLAC\11 - Grace Jones - My Jamaican Guy [12''].wav

Pre-gap length 0:00:00.37

Peak level 100.0 %
Extraction speed 9.0 X
Track quality 100.0 %
Test CRC 7672BDF2
Copy CRC 7672BDF2
Accurately ripped (confidence 8) [CF9B3943] (AR v2)
Copy OK


All tracks accurately ripped

No errors occurred

End of status report

–– CUETools DB Plugin V2.1.3

[CTDB TOCID: mh4SaZSpRsTK1sQcjAHhY__KUps-] found, Submit result: mh4SaZSpRsTK1sQcjAHhY__KUps- has been confirmed
[45c2af42] (20/20) Accurately ripped


==== Log checksum C93C2EAEBEA257E8365B7BDDB4A1B0F1972E632BAB2DE5D4AD906C44487A9B76 ====

foobar2000 1.2 / Dynamic Range Meter 1.1.1
log date: 2014-07-28 17:40:53

––––––––––––––––––––––––––––––––––––––––
Analyzed: Commodores / 12'' 80s Grooves CD03 (1)
Dennis Edwards / 12'' 80s Grooves CD03 (2)
Fatback Band / 12'' 80s Grooves CD03 (3)
Grace Jones / 12'' 80s Grooves CD03 (4)
Gregory Isaacs / 12'' 80s Grooves CD03 (5)
Gwen Guthrie / 12'' 80s Grooves CD03 (6)
Jocelyn Brown / 12'' 80s Grooves CD03 (7)
Mary Jane Girls / 12'' 80s Grooves CD03 (8)
Oran Juice Jones / 12'' 80s Grooves CD03 (9)
Third World / 12'' 80s Grooves CD03 (10)
Will Downing / 12'' 80s Grooves CD03 (11)
––––––––––––––––––––––––––––––––––––––––

DR Peak RMS Duration Track
––––––––––––––––––––––––––––––––––––––––
DR8 -0.10 dB -10.24 dB 5:04 07-Night Shift [Long Version]
DR8 -0.10 dB -9.26 dB 5:22 04-Don't Look Any Further [12']
DR7 -0.10 dB -8.95 dB 7:07 03-I Found Lovin' [12' Mix]
DR6 0.00 dB -7.21 dB 7:03 11-My Jamaican Guy [12']
DR9 -0.10 dB -10.64 dB 6:57 10-Night Nurse [12']
DR9 -0.10 dB -10.60 dB 7:15 05-Ain't Nothing Going On But The Rent [12' Mix]
DR7 -0.10 dB -9.78 dB 6:25 01-Somebody Else's Guy [12']
DR8 -0.10 dB -10.72 dB 5:31 02-All Night Long [12']
DR8 -0.10 dB -9.17 dB 5:07 06-The Rain [12' Mix]
DR9 -0.10 dB -11.20 dB 8:17 09-Now That We've Found Love [12']
DR9 -0.10 dB -11.23 dB 5:48 08-A Love Supreme [Extended]
––––––––––––––––––––––––––––––––––––––––

Number of tracks: 11
Official DR value: DR8

Samplerate: 44100 Hz
Channels: 2
Bits per sample: 16
Bitrate: 1056 kbps
Codec: FLAC
================================================================================

VA - 12"/80s Grooves (2007) 3CD Set [Re-Up]

All thanks to original releaser - only1joe

More interesting music in My Blog