Subcategories
Tags
Language
Tags

VA - Then... Chill Jazz (2010) 4CD Box Set

Posted By: Designol
VA - Then... Chill Jazz (2010) 4CD Box Set

VA - Then… Chill Jazz (2010) 4CD Box Set
EAC | FLAC | Image (Cue&Log) ~ 761 Mb | Mp3 (CBR320) ~ 559 Mb
Label: AP Music Ltd. | # AUPCD 125 | Time: 04:04:20 | Scans ~ 36 Mb
Cool, Bop, Vocal Jazz, Mainstream Jazz

4CD Box Set. 72 tracks featuring Miles Davis, Dave Brubeck, Gerry Mulligan, Thelonious Monk, Charlie Parker, Dizzy Gillespie, Chet Baker, Duke Ellington, Oscar Peterson, Claude Thornhill, Nat King Cole, Charles Mingus, Billie Holiday, Ella Fitzgerald, Lester Young, Louis Armstrong, Eartha Kitt, Julie London, Art Pepper and many, many more…

VA - Then... Chill Jazz (2010) 4CD Box Set


Tracklist:

CD1:

01. Dave Brubeck - Take Five (05:27)
02. Claude Thornhill - Snowfall (03:00)
03. Gerry Mulligan Quartet - Bernies Tune (02:58)
04. Oscar Peterson - These Foolish Things (03:26)
05. Billie Holiday - All Of Me (03:05)
06. Bix Beiderbecke - I'm Coming Virginia (03:14)
07. Duke Ellington - Black Beauty (03:13)
08. Benny Carter & His Orchestra - Nightfall (03:15)
09. Count Basie - Oh, Lady Be Good (03:16)
10. Bunny Berrigan - I cant get started (04:48)
11. Nat King Cole - Straighten Up And Fly Right (02:28)
12. Miles Davis - Ah Leu Cha (with the Charlie Parker Allstars) (02:55)
13. Erroll Garner - Over The Rainbow (03:06)
14. Chet Baker - My Funny Valentine (02:22)
15. Charlie Parker - Out Of Nowhere (04:09)
16. Thelonious Monk - Round Midnight (03:14)
17. Stan Getz - What's New? (03:24)
18. Anita O'Day - You Took Advantage Of me (02:18)

CD2:

01. Nat King Cole - Get Your Kicks On Route 66 (03:04)
02. Miles Davis - Moon Dreams (03:21)
03. Claude Thornhill - Early Autumn (With Fran Warren) (02:57)
04. Billie Holiday - You Go To My Head (02:56)
05. Bill Evans - Minority (05:23)
06. June Christy - Something Cool (04:22)
07. Chet Baker - But Not For Me (03:05)
08. Benny Carter & His Orchestra - Poinciana (03:05)
09. Billy Eckstine - My Foolish Heart (03:06)
10. Charles Mingus - Better Git It In Your Soul (07:23)
11. Charlie Barnet - Blue Lou (03:07)
12. Julie London - Cant Help Lovin' That Man (03:11)
13. Gerry Mulligan Quartet - Moonlight In Vermont (04:10)
14. Dizzy Gillespie - All The Things You Are (02:49)
15. Charlie Parker - Cool Blues (02:23)
16. Ornette Coleman - Eventually (04:24)
17. Stan Kenton And His Orchestra - The Peanut Vendor (El Mamisero) (02:46)
18. Woody Herman - Blues In The Night (03:15)

CD3:

01. Dave Brubeck - Blue Rondo A La Turk (06:48)
02. Nat King Cole - Embraceable You (03:25)
03. Miles Davis - Boplicity (03:03)
04. Billie Holiday - Fine And Mellow (03:15)
05. Chick Webb - In The Groove At The Grove (02:38)
06. Julie London - S'Wonderful (01:35)
07. Benny Carter & His Orchestra - Lazy Afternoon (03:04)
08. Alma Cogan - Whatever Lola Wants (02:51)
09. Thelonious Monk - The Way You Look Tonight (05:17)
10. Gerry Mulligan Quartet - Line For Lyons (02:36)
11. Ella Fitzgerald - Basin Street Blues (03:09)
12. Louis Armstrong - A Kiss To Build A Dream On (03:10)
13. Dizzy Gillespie - A Night In Tunisia (03:09)
14. Larry Adler - Little Girl Blue (03:47)
15. Art Pepper - YARDBIRD SUITE (05:47)
16. Claude Thornhill - A Sunday Kind Of Love (With Fran Warren) (03:26)
17. Lester Young - I Ain't Got Nobody (And There's Nobody Cares For Me) (03:00)
18. Louis Prima - Sing Sing Sing (02:48)

CD4:

01. Miles Davis - Venus De Milo (03:13)
02. Billie Holiday - Summertime (02:58)
03. Charlie Barnet - Skyliner (03:04)
04. Chick Webb - Undecided (03:19)
05. Kay Starr - Stormy Weather (03:12)
06. Louis Armstrong - Panama (04:02)
07. Eartha Kitt - Lilac Wine (03:45)
08. Dizzy Gillespie - Groovin' High (02:44)
09. Stan Kenton - Intermission Riff (03:20)
10. Thelonious Monk - Just A Gigolo (03:01)
11. Nat King Cole Trio - SMOKE GETS IN YOUR EYE (02:58)
12. Ella Fitzgerald - Angel Eyes (02:56)
13. Woody Herman - The Sheik Of Araby (02:45)
14. Sidney Bechet - Strange Fruit (02:36)
15. Claude Thornhill - Anthropology (03:07)
16. Art Blakey - The Thin Man (03:02)
17. Lester Young - Lester Leaps Again (03:18)
18. Gerry Mulligan Quartet - Frenesi (03:11)


Exact Audio Copy V1.0 beta 3 from 29. August 2011

EAC extraction logfile from 6. June 2012, 13:05

Essential Cool Jazz (AUPCD 125 CD-1) / Then…Chill Jazz

Used drive : Optiarc DVD RW AD-5170A Adapter: 0 ID: 0

Read mode : Secure
Utilize accurate stream : Yes
Defeat audio cache : Yes
Make use of C2 pointers : No

Read offset correction : 48
Overread into Lead-In and Lead-Out : No
Fill up missing offset samples with silence : Yes
Delete leading and trailing silent blocks : No
Null samples used in CRC calculations : Yes
Used interface : Native Win32 interface for Win NT & 2000

Used output format : Internal WAV Routines
Sample format : 44.100 Hz; 16 Bit; Stereo


TOC of the extracted CD

Track | Start | Length | Start sector | End sector
––––––––––––––––––––––––––––-
1 | 0:00.00 | 5:27.09 | 0 | 24533
2 | 5:27.09 | 3:00.67 | 24534 | 38100
3 | 8:28.01 | 2:58.11 | 38101 | 51461
4 | 11:26.12 | 3:26.25 | 51462 | 66936
5 | 14:52.37 | 3:05.41 | 66937 | 80852
6 | 17:58.03 | 3:14.02 | 80853 | 95404
7 | 21:12.05 | 3:13.38 | 95405 | 109917
8 | 24:25.43 | 3:15.24 | 109918 | 124566
9 | 27:40.67 | 3:16.41 | 124567 | 139307
10 | 30:57.33 | 4:48.73 | 139308 | 160980
11 | 35:46.31 | 2:28.16 | 160981 | 172096
12 | 38:14.47 | 2:55.21 | 172097 | 185242
13 | 41:09.68 | 3:06.01 | 185243 | 199193
14 | 44:15.69 | 2:22.00 | 199194 | 209843
15 | 46:37.69 | 4:09.21 | 209844 | 228539
16 | 50:47.15 | 3:14.64 | 228540 | 243153
17 | 54:02.04 | 3:24.72 | 243154 | 258525
18 | 57:27.01 | 2:18.59 | 258526 | 268934


Range status and errors

Selected range

Filename D:\bigggwest\Essential Cool Jazz (AUPCD 125 CD-1) - Then…Chill Jazz.wav

Peak level 100.0 %
Extraction speed 5.1 X
Range quality 100.0 %
Test CRC 865A4540
Copy CRC 865A4540
Copy OK

No errors occurred


AccurateRip summary

Track 1 not present in database
Track 2 not present in database
Track 3 not present in database
Track 4 not present in database
Track 5 not present in database
Track 6 not present in database
Track 7 not present in database
Track 8 not present in database
Track 9 not present in database
Track 10 not present in database
Track 11 not present in database
Track 12 not present in database
Track 13 not present in database
Track 14 not present in database
Track 15 not present in database
Track 16 not present in database
Track 17 not present in database
Track 18 not present in database

None of the tracks are present in the AccurateRip database

End of status report

==== Log checksum B7923506ECD35E7BB69256BC529BC0279A7FB48D9572C7841ECC61301687F57F ====

foobar2000 1.2 / Dynamic Range Meter 1.1.1
log date: 2015-07-17 15:45:08

––––––––––––––––––––––––––––––––––––––––
Statistics for: 08-Nightfall
Number of samples: 8613612
Duration: 3:15
––––––––––––––––––––––––––––––––––––––––

Left Right

Peak Value: -3.14 dB –- -3.14 dB
Avg RMS: -18.75 dB –- -18.75 dB
DR channel: 13.19 dB –- 13.19 dB
––––––––––––––––––––––––––––––––––––––––

Official DR Value: DR13

Samplerate: 44100 Hz
Channels: 2
Bits per sample: 16
Bitrate: 387 kbps
Codec: FLAC
================================================================================
––––––––––––––––––––––––––––––––––––––––
Analyzed: Billie Holiday / Then…Chill Jazz (1)
Bix Beiderbecke / Then…Chill Jazz (2)
Bunny Berrigan / Then…Chill Jazz (3)
Charlie Parker / Then…Chill Jazz (4)
––––––––––––––––––––––––––––––––––––––––

DR Peak RMS Duration Track
––––––––––––––––––––––––––––––––––––––––
DR11 -2.89 dB -18.37 dB 3:06 05-All Of Me
DR14 -3.58 dB -20.55 dB 3:14 06-I'm Coming Virginia
DR12 -1.53 dB -16.86 dB 4:49 10-I cant get started
DR13 -2.23 dB -18.44 dB 4:09 15-Out Of Nowhere
––––––––––––––––––––––––––––––––––––––––

Number of tracks: 4
Official DR value: DR12

Samplerate: 44100 Hz
Channels: 2
Bits per sample: 16
Bitrate: 387 kbps
Codec: FLAC
================================================================================

––––––––––––––––––––––––––––––––––––––––
Statistics for: 14-My Funny Valentine
Number of samples: 6262200
Duration: 2:22
––––––––––––––––––––––––––––––––––––––––

Left Right

Peak Value: -5.86 dB –- -5.86 dB
Avg RMS: -21.63 dB –- -21.53 dB
DR channel: 11.84 dB –- 11.73 dB
––––––––––––––––––––––––––––––––––––––––

Official DR Value: DR12

Samplerate: 44100 Hz
Channels: 2
Bits per sample: 16
Bitrate: 387 kbps
Codec: FLAC
================================================================================
––––––––––––––––––––––––––––––––––––––––
Analyzed: Claude Thornhill / Then…Chill Jazz (1)
Count Basie / Then…Chill Jazz (2)
––––––––––––––––––––––––––––––––––––––––

DR Peak RMS Duration Track
––––––––––––––––––––––––––––––––––––––––
DR12 -0.98 dB -18.59 dB 3:01 02-Snowfall
DR13 -1.68 dB -18.25 dB 3:17 09-Oh, Lady Be Good
––––––––––––––––––––––––––––––––––––––––

Number of tracks: 2
Official DR value: DR13

Samplerate: 44100 Hz
Channels: 2
Bits per sample: 16
Bitrate: 387 kbps
Codec: FLAC
================================================================================

––––––––––––––––––––––––––––––––––––––––
Analyzed: Dave Brubeck / Then…Chill Jazz (1)
Duke Ellington / Then…Chill Jazz (2)
Erroll Garner / Then…Chill Jazz (3)
––––––––––––––––––––––––––––––––––––––––

DR Peak RMS Duration Track
––––––––––––––––––––––––––––––––––––––––
DR12 0.00 dB -15.38 dB 5:27 01-Take Five
DR11 -1.67 dB -15.70 dB 3:14 07-Black Beauty
DR14 -1.55 dB -20.05 dB 3:06 13-Over The Rainbow
––––––––––––––––––––––––––––––––––––––––

Number of tracks: 3
Official DR value: DR12

Samplerate: 44100 Hz
Channels: 2
Bits per sample: 16
Bitrate: 387 kbps
Codec: FLAC
================================================================================

––––––––––––––––––––––––––––––––––––––––
Analyzed: Gerry Mulligan Quartet / Then…Chill Jazz (1)
Miles Davis / Then…Chill Jazz (2)
––––––––––––––––––––––––––––––––––––––––

DR Peak RMS Duration Track
––––––––––––––––––––––––––––––––––––––––
DR13 -2.43 dB -17.39 dB 2:58 03-Bernies Tune
DR9 -4.96 dB -15.70 dB 2:55 12-Ah Leu Cha (with the Charlie Parker Allstars)
––––––––––––––––––––––––––––––––––––––––

Number of tracks: 2
Official DR value: DR11

Samplerate: 44100 Hz
Channels: 2
Bits per sample: 16
Bitrate: 387 kbps
Codec: FLAC
================================================================================

––––––––––––––––––––––––––––––––––––––––
Statistics for: 11-Straighten Up And Fly Right
Number of samples: 6536208
Duration: 2:28
––––––––––––––––––––––––––––––––––––––––

Left Right

Peak Value: -2.54 dB –- -2.54 dB
Avg RMS: -16.93 dB –- -16.93 dB
DR channel: 11.70 dB –- 11.70 dB
––––––––––––––––––––––––––––––––––––––––

Official DR Value: DR12

Samplerate: 44100 Hz
Channels: 2
Bits per sample: 16
Bitrate: 387 kbps
Codec: FLAC
================================================================================
––––––––––––––––––––––––––––––––––––––––
Analyzed: Oscar Peterson / Then…Chill Jazz (1)
Stan Getz / Then…Chill Jazz (2)
––––––––––––––––––––––––––––––––––––––––

DR Peak RMS Duration Track
––––––––––––––––––––––––––––––––––––––––
DR11 0.00 dB -14.73 dB 3:26 04-These Foolish Things
DR13 -0.80 dB -17.24 dB 3:25 17-What's New?
––––––––––––––––––––––––––––––––––––––––

Number of tracks: 2
Official DR value: DR12

Samplerate: 44100 Hz
Channels: 2
Bits per sample: 16
Bitrate: 387 kbps
Codec: FLAC
================================================================================

––––––––––––––––––––––––––––––––––––––––
Statistics for: 16-Round Midnight
Number of samples: 8593032
Duration: 3:15
––––––––––––––––––––––––––––––––––––––––

Left Right

Peak Value: -2.54 dB –- -2.93 dB
Avg RMS: -16.36 dB –- -16.76 dB
DR channel: 10.92 dB –- 10.98 dB
––––––––––––––––––––––––––––––––––––––––

Official DR Value: DR11

Samplerate: 44100 Hz
Channels: 2
Bits per sample: 16
Bitrate: 387 kbps
Codec: FLAC
================================================================================
foobar2000 1.2 / Dynamic Range Meter 1.1.1
log date: 2015-07-17 15:45:07

––––––––––––––––––––––––––––––––––––––––
Statistics for: 18-You Took Advantage Of me
Number of samples: 6120492
Duration: 2:19
––––––––––––––––––––––––––––––––––––––––

Left Right

Peak Value: -1.14 dB –- -1.14 dB
Avg RMS: -21.75 dB –- -21.75 dB
DR channel: 17.87 dB –- 17.87 dB
––––––––––––––––––––––––––––––––––––––––

Official DR Value: DR18

Samplerate: 44100 Hz
Channels: 2
Bits per sample: 16
Bitrate: 387 kbps
Codec: FLAC
================================================================================


Exact Audio Copy V1.0 beta 3 from 29. August 2011

EAC extraction logfile from 7. June 2012, 9:49

Essential Cool Jazz (AUPCD 125 CD-2) / Then…Chill Jazz

Used drive : Optiarc DVD RW AD-5170A Adapter: 0 ID: 0

Read mode : Secure
Utilize accurate stream : Yes
Defeat audio cache : Yes
Make use of C2 pointers : No

Read offset correction : 48
Overread into Lead-In and Lead-Out : No
Fill up missing offset samples with silence : Yes
Delete leading and trailing silent blocks : No
Null samples used in CRC calculations : Yes
Used interface : Native Win32 interface for Win NT & 2000

Used output format : Internal WAV Routines
Sample format : 44.100 Hz; 16 Bit; Stereo


TOC of the extracted CD

Track | Start | Length | Start sector | End sector
––––––––––––––––––––––––––––-
1 | 0:00.00 | 3:04.24 | 0 | 13823
2 | 3:04.24 | 3:21.70 | 13824 | 28968
3 | 6:26.19 | 2:57.25 | 28969 | 42268
4 | 9:23.44 | 2:56.45 | 42269 | 55513
5 | 12:20.14 | 5:23.26 | 55514 | 79764
6 | 17:43.40 | 4:22.33 | 79765 | 99447
7 | 22:05.73 | 3:05.60 | 99448 | 113382
8 | 25:11.58 | 3:05.51 | 113383 | 127308
9 | 28:17.34 | 3:06.39 | 127309 | 141297
10 | 31:23.73 | 7:23.41 | 141298 | 174563
11 | 38:47.39 | 3:07.35 | 174564 | 188623
12 | 41:54.74 | 3:11.58 | 188624 | 203006
13 | 45:06.57 | 4:10.02 | 203007 | 221758
14 | 49:16.59 | 2:49.32 | 221759 | 234465
15 | 52:06.16 | 2:23.54 | 234466 | 245244
16 | 54:29.70 | 4:24.08 | 245245 | 265052
17 | 58:54.03 | 2:46.48 | 265053 | 277550
18 | 61:40.51 | 3:15.29 | 277551 | 292204


Range status and errors

Selected range

Filename D:\bigggwest\Essential Cool Jazz (AUPCD 125 CD-2) - Then…Chill Jazz.wav

Peak level 98.4 %
Extraction speed 2.1 X
Range quality 99.9 %
Test CRC 354B8AE9
Copy CRC 354B8AE9
Copy OK

No errors occurred


AccurateRip summary

Track 1 not present in database
Track 2 not present in database
Track 3 not present in database
Track 4 not present in database
Track 5 not present in database
Track 6 not present in database
Track 7 not present in database
Track 8 not present in database
Track 9 not present in database
Track 10 not present in database
Track 11 not present in database
Track 12 not present in database
Track 13 not present in database
Track 14 not present in database
Track 15 not present in database
Track 16 not present in database
Track 17 not present in database
Track 18 not present in database

None of the tracks are present in the AccurateRip database

End of status report

==== Log checksum 0B8DCA195161AEF480FC8944C6471612E83605F937E17D1E33F41BF06C21BDE9 ====

foobar2000 1.2 / Dynamic Range Meter 1.1.1
log date: 2015-07-17 15:45:23

––––––––––––––––––––––––––––––––––––––––
Statistics for: 05-Minority
Number of samples: 14259588
Duration: 5:23
––––––––––––––––––––––––––––––––––––––––

Left Right

Peak Value: -2.95 dB –- -2.81 dB
Avg RMS: -16.96 dB –- -16.30 dB
DR channel: 12.10 dB –- 11.46 dB
––––––––––––––––––––––––––––––––––––––––

Official DR Value: DR12

Samplerate: 44100 Hz
Channels: 2
Bits per sample: 16
Bitrate: 490 kbps
Codec: FLAC
================================================================================
––––––––––––––––––––––––––––––––––––––––
Analyzed: Billie Holiday / Then…Chill Jazz (1)
Billy Eckstine / Then…Chill Jazz (2)
Charles Mingus / Then…Chill Jazz (3)
Charlie Barnet / Then…Chill Jazz (4)
Charlie Parker / Then…Chill Jazz (5)
––––––––––––––––––––––––––––––––––––––––

DR Peak RMS Duration Track
––––––––––––––––––––––––––––––––––––––––
DR10 -3.68 dB -16.78 dB 2:57 04-You Go To My Head
DR10 -0.13 dB -13.54 dB 3:07 09-My Foolish Heart
DR13 -0.57 dB -16.03 dB 7:24 10-Better Git It In Your Soul
DR14 -1.04 dB -18.05 dB 3:07 11-Blue Lou
DR12 -2.80 dB -18.38 dB 2:24 15-Cool Blues
––––––––––––––––––––––––––––––––––––––––

Number of tracks: 5
Official DR value: DR12

Samplerate: 44100 Hz
Channels: 2
Bits per sample: 16
Bitrate: 490 kbps
Codec: FLAC
================================================================================

––––––––––––––––––––––––––––––––––––––––
Statistics for: 07-But Not For Me
Number of samples: 8193780
Duration: 3:06
––––––––––––––––––––––––––––––––––––––––

Left Right

Peak Value: -1.02 dB –- -1.03 dB
Avg RMS: -15.99 dB –- -16.00 dB
DR channel: 11.73 dB –- 11.72 dB
––––––––––––––––––––––––––––––––––––––––

Official DR Value: DR12

Samplerate: 44100 Hz
Channels: 2
Bits per sample: 16
Bitrate: 490 kbps
Codec: FLAC
================================================================================
––––––––––––––––––––––––––––––––––––––––
Analyzed: Claude Thornhill / Then…Chill Jazz (1)
Dizzy Gillespie / Then…Chill Jazz (2)
––––––––––––––––––––––––––––––––––––––––

DR Peak RMS Duration Track
––––––––––––––––––––––––––––––––––––––––
DR11 -1.36 dB -16.00 dB 2:57 03-Early Autumn (With Fran Warren)
DR9 -1.44 dB -13.98 dB 2:49 14-All The Things You Are
––––––––––––––––––––––––––––––––––––––––

Number of tracks: 2
Official DR value: DR10

Samplerate: 44100 Hz
Channels: 2
Bits per sample: 16
Bitrate: 490 kbps
Codec: FLAC
================================================================================

––––––––––––––––––––––––––––––––––––––––
Statistics for: 13-Moonlight In Vermont
Number of samples: 11026176
Duration: 4:10
––––––––––––––––––––––––––––––––––––––––

Left Right

Peak Value: -3.35 dB –- -3.35 dB
Avg RMS: -15.73 dB –- -15.73 dB
DR channel: 10.52 dB –- 10.52 dB
––––––––––––––––––––––––––––––––––––––––

Official DR Value: DR11

Samplerate: 44100 Hz
Channels: 2
Bits per sample: 16
Bitrate: 490 kbps
Codec: FLAC
================================================================================
––––––––––––––––––––––––––––––––––––––––
Statistics for: 12-Cant Help Lovin' That Man
Number of samples: 8457204
Duration: 3:12
––––––––––––––––––––––––––––––––––––––––

Left Right

Peak Value: -1.63 dB –- -1.63 dB
Avg RMS: -18.33 dB –- -17.98 dB
DR channel: 12.76 dB –- 12.87 dB
––––––––––––––––––––––––––––––––––––––––

Official DR Value: DR13

Samplerate: 44100 Hz
Channels: 2
Bits per sample: 16
Bitrate: 490 kbps
Codec: FLAC
================================================================================
––––––––––––––––––––––––––––––––––––––––
Statistics for: 06-Something Cool
Number of samples: 11573604
Duration: 4:22
––––––––––––––––––––––––––––––––––––––––

Left Right

Peak Value: -3.60 dB –- -3.60 dB
Avg RMS: -16.43 dB –- -16.43 dB
DR channel: 10.14 dB –- 10.14 dB
––––––––––––––––––––––––––––––––––––––––

Official DR Value: DR10

Samplerate: 44100 Hz
Channels: 2
Bits per sample: 16
Bitrate: 490 kbps
Codec: FLAC
================================================================================
––––––––––––––––––––––––––––––––––––––––
Statistics for: 02-Moon Dreams
Number of samples: 8905260
Duration: 3:22
––––––––––––––––––––––––––––––––––––––––

Left Right

Peak Value: -0.81 dB –- -1.22 dB
Avg RMS: -15.71 dB –- -16.12 dB
DR channel: 10.56 dB –- 10.69 dB
––––––––––––––––––––––––––––––––––––––––

Official DR Value: DR11

Samplerate: 44100 Hz
Channels: 2
Bits per sample: 16
Bitrate: 490 kbps
Codec: FLAC
================================================================================
––––––––––––––––––––––––––––––––––––––––
Analyzed: Nat King Cole / Then…Chill Jazz (1)
Ornette Coleman / Then…Chill Jazz (2)
Stan Kenton And His Orchestra / Then…Chill Jazz (3)
Woody Herman / Then…Chill Jazz (4)
––––––––––––––––––––––––––––––––––––––––

DR Peak RMS Duration Track
––––––––––––––––––––––––––––––––––––––––
DR14 -1.87 dB -18.25 dB 3:04 01-Get Your Kicks On Route 66
DR14 -0.64 dB -17.89 dB 4:24 16-Eventually
DR12 -1.22 dB -15.18 dB 2:47 17-The Peanut Vendor (El Mamisero)
DR13 -3.25 dB -18.87 dB 3:15 18-Blues In The Night
––––––––––––––––––––––––––––––––––––––––

Number of tracks: 4
Official DR value: DR13

Samplerate: 44100 Hz
Channels: 2
Bits per sample: 16
Bitrate: 490 kbps
Codec: FLAC
================================================================================
foobar2000 1.2 / Dynamic Range Meter 1.1.1
log date: 2015-07-17 15:45:21

––––––––––––––––––––––––––––––––––––––––
Statistics for: 08-Poinciana
Number of samples: 8188488
Duration: 3:06
––––––––––––––––––––––––––––––––––––––––

Left Right

Peak Value: -0.54 dB –- -0.54 dB
Avg RMS: -14.84 dB –- -14.84 dB
DR channel: 11.70 dB –- 11.70 dB
––––––––––––––––––––––––––––––––––––––––

Official DR Value: DR12

Samplerate: 44100 Hz
Channels: 2
Bits per sample: 16
Bitrate: 490 kbps
Codec: FLAC
================================================================================


Exact Audio Copy V1.0 beta 3 from 29. August 2011

EAC extraction logfile from 7. June 2012, 13:00

Essential Cool Jazz (AUPCD 125 CD-3) / Then…Chill Jazz

Used drive : Optiarc DVD RW AD-5170A Adapter: 0 ID: 0

Read mode : Secure
Utilize accurate stream : Yes
Defeat audio cache : Yes
Make use of C2 pointers : No

Read offset correction : 48
Overread into Lead-In and Lead-Out : No
Fill up missing offset samples with silence : Yes
Delete leading and trailing silent blocks : No
Null samples used in CRC calculations : Yes
Used interface : Native Win32 interface for Win NT & 2000

Used output format : Internal WAV Routines
Sample format : 44.100 Hz; 16 Bit; Stereo


TOC of the extracted CD

Track | Start | Length | Start sector | End sector
––––––––––––––––––––––––––––-
1 | 0:00.00 | 6:48.10 | 0 | 30609
2 | 6:48.10 | 3:25.40 | 30610 | 46024
3 | 10:13.50 | 3:03.67 | 46025 | 59816
4 | 13:17.42 | 3:15.29 | 59817 | 74470
5 | 16:32.71 | 2:38.49 | 74471 | 86369
6 | 19:11.45 | 1:35.58 | 86370 | 93552
7 | 20:47.28 | 3:04.32 | 93553 | 107384
8 | 23:51.60 | 2:51.12 | 107385 | 120221
9 | 26:42.72 | 5:17.39 | 120222 | 144035
10 | 32:00.36 | 2:36.54 | 144036 | 155789
11 | 34:37.15 | 3:09.47 | 155790 | 170011
12 | 37:46.62 | 3:10.17 | 170012 | 184278
13 | 40:57.04 | 3:09.48 | 184279 | 198501
14 | 44:06.52 | 3:47.22 | 198502 | 215548
15 | 47:53.74 | 5:47.05 | 215549 | 241578
16 | 53:41.04 | 3:26.51 | 241579 | 257079
17 | 57:07.55 | 3:00.10 | 257080 | 270589
18 | 60:07.65 | 2:48.51 | 270590 | 283240


Range status and errors

Selected range

Filename D:\bigggwest\Essential Cool Jazz (AUPCD 125 CD-3) - Then…Chill Jazz.wav

Peak level 100.0 %
Extraction speed 5.3 X
Range quality 100.0 %
Test CRC 42C61BBE
Copy CRC 42C61BBE
Copy OK

No errors occurred


AccurateRip summary

Track 1 not present in database
Track 2 not present in database
Track 3 not present in database
Track 4 not present in database
Track 5 not present in database
Track 6 not present in database
Track 7 not present in database
Track 8 not present in database
Track 9 not present in database
Track 10 not present in database
Track 11 not present in database
Track 12 not present in database
Track 13 not present in database
Track 14 not present in database
Track 15 not present in database
Track 16 not present in database
Track 17 not present in database
Track 18 not present in database

None of the tracks are present in the AccurateRip database

End of status report

==== Log checksum C6C5048E4E823E85563A7341F4FE200DBC2A8FCB5E03CC1954F7211C2198F48C ====

foobar2000 1.2 / Dynamic Range Meter 1.1.1
log date: 2015-07-17 15:45:39

––––––––––––––––––––––––––––––––––––––––
Analyzed: Alma Cogan / Then…Chill Jazz (1)
Art Pepper / Then…Chill Jazz (2)
––––––––––––––––––––––––––––––––––––––––

DR Peak RMS Duration Track
––––––––––––––––––––––––––––––––––––––––
DR10 -0.18 dB -14.37 dB 2:51 08-Whatever Lola Wants
DR13 -4.10 dB -19.51 dB 5:47 15-YARDBIRD SUITE
––––––––––––––––––––––––––––––––––––––––

Number of tracks: 2
Official DR value: DR12

Samplerate: 44100 Hz
Channels: 2
Bits per sample: 16
Bitrate: 456 kbps
Codec: FLAC
================================================================================

––––––––––––––––––––––––––––––––––––––––
Statistics for: 07-Lazy Afternoon
Number of samples: 8133216
Duration: 3:04
––––––––––––––––––––––––––––––––––––––––

Left Right

Peak Value: -1.14 dB –- -1.14 dB
Avg RMS: -15.67 dB –- -15.67 dB
DR channel: 11.46 dB –- 11.46 dB
––––––––––––––––––––––––––––––––––––––––

Official DR Value: DR11

Samplerate: 44100 Hz
Channels: 2
Bits per sample: 16
Bitrate: 456 kbps
Codec: FLAC
================================================================================
––––––––––––––––––––––––––––––––––––––––
Analyzed: Billie Holiday / Then…Chill Jazz (1)
Chick Webb / Then…Chill Jazz (2)
Claude Thornhill / Then…Chill Jazz (3)
––––––––––––––––––––––––––––––––––––––––

DR Peak RMS Duration Track
––––––––––––––––––––––––––––––––––––––––
DR13 -0.61 dB -16.54 dB 3:15 04-Fine And Mellow
DR13 -0.56 dB -16.55 dB 2:39 05-In The Groove At The Grove
DR13 -0.33 dB -17.19 dB 3:27 16-A Sunday Kind Of Love (With Fran Warren)
––––––––––––––––––––––––––––––––––––––––

Number of tracks: 3
Official DR value: DR13

Samplerate: 44100 Hz
Channels: 2
Bits per sample: 16
Bitrate: 456 kbps
Codec: FLAC
================================================================================

––––––––––––––––––––––––––––––––––––––––
Analyzed: Dave Brubeck / Then…Chill Jazz (1)
Dizzy Gillespie / Then…Chill Jazz (2)
––––––––––––––––––––––––––––––––––––––––

DR Peak RMS Duration Track
––––––––––––––––––––––––––––––––––––––––
DR12 0.00 dB -14.17 dB 6:48 01-Blue Rondo A La Turk
DR11 -0.83 dB -14.28 dB 3:10 13-A Night In Tunisia
––––––––––––––––––––––––––––––––––––––––

Number of tracks: 2
Official DR value: DR11

Samplerate: 44100 Hz
Channels: 2
Bits per sample: 16
Bitrate: 456 kbps
Codec: FLAC
================================================================================

––––––––––––––––––––––––––––––––––––––––
Statistics for: 11-Basin Street Blues
Number of samples: 8362536
Duration: 3:10
––––––––––––––––––––––––––––––––––––––––

Left Right

Peak Value: -3.41 dB –- -3.18 dB
Avg RMS: -18.65 dB –- -17.40 dB
DR channel: 11.69 dB –- 11.29 dB
––––––––––––––––––––––––––––––––––––––––

Official DR Value: DR11

Samplerate: 44100 Hz
Channels: 2
Bits per sample: 16
Bitrate: 456 kbps
Codec: FLAC
================================================================================
––––––––––––––––––––––––––––––––––––––––
Statistics for: 10-Line For Lyons
Number of samples: 6911352
Duration: 2:37
––––––––––––––––––––––––––––––––––––––––

Left Right

Peak Value: -2.70 dB –- -2.70 dB
Avg RMS: -17.29 dB –- -17.29 dB
DR channel: 12.01 dB –- 12.01 dB
––––––––––––––––––––––––––––––––––––––––

Official DR Value: DR12

Samplerate: 44100 Hz
Channels: 2
Bits per sample: 16
Bitrate: 456 kbps
Codec: FLAC
================================================================================
––––––––––––––––––––––––––––––––––––––––
Analyzed: Julie London / Then…Chill Jazz (1)
Larry Adler / Then…Chill Jazz (2)
Lester Young / Then…Chill Jazz (3)
––––––––––––––––––––––––––––––––––––––––

DR Peak RMS Duration Track
––––––––––––––––––––––––––––––––––––––––
DR11 -1.65 dB -15.57 dB 1:36 06-S'Wonderful
DR9 -0.30 dB -12.73 dB 3:47 14-Little Girl Blue
DR14 -0.28 dB -19.44 dB 3:00 17-I Ain't Got Nobody (And There's Nobody Cares For Me)
––––––––––––––––––––––––––––––––––––––––

Number of tracks: 3
Official DR value: DR11

Samplerate: 44100 Hz
Channels: 2
Bits per sample: 16
Bitrate: 456 kbps
Codec: FLAC
================================================================================

––––––––––––––––––––––––––––––––––––––––
Analyzed: Louis Armstrong / Then…Chill Jazz (1)
Louis Prima / Then…Chill Jazz (2)
––––––––––––––––––––––––––––––––––––––––

DR Peak RMS Duration Track
––––––––––––––––––––––––––––––––––––––––
DR10 -2.30 dB -16.91 dB 3:10 12-A Kiss To Build A Dream On
DR8 -6.59 dB -16.62 dB 2:49 18-Sing Sing Sing
––––––––––––––––––––––––––––––––––––––––

Number of tracks: 2
Official DR value: DR9

Samplerate: 44100 Hz
Channels: 2
Bits per sample: 16
Bitrate: 456 kbps
Codec: FLAC
================================================================================

––––––––––––––––––––––––––––––––––––––––
Statistics for: 03-Boplicity
Number of samples: 8109696
Duration: 3:04
––––––––––––––––––––––––––––––––––––––––

Left Right

Peak Value: -2.95 dB –- -3.31 dB
Avg RMS: -16.65 dB –- -17.04 dB
DR channel: 11.19 dB –- 11.22 dB
––––––––––––––––––––––––––––––––––––––––

Official DR Value: DR11

Samplerate: 44100 Hz
Channels: 2
Bits per sample: 16
Bitrate: 456 kbps
Codec: FLAC
================================================================================
––––––––––––––––––––––––––––––––––––––––
Analyzed: Nat King Cole / Then…Chill Jazz (1)
Thelonius Monk / Then…Chill Jazz (2)
––––––––––––––––––––––––––––––––––––––––

DR Peak RMS Duration Track
––––––––––––––––––––––––––––––––––––––––
DR13 -2.89 dB -18.80 dB 3:26 02-Embraceable You
DR11 -0.12 dB -12.33 dB 5:18 09-The Way You Look Tonight
––––––––––––––––––––––––––––––––––––––––

Number of tracks: 2
Official DR value: DR12

Samplerate: 44100 Hz
Channels: 2
Bits per sample: 16
Bitrate: 456 kbps
Codec: FLAC
================================================================================


Exact Audio Copy V1.0 beta 3 from 29. August 2011

EAC extraction logfile from 7. June 2012, 17:01

Essential Cool Jazz (AUPCD 125 CD-4) / Then…Chill Jazz

Used drive : Optiarc DVD RW AD-5170A Adapter: 0 ID: 0

Read mode : Secure
Utilize accurate stream : Yes
Defeat audio cache : Yes
Make use of C2 pointers : No

Read offset correction : 48
Overread into Lead-In and Lead-Out : No
Fill up missing offset samples with silence : Yes
Delete leading and trailing silent blocks : No
Null samples used in CRC calculations : Yes
Used interface : Native Win32 interface for Win NT & 2000

Used output format : Internal WAV Routines
Sample format : 44.100 Hz; 16 Bit; Stereo


TOC of the extracted CD

Track | Start | Length | Start sector | End sector
––––––––––––––––––––––––––––-
1 | 0:00.00 | 3:13.61 | 0 | 14535
2 | 3:13.61 | 2:58.03 | 14536 | 27888
3 | 6:11.64 | 3:04.51 | 27889 | 41739
4 | 9:16.40 | 3:19.74 | 41740 | 56738
5 | 12:36.39 | 3:12.24 | 56739 | 71162
6 | 15:48.63 | 4:02.67 | 71163 | 89379
7 | 19:51.55 | 3:45.51 | 89380 | 106305
8 | 23:37.31 | 2:44.58 | 106306 | 118663
9 | 26:22.14 | 3:20.32 | 118664 | 133695
10 | 29:42.46 | 3:01.72 | 133696 | 147342
11 | 32:44.43 | 2:58.50 | 147343 | 160742
12 | 35:43.18 | 2:56.63 | 160743 | 174005
13 | 38:40.06 | 2:45.36 | 174006 | 186416
14 | 41:25.42 | 2:36.11 | 186417 | 198127
15 | 44:01.53 | 3:07.64 | 198128 | 212216
16 | 47:09.42 | 3:02.53 | 212217 | 225919
17 | 50:12.20 | 3:18.70 | 225920 | 240839
18 | 53:31.15 | 3:11.25 | 240840 | 255189


Range status and errors

Selected range

Filename D:\bigggwest\Essential Cool Jazz (AUPCD 125 CD-4) - Then…Chill Jazz.wav

Peak level 97.9 %
Extraction speed 5.2 X
Range quality 100.0 %
Test CRC 9ABBB8B6
Copy CRC 9ABBB8B6
Copy OK

No errors occurred


AccurateRip summary

Track 1 not present in database
Track 2 not present in database
Track 3 not present in database
Track 4 not present in database
Track 5 not present in database
Track 6 not present in database
Track 7 not present in database
Track 8 not present in database
Track 9 not present in database
Track 10 not present in database
Track 11 not present in database
Track 12 not present in database
Track 13 not present in database
Track 14 not present in database
Track 15 not present in database
Track 16 not present in database
Track 17 not present in database
Track 18 not present in database

None of the tracks are present in the AccurateRip database

End of status report

==== Log checksum 25A5FEC3A5F724787003FEA3F4B0B160BC46A2E7628BE5BEC28996CC3831F77B ====

foobar2000 1.2 / Dynamic Range Meter 1.1.1
log date: 2015-07-17 15:45:57

––––––––––––––––––––––––––––––––––––––––
Analyzed: Billie Holiday / Then…Chill Jazz (1)
Charlie Barnet / Then…Chill Jazz (2)
Chick Webb / Then…Chill Jazz (3)
Claude Thornhill / Then…Chill Jazz (4)
––––––––––––––––––––––––––––––––––––––––

DR Peak RMS Duration Track
––––––––––––––––––––––––––––––––––––––––
DR12 -6.66 dB -22.28 dB 2:58 02-Summertime
DR11 -1.34 dB -14.62 dB 3:05 03-Skyliner
DR13 -0.48 dB -17.26 dB 3:20 04-Undecided
DR13 -0.59 dB -17.46 dB 3:08 15-Anthropology
––––––––––––––––––––––––––––––––––––––––

Number of tracks: 4
Official DR value: DR12

Samplerate: 44100 Hz
Channels: 2
Bits per sample: 16
Bitrate: 400 kbps
Codec: FLAC
================================================================================

––––––––––––––––––––––––––––––––––––––––
Statistics for: 08-Groovin' High
Number of samples: 7266504
Duration: 2:45
––––––––––––––––––––––––––––––––––––––––

Left Right

Peak Value: -0.32 dB –- -0.32 dB
Avg RMS: -12.05 dB –- -12.05 dB
DR channel: 9.61 dB –- 9.61 dB
––––––––––––––––––––––––––––––––––––––––

Official DR Value: DR10

Samplerate: 44100 Hz
Channels: 2
Bits per sample: 16
Bitrate: 400 kbps
Codec: FLAC
================================================================================
––––––––––––––––––––––––––––––––––––––––
Analyzed: Eartha Kitt / Then…Chill Jazz (1)
Ella Fitzgerald / Then…Chill Jazz (2)
Gerry Mulligan Quartet / Then…Chill Jazz (3)
––––––––––––––––––––––––––––––––––––––––

DR Peak RMS Duration Track
––––––––––––––––––––––––––––––––––––––––
DR9 -5.30 dB -16.48 dB 3:46 07-Lilac Wine
DR11 -3.70 dB -18.89 dB 2:57 12-Angel Eyes
DR14 -0.22 dB -17.55 dB 3:11 18-Frenesi
––––––––––––––––––––––––––––––––––––––––

Number of tracks: 3
Official DR value: DR12

Samplerate: 44100 Hz
Channels: 2
Bits per sample: 16
Bitrate: 400 kbps
Codec: FLAC
================================================================================

––––––––––––––––––––––––––––––––––––––––
Analyzed: Kay Starr / Then…Chill Jazz (1)
Lester Young / Then…Chill Jazz (2)
––––––––––––––––––––––––––––––––––––––––

DR Peak RMS Duration Track
––––––––––––––––––––––––––––––––––––––––
DR10 -0.18 dB -12.68 dB 3:12 05-Stormy Weather
DR13 -0.43 dB -17.15 dB 3:19 17-Lester Leaps Again
––––––––––––––––––––––––––––––––––––––––

Number of tracks: 2
Official DR value: DR12

Samplerate: 44100 Hz
Channels: 2
Bits per sample: 16
Bitrate: 400 kbps
Codec: FLAC
================================================================================

––––––––––––––––––––––––––––––––––––––––
Statistics for: 06-Panama
Number of samples: 10711596
Duration: 4:03
––––––––––––––––––––––––––––––––––––––––

Left Right

Peak Value: -3.96 dB –- -6.25 dB
Avg RMS: -16.44 dB –- -21.89 dB
DR channel: 10.70 dB –- 13.07 dB
––––––––––––––––––––––––––––––––––––––––

Official DR Value: DR12

Samplerate: 44100 Hz
Channels: 2
Bits per sample: 16
Bitrate: 400 kbps
Codec: FLAC
================================================================================
––––––––––––––––––––––––––––––––––––––––
Analyzed: Miles Davis / Then…Chill Jazz (1)
Nat King Cole Trio / Then…Chill Jazz (2)
Sidney Bechet / Then…Chill Jazz (3)
––––––––––––––––––––––––––––––––––––––––

DR Peak RMS Duration Track
––––––––––––––––––––––––––––––––––––––––
DR12 -0.57 dB -15.28 dB 3:14 01-Venus De Milo
DR11 -4.56 dB -19.13 dB 2:59 11-SMOKE GETS IN YOUR EYE
DR12 -5.36 dB -19.74 dB 2:36 14-Strange Fruit
––––––––––––––––––––––––––––––––––––––––

Number of tracks: 3
Official DR value: DR12

Samplerate: 44100 Hz
Channels: 2
Bits per sample: 16
Bitrate: 400 kbps
Codec: FLAC
================================================================================

––––––––––––––––––––––––––––––––––––––––
Analyzed: Stan Kenton / Then…Chill Jazz (1)
Thelonius Monk / Then…Chill Jazz (2)
Woody Herman / Then…Chill Jazz (3)
––––––––––––––––––––––––––––––––––––––––

DR Peak RMS Duration Track
––––––––––––––––––––––––––––––––––––––––
DR13 -1.52 dB -16.36 dB 3:20 09-Intermission Riff
DR14 -4.96 dB -20.87 dB 3:02 10-Just A Gigolo
DR14 -0.47 dB -18.54 dB 2:45 13-The Sheik Of Araby
––––––––––––––––––––––––––––––––––––––––

Number of tracks: 3
Official DR value: DR13

Samplerate: 44100 Hz
Channels: 2
Bits per sample: 16
Bitrate: 400 kbps
Codec: FLAC
================================================================================
foobar2000 1.2 / Dynamic Range Meter 1.1.1
log date: 2015-07-17 15:45:54

––––––––––––––––––––––––––––––––––––––––
Statistics for: 16-The Thin Man
Number of samples: 8057364
Duration: 3:03
––––––––––––––––––––––––––––––––––––––––

Left Right

Peak Value: -0.80 dB –- -1.14 dB
Avg RMS: -14.97 dB –- -15.30 dB
DR channel: 12.71 dB –- 12.70 dB
––––––––––––––––––––––––––––––––––––––––

Official DR Value: DR13

Samplerate: 44100 Hz
Channels: 2
Bits per sample: 16
Bitrate: 400 kbps
Codec: FLAC
================================================================================

VA - Then... Chill Jazz (2010) 4CD Box Set

All thanks to original releaser - bigggwest

More interesting music in My Blog