Subcategories

VA - Musique Non Stop: A Tribute To Kraftwerk (1998)

Posted By: Designol
VA - Musique Non Stop: A Tribute To Kraftwerk (1998)

VA - Musique Non Stop: A Tribute To Kraftwerk (1998)
EAC | FLAC | Image (Cue&Log) ~ 359 Mb | Mp3 (CBR320) ~ 142 Mb | Scans ~ 101 Mb
Experimental Electronic, Synthpop, Alternative | Toshiba-EMI | # TOCT-10455 | 00:59:08

Japanese release featuring modern eclectic Japanese acts covering the finest that German electronic Pioneers Kraftwerk ever created. Includes Buffalo Daughter doing the legendary 'Autobahn', plus interpretations of 'It's More FunTo Compute' and 'Showroom Dummies'.

Kraftwerk at Allmusic
Kraftwerk at Wiki


Tracklist:

01. Hikashu - The Model (1998 Remix) (03:10)
02. Teruo Nakano - Computer Love (04:10)
03. Buffalo Daughter - Autobahn (07:54)
04. Yasushi Yamashita - Tanzmusik (03:47)
05. Hikashu - Radioactivity (07:11)
06. Melt-Banana - Showroom Dummies (01:31)
07. Kimitaka Matsumae - Atem / Harmonika (03:09)
08. Satoru Wono - Dentaku (Tsukuba Mix) (04:55)
09. Zeni Geva - Sex Object (05:19)
10. Takkyu Ishino - It's More Fun To Compute (Takkyu Ishino Tachno Funk) (07:42)
11. Hajime Fukuma - Musique Non Stop (Re M.N.S.) (05:52)
12. Makoto Inoue - Europe Endless (Including Franz Schubert And Neon Lights) (04:21)


Exact Audio Copy V1.1 from 23. June 2015

EAC extraction logfile from 15. January 2017, 22:57

Various / Musique Non Stop - A Tribute To Kraftwerk

Used drive : TSSTcorpCDDVDW SN-208AB Adapter: 1 ID: 0

Read mode : Secure
Utilize accurate stream : Yes
Defeat audio cache : Yes
Make use of C2 pointers : No

Read offset correction : 6
Overread into Lead-In and Lead-Out : No
Fill up missing offset samples with silence : Yes
Delete leading and trailing silent blocks : No
Null samples used in CRC calculations : Yes
Used interface : Installed external ASPI interface

Used output format : Internal WAV Routines
Sample format : 44.100 Hz; 16 Bit; Stereo


TOC of the extracted CD

Track | Start | Length | Start sector | End sector
––––––––––––––––––––––––––––-
1 | 0:00.00 | 3:10.45 | 0 | 14294
2 | 3:10.45 | 4:10.72 | 14295 | 33116
3 | 7:21.42 | 7:54.58 | 33117 | 68724
4 | 15:16.25 | 3:47.12 | 68725 | 85761
5 | 19:03.37 | 7:11.43 | 85762 | 118129
6 | 26:15.05 | 1:31.70 | 118130 | 125024
7 | 27:47.00 | 3:09.60 | 125025 | 139259
8 | 30:56.60 | 4:55.40 | 139260 | 161424
9 | 35:52.25 | 5:19.65 | 161425 | 185414
10 | 41:12.15 | 7:42.00 | 185415 | 220064
11 | 48:54.15 | 5:52.60 | 220065 | 246524
12 | 54:47.00 | 4:21.32 | 246525 | 266131


Range status and errors

Selected range

Filename D:\torrent-razdacha\Various - Musique Non Stop - A Tribute To Kraftwerk\Various - Musique Non Stop - A Tribute To Kraftwerk.wav

Peak level 100.0 %
Extraction speed 4.1 X
Range quality 99.9 %
Test CRC 4F8F7968
Copy CRC 4F8F7968
Copy OK

No errors occurred


AccurateRip summary

Track 1 not present in database
Track 2 not present in database
Track 3 not present in database
Track 4 not present in database
Track 5 not present in database
Track 6 not present in database
Track 7 not present in database
Track 8 not present in database
Track 9 not present in database
Track 10 not present in database
Track 11 not present in database
Track 12 not present in database

None of the tracks are present in the AccurateRip database

End of status report

–– CUETools DB Plugin V2.1.6

[CTDB TOCID: pBSwVqNSPDBBpXdmvQGh4GbN.hU-] found
Submit result: Время ожидания операции истекло
Track | CTDB Status
1 | (5/5) Accurately ripped
2 | (5/5) Accurately ripped
3 | (5/5) Accurately ripped
4 | (5/5) Accurately ripped
5 | (5/5) Accurately ripped
6 | (5/5) Accurately ripped
7 | (5/5) Accurately ripped
8 | (5/5) Accurately ripped
9 | (5/5) Accurately ripped
10 | (5/5) Accurately ripped
11 | (5/5) Accurately ripped
12 | (5/5) Accurately ripped


==== Log checksum 5A34E01C73A452A858A333C0181D6716ABD8E378A237B30755FC5B68CB42AD2B ====

foobar2000 1.2 / Dynamic Range Meter 1.1.1
log date: 2017-02-17 22:10:31

––––––––––––––––––––––––––––––––––––––––
Analyzed: Buffalo Daughter / Musique Non Stop - A Tribute To Kraftwerk (1)
Hajime Fukuma / Musique Non Stop - A Tribute To Kraftwerk (2)
––––––––––––––––––––––––––––––––––––––––

DR Peak RMS Duration Track
––––––––––––––––––––––––––––––––––––––––
DR9 0.00 dB -11.81 dB 7:55 03-Autobahn
DR9 -0.81 dB -11.31 dB 5:53 11-Musique Non Stop (Re M.N.S.)
––––––––––––––––––––––––––––––––––––––––

Number of tracks: 2
Official DR value: DR9

Samplerate: 44100 Hz
Channels: 2
Bits per sample: 16
Bitrate: 809 kbps
Codec: FLAC
================================================================================

––––––––––––––––––––––––––––––––––––––––
Analyzed: Hikashu / Musique Non Stop - A Tribute To Kraftwerk (1-2)
Kimitaka Matsumae / Musique Non Stop - A Tribute To Kraftwerk (3)
Makoto Inoue (2) / Musique Non Stop - A Tribute To Kraftwerk (4)
––––––––––––––––––––––––––––––––––––––––

DR Peak RMS Duration Track
––––––––––––––––––––––––––––––––––––––––
DR12 0.00 dB -13.62 dB 3:11 01-The Model (1998 Remix)
DR9 0.00 dB -11.35 dB 7:12 05-Radioactivity
DR10 0.00 dB -13.80 dB 3:10 07-Atem / Harmonika
DR12 0.00 dB -16.80 dB 4:21 12-Europe Endless (Including Franz Schubert And Neon Lights)
––––––––––––––––––––––––––––––––––––––––

Number of tracks: 4
Official DR value: DR11

Samplerate: 44100 Hz
Channels: 2
Bits per sample: 16
Bitrate: 809 kbps
Codec: FLAC
================================================================================

––––––––––––––––––––––––––––––––––––––––
Analyzed: Melt-Banana / Musique Non Stop - A Tribute To Kraftwerk (1)
Satoru Wono / Musique Non Stop - A Tribute To Kraftwerk (2)
Takkyu Ishino / Musique Non Stop - A Tribute To Kraftwerk (3)
––––––––––––––––––––––––––––––––––––––––

DR Peak RMS Duration Track
––––––––––––––––––––––––––––––––––––––––
DR7 0.00 dB -8.53 dB 1:32 06-Showroom Dummies
DR12 0.00 dB -12.66 dB 4:56 08-Dentaku (Tsukuba Mix)
DR6 0.00 dB -7.63 dB 7:42 10-It's More Fun To Compute (Takkyu Ishino Tachno Funk)
––––––––––––––––––––––––––––––––––––––––

Number of tracks: 3
Official DR value: DR8

Samplerate: 44100 Hz
Channels: 2
Bits per sample: 16
Bitrate: 809 kbps
Codec: FLAC
================================================================================

––––––––––––––––––––––––––––––––––––––––
Analyzed: Teruo Nakano / Musique Non Stop - A Tribute To Kraftwerk (1)
Yasushi Yamashita / Musique Non Stop - A Tribute To Kraftwerk (2)
Zeni Geva / Musique Non Stop - A Tribute To Kraftwerk (3)
––––––––––––––––––––––––––––––––––––––––

DR Peak RMS Duration Track
––––––––––––––––––––––––––––––––––––––––
DR11 0.00 dB -13.93 dB 4:11 02-Computer Love
DR11 -3.79 dB -17.37 dB 3:47 04-Tanzmusik
DR7 0.00 dB -10.98 dB 5:20 09-Sex Object
––––––––––––––––––––––––––––––––––––––––

Number of tracks: 3
Official DR value: DR10

Samplerate: 44100 Hz
Channels: 2
Bits per sample: 16
Bitrate: 809 kbps
Codec: FLAC
================================================================================

VA - Musique Non Stop: A Tribute To Kraftwerk (1998)

All thanks to original releaser - allerseelen

More interesting music in My Blog