Subcategories

VA - Pure... Singer/Songwriter (2011) 4CD Box Set [Re-Up]

Posted By: Designol
VA - Pure... Singer/Songwriter (2011) 4CD Box Set [Re-Up]

VA - Pure… Singer/Songwriter (2011) 4CD Box Set
EAC | FLAC | Image (Cue&Log) ~ 1.49 Gb | Mp3 (CBR320) ~ 553 Mb
Label: Sony Music | # 886979629028 | Time: 04:01:35 | Scans ~ 22 Mb
Singer/Songwriter, Folk, Rock, Country, Pop, Blues

Pure… Singer/Songwriter is a brave album that showcases strong song writing, sometimes by avoiding the artists most prominent work in lieu of a lesser known piece. Simon & Garfunkel, John Denver, Lou Reed, Bob Marley, Van Morrison, George Michael and Bruce Hornsby are all represented by one of their better known tracks. However, Bowie, Hall & Oates, Alicia Keys, Nillson and even Sarah Bareilles are represented but obscure tracks. As well as the well known artists this compilation also goes back to includes lesser known artists from the 60s and 70s such as Colin Blunstone, Laura Nyro and Phoebe Snow.

VA - Pure... Singer/Songwriter (2011) 4CD Box Set [Re-Up]


Tracklist:

CD1:

01. Bob Dylan - It's All Over Now, Baby Blue (04:16)
02. Simon & Garfunkel - Bridge Over Troubled Water (04:52)
03. John Denver - Leaving On A Jet Plane (03:38)
04. Lou Reed - Satellite Of Love (03:40)
05. Albert Hammond - The Air That I Breathe (03:49)
06. Bill Withers - Lean On Me (04:18)
07. Dolly Parton - I Will Allways Love You (02:55)
08. Eric Andersen - Blue River (04:46)
09. Loudon Wainwright - Dead Skunk (03:07)
10. Kenny Loggins - I'm Allright (Theme from ''Caddyshack'') (03:47)
11. Jackie DeShannon - Bette Davis Eyes (02:46)
12. Laura Nyro - Wedding Bell Blues (02:54)
13. Dave Mason - We Just Disagree (03:01)
14. The Sutherland Brothers - Arms Of Mary (02:37)
15. Ray LaMontagne And The Periah Dogs - Big Steal Or Borrow (04:33)
16. Jeff Buckley - Last Goodbye (04:35)

CD2:

01. David Bowie - Seven (04:06)
02. Patti Smith Group - Frederick (03:03)
03. Daryl Hall & John Oates - Sara Smile (03:08)
04. Marvin Gaye - Stranger In My Life (03:42)
05. Nina Simone - To Be Young, Gifted And Black (02:51)
06. Bob Marley & The Wailers - One Love (03:23)
07. Harry Nilsson - Coconut (03:51)
08. Al Kooper - You Never Know Who Your Friends Are (02:54)
09. Melanie - Look What They've Done To My Song, Ma (04:04)
10. Karla Bonoff - Personally (03:36)
11. Joan Baez - Here's To You (02:28)
12. J.J. Cale - Low Rider (02:44)
13. Roger Whittaker - The Best I Can (03:44)
14. Waylon Jennings - Anita, You're Dreaming (02:26)
15. Kris Kristofferson - Sunday Morning Comin' Down (04:32)
16. Johnny Cash - Man In Black (02:53)

CD3:

01. Van Morrison - Brown Eyed Girl (03:05)
02. Willie Nelson - On The Road Again (02:35)
03. Zager And Evans - In the Year 2525 (Exordium & Terminus) (03:16)
04. Scott McKenzie - San Francisco (Be Sure To Wear Flowers In Your Hair) (03:00)
05. Pete Seeger - We Shall Overcome (Live) (04:41)
06. Michael Nesmith - Different Drum (03:02)
07. Delaney & Bonnie And Friends - Groupie (Superstar) (02:49)
08. Eric Carmen - All By Myself (04:32)
09. Barry Manilow - Could It Be Magic (04:17)
10. Colin Blunstone - Caroline Goodbye (02:55)
11. Dan Fogelberg - Longer (03:17)
12. Phoebe Snow - Two Fisted Love (04:07)
13. Tim Hardin - Hoboin (03:26)
14. Stevie Ray Vaughan - Life Without You (04:17)
15. Johnny Winter - I'm Yours And I'm Hers (04:31)
16. Ian Hunter - Once Bitten, Twice Shy (04:45)

CD4:

01. George Michael - Father Figure (05:42)
02. Isley Jasper Isley - Caravan Of Love (05:42)
03. Terence Trent D'Arby - Wishing Well (03:32)
04. Sade - The Sweetest Taboo (04:26)
05. Bruce Hornsby & The Range - The Way It Is (03:58)
06. J.D. Souther - You're Only Lonely (03:44)
07. Mary Chapin Carpenter - Stones In The Road (04:32)
08. Shawn Colvin - Sunny Came Home (04:25)
09. Beth Orton - She Cries Your Name (04:47)
10. Mads Langer - Microscope (03:01)
11. Pete Yorn - Strange Condition (03:57)
12. Sara Bareilles - King Of Anything (03:30)
13. Dido - White Flag (03:37)
14. Paloma Faith - Do You Want The Truth Or Something Beautiful? (04:36)
15. P!nk - Family Portrait (04:58)
16. Alicia Keys - A Woman's Worth (05:05)


Exact Audio Copy V1.0 beta 3 from 29. August 2011

EAC extraction logfile from 23. January 2014, 19:26

Various Artists / Pure Singer/songwriter

Used drive : PIONEER BD-RW BDR-206 Adapter: 3 ID: 0

Read mode : Secure
Utilize accurate stream : Yes
Defeat audio cache : Yes
Make use of C2 pointers : No

Read offset correction : 667
Overread into Lead-In and Lead-Out : No
Fill up missing offset samples with silence : Yes
Delete leading and trailing silent blocks : No
Null samples used in CRC calculations : Yes
Used interface : Native Win32 interface for Win NT & 2000

Used output format : User Defined Encoder
Selected bitrate : 1024 kBit/s
Quality : High
Add ID3 tag : Yes
Command line compressor : C:\Program Files\Exact Audio Copy\FLAC\FLAC.EXE
Additional command line options : -6 -V -T "ARTIST=%artist%" -T "TITLE=%title%" -T "ALBUM=%albumtitle%" -T "DATE=%year%" -T "TRACKNUMBER=%tracknr%" -T "GENRE=%genre%" -T "COMMENT=%comment%" -T "BAND=%albuminterpret%" -T "ALBUMARTIST=%albuminterpret%" -T "COMPOSER=%composer%" %haslyrics%–tag-from-file=LYRICS="%lyricsfile%"%haslyrics% -T "DISCNUMBER=%cdnumber%" -T "TOTALDISCS=%totalcds%" -T "TOTALTRACKS=%numtracks%" %hascover%–picture="%coverfile%"%hascover% %source% -o %dest%


TOC of the extracted CD

Track | Start | Length | Start sector | End sector
––––––––––––––––––––––––––––-
1 | 0:00.00 | 4:16.57 | 0 | 19256
2 | 4:16.57 | 4:52.65 | 19257 | 41221
3 | 9:09.47 | 3:38.54 | 41222 | 57625
4 | 12:48.26 | 3:40.49 | 57626 | 74174
5 | 16:29.00 | 3:49.11 | 74175 | 91360
6 | 20:18.11 | 4:18.20 | 91361 | 110730
7 | 24:36.31 | 2:55.06 | 110731 | 123861
8 | 27:31.37 | 4:46.35 | 123862 | 145346
9 | 32:17.72 | 3:07.15 | 145347 | 159386
10 | 35:25.12 | 3:47.00 | 159387 | 176411
11 | 39:12.12 | 2:46.56 | 176412 | 188917
12 | 41:58.68 | 2:54.57 | 188918 | 202024
13 | 44:53.50 | 3:01.58 | 202025 | 215657
14 | 47:55.33 | 2:37.13 | 215658 | 227445
15 | 50:32.46 | 4:33.46 | 227446 | 247966
16 | 55:06.17 | 4:35.05 | 247967 | 268596


Range status and errors

Selected range

Filename D:\Сборники (Flac)\VA - Pure Singer songwriter\CD1\Various Artists - Pure Singer,songwriter.wav

Peak level 98.8 %
Extraction speed 7.5 X
Range quality 99.9 %
Test CRC 91931CCA
Copy CRC 91931CCA
Copy OK

No errors occurred


AccurateRip summary

Track 1 cannot be verified as accurate (confidence 4) [9B71C9CF], AccurateRip returned [B23126A1] (AR v2)
Track 2 cannot be verified as accurate (confidence 4) [ED3DC652], AccurateRip returned [EDC059C5] (AR v2)
Track 3 cannot be verified as accurate (confidence 4) [B46A86C5], AccurateRip returned [31EEC76E] (AR v2)
Track 4 cannot be verified as accurate (confidence 4) [580121E7], AccurateRip returned [A484CE84] (AR v2)
Track 5 cannot be verified as accurate (confidence 4) [172E8F9E], AccurateRip returned [50C39365] (AR v2)
Track 6 cannot be verified as accurate (confidence 4) [478399C1], AccurateRip returned [E1153A42] (AR v2)
Track 7 cannot be verified as accurate (confidence 4) [AEA277AA], AccurateRip returned [752A2EB1] (AR v2)
Track 8 cannot be verified as accurate (confidence 4) [761CE2C8], AccurateRip returned [3D70B801] (AR v2)
Track 9 cannot be verified as accurate (confidence 4) [D03504C7], AccurateRip returned [07EA832C] (AR v2)
Track 10 cannot be verified as accurate (confidence 4) [73ED3009], AccurateRip returned [BE831C29] (AR v2)
Track 11 cannot be verified as accurate (confidence 4) [F4781385], AccurateRip returned [ACD0E0E0] (AR v2)
Track 12 cannot be verified as accurate (confidence 4) [50B6444A], AccurateRip returned [4D69B560] (AR v2)
Track 13 cannot be verified as accurate (confidence 4) [09C9F42F], AccurateRip returned [D565309B] (AR v2)
Track 14 cannot be verified as accurate (confidence 4) [52A2F9DE], AccurateRip returned [6EF436C7] (AR v2)
Track 15 cannot be verified as accurate (confidence 5) [AF69A9EA], AccurateRip returned [BAA74C7A] (AR v2)
Track 16 cannot be verified as accurate (confidence 5) [00FA27F2], AccurateRip returned [4E4C04EE] (AR v2)

No tracks could be verified as accurate
You may have a different pressing from the one(s) in the database

End of status report

==== Log checksum 08CF1B8C9C94C5E530A10934095CAEA2E1BD518456F8BED7C7DC060CD234876F ====

foobar2000 1.2 / Dynamic Range Meter 1.1.1
log date: 2015-11-02 21:22:13

––––––––––––––––––––––––––––––––––––––––
Analyzed: Albert Hammond / Pure… Singer-Songwriter (CD1) (1)
Bill Withers / Pure… Singer-Songwriter (CD1) (2)
––––––––––––––––––––––––––––––––––––––––

DR Peak RMS Duration Track
––––––––––––––––––––––––––––––––––––––––
DR9 -0.10 dB -13.53 dB 3:49 05-The Air That I Breathe
DR11 -0.10 dB -13.51 dB 4:18 06-Lean On Me
––––––––––––––––––––––––––––––––––––––––

Number of tracks: 2
Official DR value: DR10

Samplerate: 44100 Hz
Channels: 2
Bits per sample: 16
Bitrate: 869 kbps
Codec: FLAC
================================================================================

––––––––––––––––––––––––––––––––––––––––
Analyzed: Bob Dylan / Pure… Singer-Songwriter (CD1) (1)
Dave Mason / Pure… Singer-Songwriter (CD1) (2)
––––––––––––––––––––––––––––––––––––––––

DR Peak RMS Duration Track
––––––––––––––––––––––––––––––––––––––––
DR9 -1.54 dB -13.91 dB 4:17 01-It's All Over Now, Baby Blue
DR9 -0.10 dB -11.90 dB 3:02 13-We Just Disagree
––––––––––––––––––––––––––––––––––––––––

Number of tracks: 2
Official DR value: DR9

Samplerate: 44100 Hz
Channels: 2
Bits per sample: 16
Bitrate: 869 kbps
Codec: FLAC
================================================================================

––––––––––––––––––––––––––––––––––––––––
Analyzed: Dolly Parton / Pure… Singer-Songwriter (CD1) (1)
Eric Andersen / Pure… Singer-Songwriter (CD1) (2)
Jackie DeShannon / Pure… Singer-Songwriter (CD1) (3)
Jeff Buckley / Pure… Singer-Songwriter (CD1) (4)
––––––––––––––––––––––––––––––––––––––––

DR Peak RMS Duration Track
––––––––––––––––––––––––––––––––––––––––
DR10 -0.10 dB -13.55 dB 2:55 07-I Will Allways Love You
DR10 -0.10 dB -13.17 dB 4:46 08-Blue River
DR10 -0.10 dB -11.66 dB 2:47 11-Bette Davis Eyes
DR8 -0.10 dB -10.13 dB 4:35 16-Last Goodbye
––––––––––––––––––––––––––––––––––––––––

Number of tracks: 4
Official DR value: DR9

Samplerate: 44100 Hz
Channels: 2
Bits per sample: 16
Bitrate: 869 kbps
Codec: FLAC
================================================================================

––––––––––––––––––––––––––––––––––––––––
Analyzed: John Denver / Pure… Singer-Songwriter (CD1) (1)
Kenny Loggins / Pure… Singer-Songwriter (CD1) (2)
Laura Nyro / Pure… Singer-Songwriter (CD1) (3)
––––––––––––––––––––––––––––––––––––––––

DR Peak RMS Duration Track
––––––––––––––––––––––––––––––––––––––––
DR12 -0.10 dB -15.12 dB 3:39 03-Leaving On A Jet Plane
DR8 -0.81 dB -11.51 dB 3:47 10-I'm Allright (Theme from ''Caddyshack'')
DR9 -0.10 dB -10.79 dB 2:55 12-Wedding Bell Blues
––––––––––––––––––––––––––––––––––––––––

Number of tracks: 3
Official DR value: DR10

Samplerate: 44100 Hz
Channels: 2
Bits per sample: 16
Bitrate: 869 kbps
Codec: FLAC
================================================================================

––––––––––––––––––––––––––––––––––––––––
Analyzed: Lou Reed / Pure… Singer-Songwriter (CD1) (1)
Loudon Wainwright / Pure… Singer-Songwriter (CD1) (2)
Ray LaMontagne And The Periah Dogs / Pure… Singer-Songwriter (CD1) (3)
––––––––––––––––––––––––––––––––––––––––

DR Peak RMS Duration Track
––––––––––––––––––––––––––––––––––––––––
DR9 -0.10 dB -12.77 dB 3:41 04-Satellite Of Love
DR9 -0.10 dB -10.88 dB 3:07 09-Dead Skunk
DR7 -2.17 dB -10.50 dB 4:34 15-Big Steal Or Borrow
––––––––––––––––––––––––––––––––––––––––

Number of tracks: 3
Official DR value: DR8

Samplerate: 44100 Hz
Channels: 2
Bits per sample: 16
Bitrate: 869 kbps
Codec: FLAC
================================================================================

––––––––––––––––––––––––––––––––––––––––
Analyzed: Simon & Garfunkel / Pure… Singer-Songwriter (CD1) (1)
The Sutherland Brothers / Pure… Singer-Songwriter (CD1) (2)
––––––––––––––––––––––––––––––––––––––––

DR Peak RMS Duration Track
––––––––––––––––––––––––––––––––––––––––
DR9 -1.02 dB -15.96 dB 4:53 02-Bridge Over Troubled Water
DR10 -0.10 dB -11.85 dB 2:37 14-Arms Of Mary
––––––––––––––––––––––––––––––––––––––––

Number of tracks: 2
Official DR value: DR10

Samplerate: 44100 Hz
Channels: 2
Bits per sample: 16
Bitrate: 869 kbps
Codec: FLAC
================================================================================


Exact Audio Copy V1.0 beta 3 from 29. August 2011

EAC extraction logfile from 23. January 2014, 22:03

Various Artists / Pure… Singer Songwriters CD2

Used drive : PIONEER BD-RW BDR-206 Adapter: 3 ID: 0

Read mode : Secure
Utilize accurate stream : Yes
Defeat audio cache : Yes
Make use of C2 pointers : No

Read offset correction : 667
Overread into Lead-In and Lead-Out : No
Fill up missing offset samples with silence : Yes
Delete leading and trailing silent blocks : No
Null samples used in CRC calculations : Yes
Used interface : Native Win32 interface for Win NT & 2000

Used output format : User Defined Encoder
Selected bitrate : 1024 kBit/s
Quality : High
Add ID3 tag : Yes
Command line compressor : C:\Program Files\Exact Audio Copy\FLAC\FLAC.EXE
Additional command line options : -6 -V -T "ARTIST=%artist%" -T "TITLE=%title%" -T "ALBUM=%albumtitle%" -T "DATE=%year%" -T "TRACKNUMBER=%tracknr%" -T "GENRE=%genre%" -T "COMMENT=%comment%" -T "BAND=%albuminterpret%" -T "ALBUMARTIST=%albuminterpret%" -T "COMPOSER=%composer%" %haslyrics%–tag-from-file=LYRICS="%lyricsfile%"%haslyrics% -T "DISCNUMBER=%cdnumber%" -T "TOTALDISCS=%totalcds%" -T "TOTALTRACKS=%numtracks%" %hascover%–picture="%coverfile%"%hascover% %source% -o %dest%


TOC of the extracted CD

Track | Start | Length | Start sector | End sector
––––––––––––––––––––––––––––-
1 | 0:00.00 | 4:06.61 | 0 | 18510
2 | 4:06.61 | 3:03.63 | 18511 | 32298
3 | 7:10.49 | 3:08.18 | 32299 | 46416
4 | 10:18.67 | 3:42.47 | 46417 | 63113
5 | 14:01.39 | 2:51.03 | 63114 | 75941
6 | 16:52.42 | 3:23.63 | 75942 | 91229
7 | 20:16.30 | 3:51.44 | 91230 | 108598
8 | 24:07.74 | 2:54.45 | 108599 | 121693
9 | 27:02.44 | 4:04.26 | 121694 | 140019
10 | 31:06.70 | 3:36.44 | 140020 | 156263
11 | 34:43.39 | 2:28.03 | 156264 | 167366
12 | 37:11.42 | 2:44.58 | 167367 | 179724
13 | 39:56.25 | 3:44.70 | 179725 | 196594
14 | 43:41.20 | 2:26.53 | 196595 | 207597
15 | 46:07.73 | 4:32.26 | 207598 | 228023
16 | 50:40.24 | 2:53.18 | 228024 | 241016


Range status and errors

Selected range

Filename D:\Сборники (Flac)\VA - Pure Singer songwriter\CD2\Various Artists - Pure… Singer Songwriters CD2.wav

Peak level 98.8 %
Extraction speed 7.4 X
Range quality 100.0 %
Test CRC 9368F1E5
Copy CRC 9368F1E5
Copy OK

No errors occurred


AccurateRip summary

Track 1 cannot be verified as accurate (confidence 5) [3A81D238], AccurateRip returned [44679110] (AR v2)
Track 2 cannot be verified as accurate (confidence 5) [62553823], AccurateRip returned [87ED7605] (AR v2)
Track 3 cannot be verified as accurate (confidence 5) [B24F3ECC], AccurateRip returned [8EADF70E] (AR v2)
Track 4 cannot be verified as accurate (confidence 5) [273E19FE], AccurateRip returned [A6C5EB24] (AR v2)
Track 5 cannot be verified as accurate (confidence 5) [A992635D], AccurateRip returned [0F3990F1] (AR v2)
Track 6 cannot be verified as accurate (confidence 5) [D00E39EF], AccurateRip returned [DF060BF5] (AR v2)
Track 7 cannot be verified as accurate (confidence 5) [41379488], AccurateRip returned [4430FE52] (AR v2)
Track 8 cannot be verified as accurate (confidence 5) [3D7EFEAC], AccurateRip returned [0E1CAD4A] (AR v2)
Track 9 cannot be verified as accurate (confidence 5) [B8E76B86], AccurateRip returned [53C3114D] (AR v2)
Track 10 cannot be verified as accurate (confidence 5) [23A9149A], AccurateRip returned [49EC613A] (AR v2)
Track 11 cannot be verified as accurate (confidence 5) [DEED0047], AccurateRip returned [04CB1FF3] (AR v2)
Track 12 cannot be verified as accurate (confidence 5) [D833A8C7], AccurateRip returned [877890E2] (AR v2)
Track 13 cannot be verified as accurate (confidence 5) [93DC130A], AccurateRip returned [693A6E7F] (AR v2)
Track 14 cannot be verified as accurate (confidence 5) [8BC13E32], AccurateRip returned [1BFCC94A] (AR v2)
Track 15 cannot be verified as accurate (confidence 5) [EFFD5C4A], AccurateRip returned [1B71C1FF] (AR v2)
Track 16 cannot be verified as accurate (confidence 5) [C8C07E3F], AccurateRip returned [73B438B0] (AR v2)

No tracks could be verified as accurate
You may have a different pressing from the one(s) in the database

End of status report

==== Log checksum 80651A2946B917C8EED0F3BAB45E4D0C7B7F4F422120A86FC6C5654EA1B1E8DA ====

foobar2000 1.2 / Dynamic Range Meter 1.1.1
log date: 2015-11-02 21:22:30

––––––––––––––––––––––––––––––––––––––––
Statistics for: 06-One Love
Number of samples: 8989344
Duration: 3:24
––––––––––––––––––––––––––––––––––––––––

Left Right

Peak Value: -0.10 dB –- -0.10 dB
Avg RMS: -9.04 dB –- -10.09 dB
DR channel: 7.99 dB –- 9.06 dB
––––––––––––––––––––––––––––––––––––––––

Official DR Value: DR9

Samplerate: 44100 Hz
Channels: 2
Bits per sample: 16
Bitrate: 853 kbps
Codec: FLAC
================================================================================
––––––––––––––––––––––––––––––––––––––––
Statistics for: 03-Sara Smile
Number of samples: 8301384
Duration: 3:08
––––––––––––––––––––––––––––––––––––––––

Left Right

Peak Value: -0.13 dB –- -0.11 dB
Avg RMS: -13.67 dB –- -13.54 dB
DR channel: 11.64 dB –- 11.51 dB
––––––––––––––––––––––––––––––––––––––––

Official DR Value: DR12

Samplerate: 44100 Hz
Channels: 2
Bits per sample: 16
Bitrate: 853 kbps
Codec: FLAC
================================================================================
––––––––––––––––––––––––––––––––––––––––
Analyzed: David Bowie / Pure… Singer-Songwriter (CD2) (1)
Harry Nilsson / Pure… Singer-Songwriter (CD2) (2)
J.J. Cale / Pure… Singer-Songwriter (CD2) (3)
––––––––––––––––––––––––––––––––––––––––

DR Peak RMS Duration Track
––––––––––––––––––––––––––––––––––––––––
DR9 -1.00 dB -11.81 dB 4:07 01-Seven
DR10 -0.10 dB -12.52 dB 3:52 07-Coconut
DR10 -1.60 dB -13.26 dB 2:45 12-Low Rider
––––––––––––––––––––––––––––––––––––––––

Number of tracks: 3
Official DR value: DR10

Samplerate: 44100 Hz
Channels: 2
Bits per sample: 16
Bitrate: 853 kbps
Codec: FLAC
================================================================================

––––––––––––––––––––––––––––––––––––––––
Analyzed: Joan Baez / Pure… Singer-Songwriter (CD2) (1)
Johnny Cash / Pure… Singer-Songwriter (CD2) (2)
––––––––––––––––––––––––––––––––––––––––

DR Peak RMS Duration Track
––––––––––––––––––––––––––––––––––––––––
DR11 -0.10 dB -14.70 dB 2:28 11-Here's To You
DR11 -0.85 dB -12.86 dB 2:53 16-Man In Black
––––––––––––––––––––––––––––––––––––––––

Number of tracks: 2
Official DR value: DR11

Samplerate: 44100 Hz
Channels: 2
Bits per sample: 16
Bitrate: 853 kbps
Codec: FLAC
================================================================================

––––––––––––––––––––––––––––––––––––––––
Analyzed: Karla Bonoff / Pure… Singer-Songwriter (CD2) (1)
Kris Kristofferson / Pure… Singer-Songwriter (CD2) (2)
––––––––––––––––––––––––––––––––––––––––

DR Peak RMS Duration Track
––––––––––––––––––––––––––––––––––––––––
DR10 -1.60 dB -13.35 dB 3:37 10-Personally
DR10 -0.10 dB -13.07 dB 4:32 15-Sunday Morning Comin' Down
––––––––––––––––––––––––––––––––––––––––

Number of tracks: 2
Official DR value: DR10

Samplerate: 44100 Hz
Channels: 2
Bits per sample: 16
Bitrate: 853 kbps
Codec: FLAC
================================================================================

––––––––––––––––––––––––––––––––––––––––
Analyzed: Marvin Gaye / Pure… Singer-Songwriter (CD2) (1)
Melanie / Pure… Singer-Songwriter (CD2) (2)
––––––––––––––––––––––––––––––––––––––––

DR Peak RMS Duration Track
––––––––––––––––––––––––––––––––––––––––
DR10 -1.08 dB -13.30 dB 3:43 04-Stranger In My Life
DR10 -1.44 dB -14.09 dB 4:04 09-Look What They've Done To My Song, Ma
––––––––––––––––––––––––––––––––––––––––

Number of tracks: 2
Official DR value: DR10

Samplerate: 44100 Hz
Channels: 2
Bits per sample: 16
Bitrate: 853 kbps
Codec: FLAC
================================================================================

––––––––––––––––––––––––––––––––––––––––
Statistics for: 05-To Be Young, Gifted And Black
Number of samples: 7542864
Duration: 2:51
––––––––––––––––––––––––––––––––––––––––

Left Right

Peak Value: -1.53 dB –- -1.62 dB
Avg RMS: -11.77 dB –- -11.03 dB
DR channel: 7.92 dB –- 7.41 dB
––––––––––––––––––––––––––––––––––––––––

Official DR Value: DR8

Samplerate: 44100 Hz
Channels: 2
Bits per sample: 16
Bitrate: 853 kbps
Codec: FLAC
================================================================================
––––––––––––––––––––––––––––––––––––––––
Analyzed: Patti Smith Group / Pure… Singer-Songwriter (CD2) (1)
Roger Whittaker / Pure… Singer-Songwriter (CD2) (2)
Waylon Jennings / Pure… Singer-Songwriter (CD2) (3)
––––––––––––––––––––––––––––––––––––––––

DR Peak RMS Duration Track
––––––––––––––––––––––––––––––––––––––––
DR7 -1.60 dB -9.93 dB 3:04 02-Frederick
DR9 -1.60 dB -12.59 dB 3:45 13-The Best I Can
DR9 -0.10 dB -11.37 dB 2:27 14-Anita, You're Dreaming
––––––––––––––––––––––––––––––––––––––––

Number of tracks: 3
Official DR value: DR9

Samplerate: 44100 Hz
Channels: 2
Bits per sample: 16
Bitrate: 853 kbps
Codec: FLAC
================================================================================
foobar2000 1.2 / Dynamic Range Meter 1.1.1
log date: 2015-11-02 21:22:29

––––––––––––––––––––––––––––––––––––––––
Statistics for: 08-You Never Know Who Your Friends Are
Number of samples: 7699860
Duration: 2:55
––––––––––––––––––––––––––––––––––––––––

Left Right

Peak Value: -1.48 dB –- -1.59 dB
Avg RMS: -12.14 dB –- -12.34 dB
DR channel: 8.30 dB –- 8.76 dB
––––––––––––––––––––––––––––––––––––––––

Official DR Value: DR9

Samplerate: 44100 Hz
Channels: 2
Bits per sample: 16
Bitrate: 853 kbps
Codec: FLAC
================================================================================


Exact Audio Copy V1.0 beta 3 from 29. August 2011

EAC extraction logfile from 23. January 2014, 22:35

Various Artists / Pure… Singer Songwriters CD3

Used drive : PIONEER BD-RW BDR-206 Adapter: 3 ID: 0

Read mode : Secure
Utilize accurate stream : Yes
Defeat audio cache : Yes
Make use of C2 pointers : No

Read offset correction : 667
Overread into Lead-In and Lead-Out : No
Fill up missing offset samples with silence : Yes
Delete leading and trailing silent blocks : No
Null samples used in CRC calculations : Yes
Used interface : Native Win32 interface for Win NT & 2000

Used output format : User Defined Encoder
Selected bitrate : 1024 kBit/s
Quality : High
Add ID3 tag : Yes
Command line compressor : C:\Program Files\Exact Audio Copy\FLAC\FLAC.EXE
Additional command line options : -6 -V -T "ARTIST=%artist%" -T "TITLE=%title%" -T "ALBUM=%albumtitle%" -T "DATE=%year%" -T "TRACKNUMBER=%tracknr%" -T "GENRE=%genre%" -T "COMMENT=%comment%" -T "BAND=%albuminterpret%" -T "ALBUMARTIST=%albuminterpret%" -T "COMPOSER=%composer%" %haslyrics%–tag-from-file=LYRICS="%lyricsfile%"%haslyrics% -T "DISCNUMBER=%cdnumber%" -T "TOTALDISCS=%totalcds%" -T "TOTALTRACKS=%numtracks%" %hascover%–picture="%coverfile%"%hascover% %source% -o %dest%


TOC of the extracted CD

Track | Start | Length | Start sector | End sector
––––––––––––––––––––––––––––-
1 | 0:00.00 | 3:05.66 | 0 | 13940
2 | 3:05.66 | 2:35.14 | 13941 | 25579
3 | 5:41.05 | 3:16.18 | 25580 | 40297
4 | 8:57.23 | 3:00.20 | 40298 | 53817
5 | 11:57.43 | 4:41.37 | 53818 | 74929
6 | 16:39.05 | 3:02.01 | 74930 | 88580
7 | 19:41.06 | 2:49.73 | 88581 | 101328
8 | 22:31.04 | 4:32.29 | 101329 | 121757
9 | 27:03.33 | 4:17.37 | 121758 | 141069
10 | 31:20.70 | 2:55.53 | 141070 | 154247
11 | 34:16.48 | 3:17.03 | 154248 | 169025
12 | 37:33.51 | 4:07.58 | 169026 | 187608
13 | 41:41.34 | 3:26.46 | 187609 | 203104
14 | 45:08.05 | 4:17.52 | 203105 | 222431
15 | 49:25.57 | 4:31.12 | 222432 | 242768
16 | 53:56.69 | 4:45.03 | 242769 | 264146


Range status and errors

Selected range

Filename D:\Сборники (Flac)\VA - Pure Singer songwriter\CD3\Various Artists - Pure… Singer Songwriters CD3.wav

Peak level 98.8 %
Extraction speed 7.5 X
Range quality 100.0 %
Test CRC 48B67FCA
Copy CRC 48B67FCA
Copy OK

No errors occurred


AccurateRip summary

Track 1 cannot be verified as accurate (confidence 5) [F8DB5887], AccurateRip returned [0821974F] (AR v2)
Track 2 cannot be verified as accurate (confidence 5) [AFAF1C44], AccurateRip returned [AE31B48E] (AR v2)
Track 3 cannot be verified as accurate (confidence 5) [BCDB707D], AccurateRip returned [5D46C04A] (AR v2)
Track 4 cannot be verified as accurate (confidence 5) [33C38050], AccurateRip returned [173EFBD4] (AR v2)
Track 5 cannot be verified as accurate (confidence 5) [F7BB6621], AccurateRip returned [B6D6EC1C] (AR v2)
Track 6 cannot be verified as accurate (confidence 5) [3459C4FF], AccurateRip returned [FAB5A1F3] (AR v2)
Track 7 cannot be verified as accurate (confidence 5) [ED5023CE], AccurateRip returned [CBE2067F] (AR v2)
Track 8 cannot be verified as accurate (confidence 5) [C40B00C0], AccurateRip returned [136520DB] (AR v2)
Track 9 cannot be verified as accurate (confidence 5) [9C91D95A], AccurateRip returned [A76896D9] (AR v2)
Track 10 cannot be verified as accurate (confidence 5) [D496FE4A], AccurateRip returned [AEE5F90F] (AR v2)
Track 11 cannot be verified as accurate (confidence 5) [767BD079], AccurateRip returned [3D932542] (AR v2)
Track 12 cannot be verified as accurate (confidence 5) [7F29B3C7], AccurateRip returned [B3FBE48D] (AR v2)
Track 13 cannot be verified as accurate (confidence 5) [1EC9BE4B], AccurateRip returned [6AC749FD] (AR v2)
Track 14 cannot be verified as accurate (confidence 5) [C981CA8F], AccurateRip returned [B5CA2E3E] (AR v2)
Track 15 cannot be verified as accurate (confidence 5) [7D6FE2AD], AccurateRip returned [8B4EC394] (AR v2)
Track 16 cannot be verified as accurate (confidence 5) [7649308C], AccurateRip returned [9705CEC0] (AR v2)

No tracks could be verified as accurate
You may have a different pressing from the one(s) in the database

End of status report

==== Log checksum 50244C5F01F51C88FD0536DD95D8B255F148283BB87C07F5CC7B4B07662F4873 ====

foobar2000 1.2 / Dynamic Range Meter 1.1.1
log date: 2015-11-02 21:22:47

––––––––––––––––––––––––––––––––––––––––
Analyzed: Barry Manilow / Pure… Singer-Songwriter (CD3) (1)
Colin Blunstone / Pure… Singer-Songwriter (CD3) (2)
Dan Fogelberg / Pure… Singer-Songwriter (CD3) (3)
––––––––––––––––––––––––––––––––––––––––

DR Peak RMS Duration Track
––––––––––––––––––––––––––––––––––––––––
DR8 -0.10 dB -12.31 dB 4:17 09-Could It Be Magic
DR9 -0.10 dB -10.90 dB 2:56 10-Caroline Goodbye
DR9 -0.10 dB -11.87 dB 3:17 11-Longer
––––––––––––––––––––––––––––––––––––––––

Number of tracks: 3
Official DR value: DR9

Samplerate: 44100 Hz
Channels: 2
Bits per sample: 16
Bitrate: 886 kbps
Codec: FLAC
================================================================================

––––––––––––––––––––––––––––––––––––––––
Analyzed: Delaney & Bonnie And Friends / Pure… Singer-Songwriter (CD3) (1)
Eric Carmen / Pure… Singer-Songwriter (CD3) (2)
Ian Hunter / Pure… Singer-Songwriter (CD3) (3)
––––––––––––––––––––––––––––––––––––––––

DR Peak RMS Duration Track
––––––––––––––––––––––––––––––––––––––––
DR10 -0.10 dB -13.32 dB 2:50 07-Groupie (Superstar)
DR9 -0.85 dB -13.57 dB 4:32 08-All By Myself
DR9 -0.10 dB -10.90 dB 4:45 16-Once Bitten, Twice Shy
––––––––––––––––––––––––––––––––––––––––

Number of tracks: 3
Official DR value: DR9

Samplerate: 44100 Hz
Channels: 2
Bits per sample: 16
Bitrate: 886 kbps
Codec: FLAC
================================================================================

––––––––––––––––––––––––––––––––––––––––
Statistics for: 15-I'm Yours And I'm Hers
Number of samples: 11958156
Duration: 4:31
––––––––––––––––––––––––––––––––––––––––

Left Right

Peak Value: -0.10 dB –- -0.58 dB
Avg RMS: -12.67 dB –- -13.67 dB
DR channel: 10.99 dB –- 11.62 dB
––––––––––––––––––––––––––––––––––––––––

Official DR Value: DR11

Samplerate: 44100 Hz
Channels: 2
Bits per sample: 16
Bitrate: 886 kbps
Codec: FLAC
================================================================================
––––––––––––––––––––––––––––––––––––––––
Statistics for: 06-Different Drum
Number of samples: 8026788
Duration: 3:02
––––––––––––––––––––––––––––––––––––––––

Left Right

Peak Value: -0.10 dB –- -0.10 dB
Avg RMS: -12.50 dB –- -12.24 dB
DR channel: 9.85 dB –- 9.21 dB
––––––––––––––––––––––––––––––––––––––––

Official DR Value: DR10

Samplerate: 44100 Hz
Channels: 2
Bits per sample: 16
Bitrate: 886 kbps
Codec: FLAC
================================================================================
––––––––––––––––––––––––––––––––––––––––
Analyzed: Pete Seeger / Pure… Singer-Songwriter (CD3) (1)
Phoebe Snow / Pure… Singer-Songwriter (CD3) (2)
––––––––––––––––––––––––––––––––––––––––

DR Peak RMS Duration Track
––––––––––––––––––––––––––––––––––––––––
DR9 -0.10 dB -10.80 dB 4:41 05-We Shall Overcome (Live)
DR9 -0.10 dB -11.30 dB 4:08 12-Two Fisted Love
––––––––––––––––––––––––––––––––––––––––

Number of tracks: 2
Official DR value: DR9

Samplerate: 44100 Hz
Channels: 2
Bits per sample: 16
Bitrate: 886 kbps
Codec: FLAC
================================================================================

––––––––––––––––––––––––––––––––––––––––
Analyzed: Scott McKenzie / Pure… Singer-Songwriter (CD3) (1)
Stevie Ray Vaughan / Pure… Singer-Songwriter (CD3) (2)
––––––––––––––––––––––––––––––––––––––––

DR Peak RMS Duration Track
––––––––––––––––––––––––––––––––––––––––
DR8 -0.10 dB -9.81 dB 3:00 04-San Francisco (Be Sure To Wear Flowers In Your Hair)
DR11 -1.10 dB -13.90 dB 4:18 14-Life Without You
––––––––––––––––––––––––––––––––––––––––

Number of tracks: 2
Official DR value: DR9

Samplerate: 44100 Hz
Channels: 2
Bits per sample: 16
Bitrate: 886 kbps
Codec: FLAC
================================================================================

––––––––––––––––––––––––––––––––––––––––
Statistics for: 13-Hoboin
Number of samples: 9111648
Duration: 3:27
––––––––––––––––––––––––––––––––––––––––

Left Right

Peak Value: -1.10 dB –- -1.10 dB
Avg RMS: -13.02 dB –- -12.33 dB
DR channel: 9.62 dB –- 8.99 dB
––––––––––––––––––––––––––––––––––––––––

Official DR Value: DR9

Samplerate: 44100 Hz
Channels: 2
Bits per sample: 16
Bitrate: 886 kbps
Codec: FLAC
================================================================================
––––––––––––––––––––––––––––––––––––––––
Analyzed: Van Morrison / Pure… Singer-Songwriter (CD3) (1)
Willie Nelson / Pure… Singer-Songwriter (CD3) (2)
Zager And Evans / Pure… Singer-Songwriter (CD3) (3)
––––––––––––––––––––––––––––––––––––––––

DR Peak RMS Duration Track
––––––––––––––––––––––––––––––––––––––––
DR9 -0.10 dB -10.80 dB 3:06 01-Brown Eyed Girl
DR9 -0.10 dB -12.34 dB 2:35 02-On The Road Again
DR9 -0.10 dB -10.60 dB 3:16 03-In the Year 2525 (Exordium & Terminus)
––––––––––––––––––––––––––––––––––––––––

Number of tracks: 3
Official DR value: DR9

Samplerate: 44100 Hz
Channels: 2
Bits per sample: 16
Bitrate: 886 kbps
Codec: FLAC
================================================================================


Exact Audio Copy V1.0 beta 3 from 29. August 2011

EAC extraction logfile from 23. January 2014, 23:13

Various Artists / Pure… Singer Songwriters CD4

Used drive : PIONEER BD-RW BDR-206 Adapter: 3 ID: 0

Read mode : Secure
Utilize accurate stream : Yes
Defeat audio cache : Yes
Make use of C2 pointers : No

Read offset correction : 667
Overread into Lead-In and Lead-Out : No
Fill up missing offset samples with silence : Yes
Delete leading and trailing silent blocks : No
Null samples used in CRC calculations : Yes
Used interface : Native Win32 interface for Win NT & 2000

Used output format : User Defined Encoder
Selected bitrate : 1024 kBit/s
Quality : High
Add ID3 tag : Yes
Command line compressor : C:\Program Files\Exact Audio Copy\FLAC\FLAC.EXE
Additional command line options : -6 -V -T "ARTIST=%artist%" -T "TITLE=%title%" -T "ALBUM=%albumtitle%" -T "DATE=%year%" -T "TRACKNUMBER=%tracknr%" -T "GENRE=%genre%" -T "COMMENT=%comment%" -T "BAND=%albuminterpret%" -T "ALBUMARTIST=%albuminterpret%" -T "COMPOSER=%composer%" %haslyrics%–tag-from-file=LYRICS="%lyricsfile%"%haslyrics% -T "DISCNUMBER=%cdnumber%" -T "TOTALDISCS=%totalcds%" -T "TOTALTRACKS=%numtracks%" %hascover%–picture="%coverfile%"%hascover% %source% -o %dest%


TOC of the extracted CD

Track | Start | Length | Start sector | End sector
––––––––––––––––––––––––––––-
1 | 0:00.00 | 5:42.61 | 0 | 25710
2 | 5:42.61 | 5:42.49 | 25711 | 51409
3 | 11:25.35 | 3:32.49 | 51410 | 67358
4 | 14:58.09 | 4:26.05 | 67359 | 87313
5 | 19:24.14 | 3:58.21 | 87314 | 105184
6 | 23:22.35 | 3:44.06 | 105185 | 121990
7 | 27:06.41 | 4:32.29 | 121991 | 142419
8 | 31:38.70 | 4:25.31 | 142420 | 162325
9 | 36:04.26 | 4:47.58 | 162326 | 183908
10 | 40:52.09 | 3:01.51 | 183909 | 197534
11 | 43:53.60 | 3:57.34 | 197535 | 215343
12 | 47:51.19 | 3:30.03 | 215344 | 231096
13 | 51:21.22 | 3:37.14 | 231097 | 247385
14 | 54:58.36 | 4:36.15 | 247386 | 268100
15 | 59:34.51 | 4:58.61 | 268101 | 290511
16 | 64:33.37 | 5:05.20 | 290512 | 313406


Range status and errors

Selected range

Filename D:\Сборники (Flac)\VA - Pure Singer songwriter\CD4\Various Artists - Pure… Singer Songwriters CD4.wav

Peak level 98.8 %
Extraction speed 8.2 X
Range quality 100.0 %
Test CRC 03BDAEB2
Copy CRC 03BDAEB2
Copy OK

No errors occurred


AccurateRip summary

Track 1 cannot be verified as accurate (confidence 5) [1B40670E], AccurateRip returned [8667E07C] (AR v2)
Track 2 cannot be verified as accurate (confidence 5) [D1935368], AccurateRip returned [2E203A17] (AR v2)
Track 3 cannot be verified as accurate (confidence 5) [C3F73CA8], AccurateRip returned [89645764] (AR v2)
Track 4 cannot be verified as accurate (confidence 5) [7C02BD42], AccurateRip returned [6A2A96BE] (AR v2)
Track 5 cannot be verified as accurate (confidence 5) [C6FE3026], AccurateRip returned [7EE52D36] (AR v2)
Track 6 cannot be verified as accurate (confidence 5) [F3B277A3], AccurateRip returned [DF83AA6A] (AR v2)
Track 7 cannot be verified as accurate (confidence 5) [72B9CAE1], AccurateRip returned [AFB1F7A2] (AR v2)
Track 8 cannot be verified as accurate (confidence 5) [7F467A38], AccurateRip returned [6DB241A3] (AR v2)
Track 9 cannot be verified as accurate (confidence 5) [268D43D9], AccurateRip returned [190586E0] (AR v2)
Track 10 cannot be verified as accurate (confidence 5) [E4AD1A85], AccurateRip returned [B59E3177] (AR v2)
Track 11 cannot be verified as accurate (confidence 5) [9438A11D], AccurateRip returned [2ACDF24A] (AR v2)
Track 12 cannot be verified as accurate (confidence 5) [B4EE8397], AccurateRip returned [058E010D] (AR v2)
Track 13 cannot be verified as accurate (confidence 5) [42F7AC7D], AccurateRip returned [833275AB] (AR v2)
Track 14 cannot be verified as accurate (confidence 5) [63158EDE], AccurateRip returned [C3752A8A] (AR v2)
Track 15 cannot be verified as accurate (confidence 5) [B0A7D025], AccurateRip returned [07891A9E] (AR v2)
Track 16 cannot be verified as accurate (confidence 5) [4210650E], AccurateRip returned [CE5E123B] (AR v2)

No tracks could be verified as accurate
You may have a different pressing from the one(s) in the database

End of status report

==== Log checksum 0EE2B1C264A67D039EBA7426A32A4C387E21C9191EEF89EF84F7732A98E2EC5D ====

foobar2000 1.2 / Dynamic Range Meter 1.1.1
log date: 2015-11-02 21:23:04

––––––––––––––––––––––––––––––––––––––––
Statistics for: 09-She Cries Your Name
Number of samples: 12690804
Duration: 4:48
––––––––––––––––––––––––––––––––––––––––

Left Right

Peak Value: -2.36 dB –- -2.29 dB
Avg RMS: -11.83 dB –- -11.97 dB
DR channel: 7.41 dB –- 7.62 dB
––––––––––––––––––––––––––––––––––––––––

Official DR Value: DR8

Samplerate: 44100 Hz
Channels: 2
Bits per sample: 16
Bitrate: 911 kbps
Codec: FLAC
================================================================================
––––––––––––––––––––––––––––––––––––––––
Analyzed: Bruce Hornsby & The Range / Pure… Singer-Songwriter (CD4) (1)
Dido / Pure… Singer-Songwriter (CD4) (2)
––––––––––––––––––––––––––––––––––––––––

DR Peak RMS Duration Track
––––––––––––––––––––––––––––––––––––––––
DR8 -1.10 dB -10.23 dB 3:58 05-The Way It Is
DR7 -1.13 dB -10.40 dB 3:37 13-White Flag
––––––––––––––––––––––––––––––––––––––––

Number of tracks: 2
Official DR value: DR7

Samplerate: 44100 Hz
Channels: 2
Bits per sample: 16
Bitrate: 911 kbps
Codec: FLAC
================================================================================

––––––––––––––––––––––––––––––––––––––––
Analyzed: George Michael / Pure… Singer-Songwriter (CD4) (1)
Isley Jasper Isley / Pure… Singer-Songwriter (CD4) (2)
J.D. Souther / Pure… Singer-Songwriter (CD4) (3)
Mads Langer / Pure… Singer-Songwriter (CD4) (4)
––––––––––––––––––––––––––––––––––––––––

DR Peak RMS Duration Track
––––––––––––––––––––––––––––––––––––––––
DR10 -0.16 dB -13.87 dB 5:43 01-Father Figure
DR8 -3.08 dB -12.29 dB 5:43 02-Caravan Of Love
DR9 -0.10 dB -10.91 dB 3:44 06-You're Only Lonely
DR8 -0.10 dB -10.17 dB 3:02 10-Microscope
––––––––––––––––––––––––––––––––––––––––

Number of tracks: 4
Official DR value: DR9

Samplerate: 44100 Hz
Channels: 2
Bits per sample: 16
Bitrate: 911 kbps
Codec: FLAC
================================================================================

––––––––––––––––––––––––––––––––––––––––
Analyzed: Mary Chapin Carpenter / Pure… Singer-Songwriter (CD4) (1)
P!nk / Pure… Singer-Songwriter (CD4) (2)
––––––––––––––––––––––––––––––––––––––––

DR Peak RMS Duration Track
––––––––––––––––––––––––––––––––––––––––
DR11 -0.10 dB -13.73 dB 4:32 07-Stones In The Road
DR9 -1.03 dB -11.78 dB 4:59 15-Family Portrait
––––––––––––––––––––––––––––––––––––––––

Number of tracks: 2
Official DR value: DR10

Samplerate: 44100 Hz
Channels: 2
Bits per sample: 16
Bitrate: 911 kbps
Codec: FLAC
================================================================================

––––––––––––––––––––––––––––––––––––––––
Statistics for: 14-Do You Want The Truth Or Something Beautiful?
Number of samples: 12180420
Duration: 4:36
––––––––––––––––––––––––––––––––––––––––

Left Right

Peak Value: -2.17 dB –- -2.07 dB
Avg RMS: -9.20 dB –- -9.36 dB
DR channel: 5.28 dB –- 5.50 dB
––––––––––––––––––––––––––––––––––––––––

Official DR Value: DR5

Samplerate: 44100 Hz
Channels: 2
Bits per sample: 16
Bitrate: 911 kbps
Codec: FLAC
================================================================================
––––––––––––––––––––––––––––––––––––––––
Statistics for: 11-Strange Condition
Number of samples: 10471692
Duration: 3:57
––––––––––––––––––––––––––––––––––––––––

Left Right

Peak Value: -2.83 dB –- -2.83 dB
Avg RMS: -11.35 dB –- -10.30 dB
DR channel: 7.13 dB –- 6.28 dB
––––––––––––––––––––––––––––––––––––––––

Official DR Value: DR7

Samplerate: 44100 Hz
Channels: 2
Bits per sample: 16
Bitrate: 911 kbps
Codec: FLAC
================================================================================
––––––––––––––––––––––––––––––––––––––––
Analyzed: Sade / Pure… Singer-Songwriter (CD4) (1)
Sara Bareilles / Pure… Singer-Songwriter (CD4) (2)
––––––––––––––––––––––––––––––––––––––––

DR Peak RMS Duration Track
––––––––––––––––––––––––––––––––––––––––
DR8 -1.25 dB -10.95 dB 4:26 04-The Sweetest Taboo
DR6 -2.80 dB -10.83 dB 3:30 12-King Of Anything
––––––––––––––––––––––––––––––––––––––––

Number of tracks: 2
Official DR value: DR7

Samplerate: 44100 Hz
Channels: 2
Bits per sample: 16
Bitrate: 911 kbps
Codec: FLAC
================================================================================

––––––––––––––––––––––––––––––––––––––––
Statistics for: 08-Sunny Came Home
Number of samples: 11704728
Duration: 4:25
––––––––––––––––––––––––––––––––––––––––

Left Right

Peak Value: -1.35 dB –- -1.28 dB
Avg RMS: -11.07 dB –- -10.98 dB
DR channel: 7.26 dB –- 7.11 dB
––––––––––––––––––––––––––––––––––––––––

Official DR Value: DR7

Samplerate: 44100 Hz
Channels: 2
Bits per sample: 16
Bitrate: 911 kbps
Codec: FLAC
================================================================================
––––––––––––––––––––––––––––––––––––––––
Statistics for: 03-Wishing Well
Number of samples: 9378012
Duration: 3:33
––––––––––––––––––––––––––––––––––––––––

Left Right

Peak Value: -0.10 dB –- -0.10 dB
Avg RMS: -10.15 dB –- -10.63 dB
DR channel: 8.64 dB –- 8.97 dB
––––––––––––––––––––––––––––––––––––––––

Official DR Value: DR9

Samplerate: 44100 Hz
Channels: 2
Bits per sample: 16
Bitrate: 911 kbps
Codec: FLAC
================================================================================
foobar2000 1.2 / Dynamic Range Meter 1.1.1
log date: 2015-11-02 21:23:02

––––––––––––––––––––––––––––––––––––––––
Statistics for: 16-A Woman's Worth
Number of samples: 13462260
Duration: 5:05
––––––––––––––––––––––––––––––––––––––––

Left Right

Peak Value: -2.13 dB –- -2.24 dB
Avg RMS: -12.42 dB –- -12.19 dB
DR channel: 8.35 dB –- 7.97 dB
––––––––––––––––––––––––––––––––––––––––

Official DR Value: DR8

Samplerate: 44100 Hz
Channels: 2
Bits per sample: 16
Bitrate: 911 kbps
Codec: FLAC
================================================================================

VA - Pure... Singer/Songwriter (2011) 4CD Box Set [Re-Up]

All thanks to original releaser - gvm55

More interesting music in My Blog