Tags
Language
Tags

Banco De Gaia - Ollopa: Apollo Remixed (2013) (Re-up)

Posted By: gribovar
Banco De Gaia - Ollopa: Apollo Remixed (2013) (Re-up)

Banco De Gaia - Ollopa: Apollo Remixed (2013)
EAC Rip | FLAC (tracks+.cue+log) - 410 MB | MP3 CBR 320 kbps (LAME 3.93) - 147 MB | Covers (5 MB) included
Genre: Dub, Downtempo, Ambient | RAR 3% Rec. | Label: Disco Gecko (GKOCD013)

After the success of his album Apollo, Banco returns with Ollopa, a remix album that turns its source on its head: not only have the name and original track order been reversed, but the artwork is inverted too, with the sun becoming the moon and other symbols flipped upside down. The collection starts with Tripswitch’s sublime remix of Acquiescence, which builds slowly from an ambient opening into a downtempo delight, setting the tone nicely for both Antipodean duo, Deep Fried Dub, who add a cheeky dancehall lick to Oreia, and the high priests of sacred bass, Desert Dwellers, whose jittery yet soothing remix of All Sleeping is like sonic incense for the mind and body.
The sinewy melodies of Hu! are strengthened and complimented by some tough, bass-driven beats on the Unusual Cosmic Process Remix, while Kaya Project’s worldly ears (and added vocals) guide Apollon to new enchanted places and the sheer beauty of For Such A Time is retained and enhanced by System 7, as they add their distinctive twisting and playful style to the track.
Eternal Sunshine undergoes a radical change, courtesy of the Huff And Puff mix: the complex yet effortless new version rises from the ether, managing to be both epic and understated at the same time. Former Planet Dog labelmate Eat Static provides a suitably bonkers psychedelic Gypsy/Balkan mix of Wimble Toot, leaving Gaudi to end the collection with his remix of Lamentations, which encapsulates the emotion of the original within a funky, bass heavy breakbeat.
Tracklist:
01. Acquiescence (Tripswitch Remix)
02. Oreia (Deep Fried Dub Refried Mix)
03. All Sleeping (Desert Dwellers Remix)
04. Hu! (Unusual Cosmic Process Remix)
05. Apollon (Kaya Project Remix)
06. For Such A Time (System 7 Remix)
07. Eternal Sunshine (Huff & Puff Mix)
08. Wimble Toot (Eat Static Remix)
09. Lamentations (Gaudi Remix)

Total time: 01:00:05

Exact Audio Copy V1.3 from 2. September 2016

EAC extraction logfile from 9. March 2017, 17:58

Banco de Gaia / Ollopa, Apollo Remixed

Used drive : ATAPI iHAS124 W Adapter: 1 ID: 0

Read mode : Secure
Utilize accurate stream : Yes
Defeat audio cache : Yes
Make use of C2 pointers : No

Read offset correction : 48
Overread into Lead-In and Lead-Out : No
Fill up missing offset samples with silence : Yes
Delete leading and trailing silent blocks : No
Null samples used in CRC calculations : Yes
Used interface : Native Win32 interface for Win NT & 2000
Gap handling : Appended to previous track

Used output format : User Defined Encoder
Selected bitrate : 896 kBit/s
Quality : High
Add ID3 tag : No
Command line compressor : C:\Program Files (x86)\Various\FLAC\flac.exe
Additional command line options : -8 -V -T "artist=%artist%" -T "albumartist=%albumartist%" -T "album=%albumtitle%" -T "title=%title%" -T "year=%year%" -T "tracknumber=%tracknr2%" -T "genre=%genre%" %source% -o %dest%


TOC of the extracted CD

Track | Start | Length | Start sector | End sector
––––––––––––––––––––––––––––-
1 | 0:00.00 | 7:29.33 | 0 | 33707
2 | 7:29.33 | 5:44.19 | 33708 | 59526
3 | 13:13.52 | 6:38.27 | 59527 | 89403
4 | 19:52.04 | 7:46.37 | 89404 | 124390
5 | 27:38.41 | 6:23.51 | 124391 | 153166
6 | 34:02.17 | 7:36.07 | 153167 | 187373
7 | 41:38.24 | 6:18.11 | 187374 | 215734
8 | 47:56.35 | 6:12.23 | 215735 | 243657
9 | 54:08.58 | 5:56.07 | 243658 | 270364


Track 1

Filename F:\My Documents\My Music\Albums (Complete)\01. Acquiescence (Tripswitch Remix).wav

Pre-gap length 0:00:02.00

Peak level 100.0 %
Extraction speed 4.9 X
Track quality 100.0 %
Test CRC B458FA87
Copy CRC B458FA87
Accurately ripped (confidence 8) [5B1AF94F] (AR v2)
Copy OK

Track 2

Filename F:\My Documents\My Music\Albums (Complete)\02. Oreia (Deep Fried Dub Refried Mix).wav

Peak level 100.0 %
Extraction speed 4.3 X
Track quality 99.9 %
Test CRC 542FDE9A
Copy CRC 542FDE9A
Accurately ripped (confidence 8) [E417DBD0] (AR v2)
Copy OK

Track 3

Filename F:\My Documents\My Music\Albums (Complete)\03. All Sleeping (Desert Dwellers Remix).wav

Peak level 100.0 %
Extraction speed 6.3 X
Track quality 100.0 %
Test CRC 9DF6A144
Copy CRC 9DF6A144
Accurately ripped (confidence 8) [122AD2F0] (AR v2)
Copy OK

Track 4

Filename F:\My Documents\My Music\Albums (Complete)\04. Hu! (Unusual Cosmic Process Remix).wav

Peak level 100.0 %
Extraction speed 6.9 X
Track quality 100.0 %
Test CRC 48070A2A
Copy CRC 48070A2A
Accurately ripped (confidence 8) [9D473BD8] (AR v2)
Copy OK

Track 5

Filename F:\My Documents\My Music\Albums (Complete)\05. Apollon (Kaya Project Remix).wav

Peak level 100.0 %
Extraction speed 7.4 X
Track quality 100.0 %
Test CRC 1B522272
Copy CRC 1B522272
Accurately ripped (confidence 8) [264708B3] (AR v2)
Copy OK

Track 6

Filename F:\My Documents\My Music\Albums (Complete)\06. For Such A Time (System 7 Remix).wav

Peak level 100.0 %
Extraction speed 7.0 X
Track quality 100.0 %
Test CRC 97A958CC
Copy CRC 97A958CC
Accurately ripped (confidence 8) [503ACA6D] (AR v2)
Copy OK

Track 7

Filename F:\My Documents\My Music\Albums (Complete)\07. Eternal Sunshine (Huff & Puff Mix).wav

Peak level 100.0 %
Extraction speed 4.9 X
Track quality 99.9 %
Test CRC AA109032
Copy CRC AA109032
Accurately ripped (confidence 8) [50B34C78] (AR v2)
Copy OK

Track 8

Filename F:\My Documents\My Music\Albums (Complete)\08. Wimble Toot (Eat Static Remix).wav

Peak level 100.0 %
Extraction speed 3.8 X
Track quality 100.0 %
Test CRC 02714788
Copy CRC 02714788
Accurately ripped (confidence 7) [7980098F] (AR v2)
Copy OK

Track 9

Filename F:\My Documents\My Music\Albums (Complete)\09. Lamentations (Gaudi Remix).wav

Peak level 100.0 %
Extraction speed 2.5 X
Track quality 99.9 %
Test CRC 9F2E59EA
Copy CRC 9F2E59EA
Accurately ripped (confidence 7) [5A4F8294] (AR v2)
Copy OK


All tracks accurately ripped

No errors occurred

End of status report

–– CUETools DB Plugin V2.1.6

[CTDB TOCID: XQtxYJ4MuxT6vYtMWrtcv9tKsPc-] found
Submit result: XQtxYJ4MuxT6vYtMWrtcv9tKsPc- has been confirmed
Track | CTDB Status
1 | (6/6) Accurately ripped
2 | (6/6) Accurately ripped
3 | (6/6) Accurately ripped
4 | (6/6) Accurately ripped
5 | (6/6) Accurately ripped
6 | (6/6) Accurately ripped
7 | (6/6) Accurately ripped
8 | (6/6) Accurately ripped
9 | (6/6) Accurately ripped


==== Log checksum 09C44ACA2DCB1DAC34EE0A073D5F1DD098A31107E8E045755B0BBEDE0FE88EFE ====

[CUETools log; Date: 22.04.2021 12:51:29; Version: 2.1.4]
[CTDB TOCID: XQtxYJ4MuxT6vYtMWrtcv9tKsPc-] found.
Track | CTDB Status
1 | (11/11) Accurately ripped
2 | (11/11) Accurately ripped
3 | (11/11) Accurately ripped
4 | (11/11) Accurately ripped
5 | (11/11) Accurately ripped
6 | (11/11) Accurately ripped
7 | (11/11) Accurately ripped
8 | (11/11) Accurately ripped
9 | (11/11) Accurately ripped
[AccurateRip ID: 00150431-0099c9b1-710e1409] found.
Track [ CRC | V2 ] Status
01 [30043685|5b1af94f] (00+10/10) Accurately ripped
02 [97570eff|e417dbd0] (00+10/10) Accurately ripped
03 [dcb6deee|122ad2f0] (00+10/10) Accurately ripped
04 [093505f3|9d473bd8] (00+10/10) Accurately ripped
05 [e615f758|264708b3] (00+10/10) Accurately ripped
06 [552eea06|503aca6d] (00+10/10) Accurately ripped
07 [372fd593|50b34c78] (00+10/10) Accurately ripped
08 [e33c492c|7980098f] (00+09/09) Accurately ripped
09 [a44a8909|5a4f8294] (00+08/08) Accurately ripped

Track Peak [ CRC32 ] [W/O NULL] [ LOG ]
– 99,9 [5F064EE2] [4FFE1D48]
01 99,9 [B458FA87] [83A211FA] CRC32
02 99,9 [542FDE9A] [2933D97E] CRC32
03 99,9 [9DF6A144] [51AB0B85] CRC32
04 99,9 [48070A2A] [F24590E9] CRC32
05 99,9 [1B522272] [A94BCD18] CRC32
06 99,9 [97A958CC] [B00D102E] CRC32
07 99,9 [AA109032] [0F9839AB] CRC32
08 99,9 [02714788] [D4C24CA8] CRC32
09 99,9 [9F2E59EA] [36EEC9D4] CRC32

Thanks to Summerisle

See also: