Tags
Language
Tags

Banco De Gaia - Apollo (2013) (Re-up)

Posted By: gribovar
Banco De Gaia - Apollo (2013) (Re-up)

Banco De Gaia - Apollo (2013)
EAC Rip | FLAC (tracks+.cue+log) - 423 MB | MP3 CBR 320 kbps (LAME 3.93) - 149 MB | Covers - 13 MB
Genre: Downtempo, World, Dub, Ambient, Trance | RAR 3% Rec. | Label: Disco Gecko (GKOCD012)

Apollo is Banco's first new studio album in 7 years and brings together heavy dub beats, powerful vocal arrays, and lilting melodies, drawing inspiration from both old and new schools of sonic artistry, and in doing so blending the subtle flavours of the act's historical sound with modern day techniques and ideas.
Apollo opens with the powerful and evocative Lamentations, featuring the ethereal vocals of Zhenia Mahdi-Nau, before slipping into Wimble Toot, whose initially stuttering drums and bass build into a relentless rhythm, peppered with reggae style horns and saxophone, nicely setting the scene for the foot stomping, dust raising, dancefloor rousing Eternal Sunshine.
For Such A Time is classic Banco in a 21st Century style, with its ambient pads, crisp hi-hat and dubby bassline providing a welcome respite before the tidal wave of energy and emotion that is Apollon: a bouncy blend of acoustic and electronic sounds weaved together by melodic strings and funky bass. Hu! maintains this momentum, with sultry Mediterranean inspired melodies underpinned by global beats and breaks.
All Sleeping, featuring the legendary flautist Tim Wheater, is not just a step down in tempo, but also a step down into another world, a world of dreams, a world of fantasy. Oreia winds us back into consciousness, with sinuous oud, strange counting voices, Balinese chorus and haunting Turkish clarinets. The album ends, as it began, with the engaging voice of Zhenia Mahdi-Nau gracing Acquiescence, providing an affirming coda to the very welcome return of Banco De Gaia.
Tracklist:
01. Lamentations
02. Wimble Toot
03. Eternal Sunshine
04. For Such A Time
05. Apollon
06. Hu!
07. All Sleeping
08. Oreia
09. Acquiescence

Total time: 01:03:09

Exact Audio Copy V1.3 from 2. September 2016

EAC extraction logfile from 9. March 2017, 17:28

Banco de Gaia / Apollo

Used drive : ATAPI iHAS124 W Adapter: 1 ID: 0

Read mode : Secure
Utilize accurate stream : Yes
Defeat audio cache : Yes
Make use of C2 pointers : No

Read offset correction : 48
Overread into Lead-In and Lead-Out : No
Fill up missing offset samples with silence : Yes
Delete leading and trailing silent blocks : No
Null samples used in CRC calculations : Yes
Used interface : Native Win32 interface for Win NT & 2000
Gap handling : Appended to previous track

Used output format : User Defined Encoder
Selected bitrate : 896 kBit/s
Quality : High
Add ID3 tag : No
Command line compressor : C:\Program Files (x86)\Various\FLAC\flac.exe
Additional command line options : -8 -V -T "artist=%artist%" -T "albumartist=%albumartist%" -T "album=%albumtitle%" -T "title=%title%" -T "year=%year%" -T "tracknumber=%tracknr2%" -T "genre=%genre%" %source% -o %dest%


TOC of the extracted CD

Track | Start | Length | Start sector | End sector
––––––––––––––––––––––––––––-
1 | 0:00.00 | 3:02.35 | 0 | 13684
2 | 3:02.35 | 7:59.04 | 13685 | 49613
3 | 11:01.39 | 7:25.54 | 49614 | 83042
4 | 18:27.18 | 8:32.72 | 83043 | 121514
5 | 27:00.15 | 6:40.65 | 121515 | 151579
6 | 33:41.05 | 8:39.24 | 151580 | 190528
7 | 42:20.29 | 9:42.50 | 190529 | 234228
8 | 52:03.04 | 6:50.44 | 234229 | 265022
9 | 58:53.48 | 4:15.26 | 265023 | 284173


Track 1

Filename F:\My Documents\My Music\Albums (Complete)\01. Lamentations.wav

Pre-gap length 0:00:02.00

Peak level 91.5 %
Extraction speed 3.8 X
Track quality 100.0 %
Test CRC BA511D9A
Copy CRC BA511D9A
Accurately ripped (confidence 14) [E1B6DB71] (AR v2)
Copy OK

Track 2

Filename F:\My Documents\My Music\Albums (Complete)\02. Wimble Toot.wav

Pre-gap length 0:00:02.74

Peak level 100.0 %
Extraction speed 4.2 X
Track quality 99.9 %
Test CRC C42BEB0C
Copy CRC C42BEB0C
Accurately ripped (confidence 14) [806C3981] (AR v2)
Copy OK

Track 3

Filename F:\My Documents\My Music\Albums (Complete)\03. Eternal Sunshine.wav

Peak level 100.0 %
Extraction speed 5.5 X
Track quality 100.0 %
Test CRC E32536B7
Copy CRC E32536B7
Accurately ripped (confidence 14) [7BA22F75] (AR v2)
Copy OK

Track 4

Filename F:\My Documents\My Music\Albums (Complete)\04. For Such a Time.wav

Pre-gap length 0:00:01.74

Peak level 100.0 %
Extraction speed 6.2 X
Track quality 100.0 %
Test CRC 9D4E61C6
Copy CRC 9D4E61C6
Accurately ripped (confidence 14) [0484636D] (AR v2)
Copy OK

Track 5

Filename F:\My Documents\My Music\Albums (Complete)\05. Apollon.wav

Peak level 100.0 %
Extraction speed 6.3 X
Track quality 100.0 %
Test CRC 839C0C7D
Copy CRC 839C0C7D
Accurately ripped (confidence 14) [75FE737E] (AR v2)
Copy OK

Track 6

Filename F:\My Documents\My Music\Albums (Complete)\06. Hu!.wav

Pre-gap length 0:00:01.74

Peak level 100.0 %
Extraction speed 6.8 X
Track quality 100.0 %
Test CRC 20923CE4
Copy CRC 20923CE4
Accurately ripped (confidence 14) [D5312D0A] (AR v2)
Copy OK

Track 7

Filename F:\My Documents\My Music\Albums (Complete)\07. All Sleeping.wav

Pre-gap length 0:00:02.74

Peak level 96.9 %
Extraction speed 6.0 X
Track quality 99.9 %
Test CRC 055D4986
Copy CRC 055D4986
Accurately ripped (confidence 14) [552E0096] (AR v2)
Copy OK

Track 8

Filename F:\My Documents\My Music\Albums (Complete)\08. Oreia.wav

Peak level 100.0 %
Extraction speed 4.0 X
Track quality 100.0 %
Test CRC B9B51AF1
Copy CRC B9B51AF1
Accurately ripped (confidence 14) [316BA457] (AR v2)
Copy OK

Track 9

Filename F:\My Documents\My Music\Albums (Complete)\09. Acquiescence.wav

Pre-gap length 0:00:03.73

Peak level 98.3 %
Extraction speed 3.1 X
Track quality 99.9 %
Test CRC 1F08A208
Copy CRC 1F08A208
Accurately ripped (confidence 13) [162ABBEB] (AR v2)
Copy OK


All tracks accurately ripped

No errors occurred

End of status report

–– CUETools DB Plugin V2.1.6

[CTDB TOCID: v8QhS9UKBtbno4kt9kwNOrAeiBE-] found
Submit result: v8QhS9UKBtbno4kt9kwNOrAeiBE- has been confirmed
Track | CTDB Status
1 | (19/19) Accurately ripped
2 | (19/19) Accurately ripped
3 | (19/19) Accurately ripped
4 | (19/19) Accurately ripped
5 | (19/19) Accurately ripped
6 | (19/19) Accurately ripped
7 | (19/19) Accurately ripped
8 | (19/19) Accurately ripped
9 | (18/19) Accurately ripped


==== Log checksum 74A6C662C89B0DC7198FA15B7EB2907DB0D52ED322A34B2CD1F44C3C01C0569B ====

[CUETools log; Date: 16.04.2021 19:03:10; Version: 2.1.4]
[CTDB TOCID: v8QhS9UKBtbno4kt9kwNOrAeiBE-] found.
Track | CTDB Status
1 | (31/31) Accurately ripped
2 | (31/31) Accurately ripped
3 | (31/31) Accurately ripped
4 | (31/31) Accurately ripped
5 | (31/31) Accurately ripped
6 | (31/31) Accurately ripped
7 | (31/31) Accurately ripped
8 | (31/31) Accurately ripped
9 | (30/31) Accurately ripped
[AccurateRip ID: 001542f0-009f9b12-630ecc09] found.
Track [ CRC | V2 ] Status
01 [05c8ad36|e1b6db71] (00+18/18) Accurately ripped
02 [dbe92334|806c3981] (00+18/18) Accurately ripped
03 [634c98ef|7ba22f75] (00+18/18) Accurately ripped
04 [63cecf7e|0484636d] (00+18/18) Accurately ripped
05 [867fdbd0|75fe737e] (00+18/18) Accurately ripped
06 [528b9ff8|d5312d0a] (00+18/18) Accurately ripped
07 [0f6a26b3|552e0096] (00+18/18) Accurately ripped
08 [01fa10e3|316ba457] (00+18/18) Accurately ripped
09 [d8d35532|162abbeb] (00+17/17) Accurately ripped

Track Peak [ CRC32 ] [W/O NULL] [ LOG ]
– 100,0 [669D68A8] [79714087]
01 91,5 [BA511D9A] [61A2111E] CRC32
02 100,0 [C42BEB0C] [733296B6] CRC32
03 100,0 [E32536B7] [49232D4C] CRC32
04 100,0 [9D4E61C6] [AE282A49] CRC32
05 100,0 [839C0C7D] [441C6B24] CRC32
06 100,0 [20923CE4] [DACBCFF0] CRC32
07 96,9 [055D4986] [E2C72DDE] CRC32
08 100,0 [B9B51AF1] [9CFF5B57] CRC32
09 98,3 [1F08A208] [8135C2B6] CRC32

Thanks to Summerisle

See also: