Tags
Language
Tags

VA - Buddha-Bar XIV By Ravin (2012) 2CDs

Posted By: Designol
VA - Buddha-Bar XIV By Ravin (2012) 2CDs

VA - Buddha-Bar XIV By Ravin (2012) 2CDs
EAC | FLAC | Tracks (Cue&Log) ~ 972 Mb | Scans ~ 119 Mb
Label: George V Records | # 3255002 | Time: 02:32:39
Lounge, Chillout, Ethnic, Ambient

After 13 volumes already, Buddha bar Djs kept on travelling the world searching for the next hit, the next artist that deserves to be called one, pushing their limits making us dream and travel. This time, destination Bollywood!

VA - Buddha-Bar XIV By Ravin (2012) 2CDs


Tracklist:

CD1 - Dhimsa:

01. Thor - Dari Lullaby (04:21)
02. Ravin & Carlos Campos - Romance In Klotild Palace (04:37)
03. PrOmid Feat. Omid Mahramzadeh - Far Away (04:23)
04. Ambray - Brahma (03:48)
05. ShiftZ Feat. Hiba El Mansouri - Ahwak (03:05)
06. Kohib - Hear This (04:35)
07. SoulAvenue Feat. Shaheen - Different (SoulAvenue's Boddhisattva Blues) (04:39)
08. Cayetano - Fairytales (04:02)
09. Duke B - The Truth (03:57)
10. Eric Fernandez - Cada Dia (04:21)
11. Pravana - Uluwatu (Amanaska Remix) (04:48)
12. Laar Meets Zoohacker - Tilinko (05:37)
13. Paolo Rossini - Floating To The Sun (04:50)
14. Ahilea Feat. Bella Wagner - Devil's Eyes (04:15)
15. Ronny Morris - All About Love (Ganga Mix) (04:58)
16. Pierre Ravan & Haldo Feat Parthasarath Mukherjee & Harshada Jawale - Nostalgia (Emotional Lounge Mix) (06:58)

CD2 - Bhangra:

01. 22ROCKETS - Umma (09:35)
02. Rosa Lux - Min Klub Forst Feat. Alberte & Josefine Winding (03:47)
03. Nora En Pure - Saltwater (04:46)
04. Flo Mrzdk & Juliet Sikora - Shanti (05:14)
05. Nacho Sotomayor - Return To Mykonos (PrOmid Remix) (05:56)
06. Mikael Simpson - Inden Du Falder I Sovn (Lulu Rouge Remix) (04:51)
07. Sugar House Feat. Marieke Meijer - Desire (06:57)
08. Vinayak A - Losing Myself Feat. Dhrithi (Alexey Sonar Remix) (05:32)
09. Denis Dallan - Liberta' (05:25)
10. Consoul Trainin & Pink Noisy - Litanie Des Saints (03:23)
11. Rico Bernasconi Vs Sasha Dith - Bollywood (Saxo Club Mix) (04:47)
12. Alex Barattini - Let Me Kiss You (05:09)
13. Sezer Uysal Featuring Chinar - Baku (Dinka Remix) (06:38)
14. Gorins Feat. Shena - I Grieve For Spring (07:14)


Exact Audio Copy V1.0 beta 1 from 15. November 2010

EAC extraction logfile from 1. October 2012, 21:23

Various / Dhimsa CD1

Used drive : ASUS DRW-24B3ST Adapter: 3 ID: 0

Read mode : Secure
Utilize accurate stream : Yes
Defeat audio cache : Yes
Make use of C2 pointers : No

Read offset correction : 6
Overread into Lead-In and Lead-Out : No
Fill up missing offset samples with silence : Yes
Delete leading and trailing silent blocks : No
Null samples used in CRC calculations : Yes
Used interface : Native Win32 interface for Win NT & 2000
Gap handling : Appended to previous track

Used output format : User Defined Encoder
Selected bitrate : 1024 kBit/s
Quality : High
Add ID3 tag : No
Command line compressor : C:\Program Files\Exact Audio Copy\Flac\flac.exe
Additional command line options : -8 -V -T "ARTIST=%a" -T "TITLE=%t" -T "ALBUM=%g" -T "DATE=%y" -T "TRACKNUMBER=%n" -T "GENRE=%m" -T "COMMENT=ripped by Oleandris" %s


TOC of the extracted CD

Track | Start | Length | Start sector | End sector
––––––––––––––––––––––––––––-
1 | 0:00.00 | 4:21.01 | 0 | 19575
2 | 4:21.01 | 4:37.23 | 19576 | 40373
3 | 8:58.24 | 4:23.29 | 40374 | 60127
4 | 13:21.53 | 3:48.23 | 60128 | 77250
5 | 17:10.01 | 3:05.03 | 77251 | 91128
6 | 20:15.04 | 4:35.63 | 91129 | 111816
7 | 24:50.67 | 4:39.00 | 111817 | 132741
8 | 29:29.67 | 4:02.08 | 132742 | 150899
9 | 33:32.00 | 3:57.10 | 150900 | 168684
10 | 37:29.10 | 4:21.21 | 168685 | 188280
11 | 41:50.31 | 4:48.68 | 188281 | 209948
12 | 46:39.24 | 5:36.72 | 209949 | 235220
13 | 52:16.21 | 4:50.15 | 235221 | 256985
14 | 57:06.36 | 4:15.00 | 256986 | 276110
15 | 61:21.36 | 4:58.04 | 276111 | 298464
16 | 66:19.40 | 6:57.74 | 298465 | 329813


Track 1

Filename F:\ЗАГРУЗКИ\ Buddha-Bar Collection I-XIV\14. Buddha-Bar XIV By Ravin 2CD (2012)\CD1 Dhimsa\01. Thor - Dari Lullaby.wav

Pre-gap length 0:00:02.00

Peak level 100.0 %
Extraction speed 3.0 X
Track quality 99.9 %
Test CRC 74C1CFB3
Copy CRC 74C1CFB3
Accurately ripped (confidence 2) [8E1CE36A]
Copy OK

Track 2

Filename F:\ЗАГРУЗКИ\ Buddha-Bar Collection I-XIV\14. Buddha-Bar XIV By Ravin 2CD (2012)\CD1 Dhimsa\02. Ravin & Carlos Campos - Romance In Klotild Palace.wav

Peak level 75.7 %
Extraction speed 4.1 X
Track quality 100.0 %
Test CRC F41109E4
Copy CRC F41109E4
Accurately ripped (confidence 2) [A8914FAF]
Copy OK

Track 3

Filename F:\ЗАГРУЗКИ\ Buddha-Bar Collection I-XIV\14. Buddha-Bar XIV By Ravin 2CD (2012)\CD1 Dhimsa\03. PrOmid Feat. Omid Mahramzadeh - Far Away.wav

Peak level 100.0 %
Extraction speed 4.5 X
Track quality 100.0 %
Test CRC 467D1CB2
Copy CRC 467D1CB2
Accurately ripped (confidence 2) [12280FE1]
Copy OK

Track 4

Filename F:\ЗАГРУЗКИ\ Buddha-Bar Collection I-XIV\14. Buddha-Bar XIV By Ravin 2CD (2012)\CD1 Dhimsa\04. Ambray - Brahma.wav

Peak level 100.0 %
Extraction speed 4.7 X
Track quality 100.0 %
Test CRC D93C7352
Copy CRC D93C7352
Accurately ripped (confidence 2) [1A5ECFF6]
Copy OK

Track 5

Filename F:\ЗАГРУЗКИ\ Buddha-Bar Collection I-XIV\14. Buddha-Bar XIV By Ravin 2CD (2012)\CD1 Dhimsa\05. ShiftZ Feat. Hiba El Mansouri - Ahwak.wav

Peak level 100.0 %
Extraction speed 4.8 X
Track quality 100.0 %
Test CRC 2FD843AB
Copy CRC 2FD843AB
Accurately ripped (confidence 2) [39E11E32]
Copy OK

Track 6

Filename F:\ЗАГРУЗКИ\ Buddha-Bar Collection I-XIV\14. Buddha-Bar XIV By Ravin 2CD (2012)\CD1 Dhimsa\06. Kohib - Hear This.wav

Peak level 97.4 %
Extraction speed 5.3 X
Track quality 100.0 %
Test CRC F3F91F2B
Copy CRC F3F91F2B
Accurately ripped (confidence 2) [D97B1AB9]
Copy OK

Track 7

Filename F:\ЗАГРУЗКИ\ Buddha-Bar Collection I-XIV\14. Buddha-Bar XIV By Ravin 2CD (2012)\CD1 Dhimsa\07. SoulAvenue Feat. Shaheen - Different (SoulAvenue's Boddhisattva Blues).wav

Peak level 98.7 %
Extraction speed 5.6 X
Track quality 100.0 %
Test CRC FE9F1020
Copy CRC FE9F1020
Accurately ripped (confidence 2) [B1DFCE6D]
Copy OK

Track 8

Filename F:\ЗАГРУЗКИ\ Buddha-Bar Collection I-XIV\14. Buddha-Bar XIV By Ravin 2CD (2012)\CD1 Dhimsa\08. Cayetano - Fairytales.wav

Peak level 98.0 %
Extraction speed 5.7 X
Track quality 100.0 %
Test CRC 3B6673FC
Copy CRC 3B6673FC
Accurately ripped (confidence 2) [27D31F1B]
Copy OK

Track 9

Filename F:\ЗАГРУЗКИ\ Buddha-Bar Collection I-XIV\14. Buddha-Bar XIV By Ravin 2CD (2012)\CD1 Dhimsa\09. Duke B - The Truth.wav

Peak level 89.3 %
Extraction speed 6.0 X
Track quality 100.0 %
Test CRC 086067E7
Copy CRC 086067E7
Accurately ripped (confidence 2) [D2453DA8]
Copy OK

Track 10

Filename F:\ЗАГРУЗКИ\ Buddha-Bar Collection I-XIV\14. Buddha-Bar XIV By Ravin 2CD (2012)\CD1 Dhimsa\10. Eric Fernandez - Cada Dia.wav

Peak level 100.0 %
Extraction speed 6.3 X
Track quality 100.0 %
Test CRC 89B7D25E
Copy CRC 89B7D25E
Accurately ripped (confidence 2) [C6C69021]
Copy OK

Track 11

Filename F:\ЗАГРУЗКИ\ Buddha-Bar Collection I-XIV\14. Buddha-Bar XIV By Ravin 2CD (2012)\CD1 Dhimsa\11. Pravana - Uluwatu (Amanaska Remix).wav

Peak level 100.0 %
Extraction speed 5.3 X
Track quality 99.9 %
Test CRC 4689E125
Copy CRC 4689E125
Accurately ripped (confidence 2) [DAFBA9B5]
Copy OK

Track 12

Filename F:\ЗАГРУЗКИ\ Buddha-Bar Collection I-XIV\14. Buddha-Bar XIV By Ravin 2CD (2012)\CD1 Dhimsa\12. Laar Meets Zoohacker - Tilinko.wav

Peak level 93.5 %
Extraction speed 7.0 X
Track quality 100.0 %
Test CRC 90744746
Copy CRC 90744746
Accurately ripped (confidence 2) [F19B1689]
Copy OK

Track 13

Filename F:\ЗАГРУЗКИ\ Buddha-Bar Collection I-XIV\14. Buddha-Bar XIV By Ravin 2CD (2012)\CD1 Dhimsa\13. Paolo Rossini - Floating To The Sun.wav

Peak level 100.0 %
Extraction speed 5.8 X
Track quality 99.9 %
Test CRC DA0BF323
Copy CRC DA0BF323
Accurately ripped (confidence 2) [6DFF3E91]
Copy OK

Track 14

Filename F:\ЗАГРУЗКИ\ Buddha-Bar Collection I-XIV\14. Buddha-Bar XIV By Ravin 2CD (2012)\CD1 Dhimsa\14. Ahilea Feat. Bella Wagner - Devil's Eyes.wav

Peak level 97.3 %
Extraction speed 5.8 X
Track quality 99.9 %
Test CRC 52A116E4
Copy CRC 52A116E4
Accurately ripped (confidence 2) [9CF7048F]
Copy OK

Track 15

Filename F:\ЗАГРУЗКИ\ Buddha-Bar Collection I-XIV\14. Buddha-Bar XIV By Ravin 2CD (2012)\CD1 Dhimsa\15. Ronny Morris - All About Love (Ganga Mix).wav

Peak level 100.0 %
Extraction speed 7.6 X
Track quality 100.0 %
Test CRC BC2985BE
Copy CRC BC2985BE
Accurately ripped (confidence 2) [42C0B159]
Copy OK

Track 16

Filename F:\ЗАГРУЗКИ\ Buddha-Bar Collection I-XIV\14. Buddha-Bar XIV By Ravin 2CD (2012)\CD1 Dhimsa\16. Pierre Ravan & Haldo Feat Parthasarath Mukherjee & Harshada Jawale - Nostalgia (Emotional Lounge Mix).wav

Peak level 100.0 %
Extraction speed 8.1 X
Track quality 100.0 %
Test CRC 73105B9A
Copy CRC 73105B9A
Accurately ripped (confidence 2) [0813F2C1]
Copy OK


All tracks accurately ripped

No errors occurred

End of status report

==== Log checksum ABEB045802176737F94185EFC2BDE7A7630BF18856A345E9E022F22B6965189F ====

foobar2000 1.2 / Dynamic Range Meter 1.1.1
log date: 2013-10-31 20:24:27

––––––––––––––––––––––––––––––––––––––––
Analyzed: Ahilea Feat. Bella Wagner / Dhimsa CD1 (1)
Ambray / Dhimsa CD1 (2)
Cayetano / Dhimsa CD1 (3)
Duke B / Dhimsa CD1 (4)
Eric Fernandez / Dhimsa CD1 (5)
Kohib / Dhimsa CD1 (6)
Laar Meets Zoohacker / Dhimsa CD1 (7)
Paolo Rossini / Dhimsa CD1 (8)
Pierre Ravan & Haldo Feat Parthasarath Mukherjee & Harshada Jawale / Dhimsa CD1 (9)
Pravana / Dhimsa CD1 (10)
PrOmid Feat. Omid Mahramzadeh / Dhimsa CD1 (11)
Ravin & Carlos Campos / Dhimsa CD1 (12)
Ronny Morris / Dhimsa CD1 (13)
ShiftZ Feat. Hiba El Mansouri / Dhimsa CD1 (14)
SoulAvenue Feat. Shaheen / Dhimsa CD1 (15)
Thor / Dhimsa CD1 (16)
––––––––––––––––––––––––––––––––––––––––

DR Peak RMS Duration Track
––––––––––––––––––––––––––––––––––––––––
DR10 -0.24 dB -11.66 dB 4:15 14-Devil's Eyes
DR9 0.00 dB -10.18 dB 3:48 04-Brahma
DR9 -0.17 dB -11.02 dB 4:02 08-Fairytales
DR6 -0.98 dB -8.39 dB 3:57 09-The Truth
DR11 0.00 dB -12.84 dB 4:21 10-Cada Dia
DR7 -0.22 dB -8.76 dB 4:36 06-Hear This
DR7 -0.58 dB -9.92 dB 5:37 12-Tilinko
DR8 0.00 dB -9.48 dB 4:50 13-Floating To The Sun
DR8 0.00 dB -10.48 dB 6:58 16-Nostalgia (Emotional Lounge Mix)
DR9 0.00 dB -11.75 dB 4:49 11-Uluwatu (Amanaska Remix)
DR9 0.00 dB -11.81 dB 4:23 03-Far Away
DR6 -2.41 dB -10.26 dB 4:37 02-Romance In Klotild Palace
DR9 0.00 dB -10.22 dB 4:58 15-All About Love (Ganga Mix)
DR8 0.00 dB -9.36 dB 3:05 05-Ahwak
DR8 -0.11 dB -10.02 dB 4:39 07-Different (SoulAvenue's Boddhisattva Blues)
DR9 0.00 dB -10.82 dB 4:21 01-Dari Lullaby
––––––––––––––––––––––––––––––––––––––––

Number of tracks: 16
Official DR value: DR8

Samplerate: 44100 Hz
Channels: 2
Bits per sample: 16
Bitrate: 840 kbps
Codec: FLAC
================================================================================


Exact Audio Copy V1.0 beta 1 from 15. November 2010

EAC extraction logfile from 1. October 2012, 21:23

Various / Bhangra CD2

Used drive : PLEXTOR DVDR PX-L890SA Adapter: 5 ID: 0

Read mode : Secure
Utilize accurate stream : Yes
Defeat audio cache : Yes
Make use of C2 pointers : No

Read offset correction : 6
Overread into Lead-In and Lead-Out : No
Fill up missing offset samples with silence : Yes
Delete leading and trailing silent blocks : No
Null samples used in CRC calculations : Yes
Used interface : Native Win32 interface for Win NT & 2000
Gap handling : Appended to previous track

Used output format : User Defined Encoder
Selected bitrate : 1024 kBit/s
Quality : High
Add ID3 tag : No
Command line compressor : C:\Program Files\Exact Audio Copy\Flac\flac.exe
Additional command line options : -8 -V -T "ARTIST=%a" -T "TITLE=%t" -T "ALBUM=%g" -T "DATE=%y" -T "TRACKNUMBER=%n" -T "GENRE=%m" -T "COMMENT=ripped by Oleandris" %s


TOC of the extracted CD

Track | Start | Length | Start sector | End sector
––––––––––––––––––––––––––––-
1 | 0:00.00 | 9:34.72 | 0 | 43121
2 | 9:34.72 | 3:47.22 | 43122 | 60168
3 | 13:22.19 | 4:46.18 | 60169 | 81636
4 | 18:08.37 | 5:14.68 | 81637 | 105254
5 | 23:23.30 | 5:55.71 | 105255 | 131950
6 | 29:19.26 | 4:51.33 | 131951 | 153808
7 | 34:10.59 | 6:57.10 | 153809 | 185093
8 | 41:07.69 | 5:32.47 | 185094 | 210040
9 | 46:40.41 | 5:25.39 | 210041 | 234454
10 | 52:06.05 | 3:22.73 | 234455 | 249677
11 | 55:29.03 | 4:47.60 | 249678 | 271262
12 | 60:16.63 | 5:09.29 | 271263 | 294466
13 | 65:26.17 | 6:38.12 | 294467 | 324328
14 | 72:04.29 | 7:14.66 | 324329 | 356944


Track 1

Filename F:\ЗАГРУЗКИ\ Buddha-Bar Collection I-XIV\14. Buddha-Bar XIV By Ravin 2CD (2012)\CD2 Bhangra\01. 22ROCKETS - Umma.wav

Pre-gap length 0:00:02.00

Peak level 98.8 %
Extraction speed 4.4 X
Track quality 100.0 %
Test CRC 3122BD36
Copy CRC 3122BD36
Accurately ripped (confidence 2) [3BF335F4]
Copy OK

Track 2

Filename F:\ЗАГРУЗКИ\ Buddha-Bar Collection I-XIV\14. Buddha-Bar XIV By Ravin 2CD (2012)\CD2 Bhangra\02. Rosa Lux - Min Klub Forst Feat. Alberte & Josefine Winding.wav

Peak level 98.8 %
Extraction speed 4.6 X
Track quality 100.0 %
Test CRC E2A9A7A5
Copy CRC E2A9A7A5
Accurately ripped (confidence 2) [F5AAE1D2]
Copy OK

Track 3

Filename F:\ЗАГРУЗКИ\ Buddha-Bar Collection I-XIV\14. Buddha-Bar XIV By Ravin 2CD (2012)\CD2 Bhangra\03. Nora En Pure - Saltwater.wav

Peak level 98.6 %
Extraction speed 4.1 X
Track quality 99.9 %
Test CRC B85BD031
Copy CRC B85BD031
Accurately ripped (confidence 2) [9A2B77C2]
Copy OK

Track 4

Filename F:\ЗАГРУЗКИ\ Buddha-Bar Collection I-XIV\14. Buddha-Bar XIV By Ravin 2CD (2012)\CD2 Bhangra\04. Flo Mrzdk & Juliet Sikora - Shanti.wav

Peak level 98.8 %
Extraction speed 5.4 X
Track quality 100.0 %
Test CRC 0F655278
Copy CRC 0F655278
Accurately ripped (confidence 2) [EB0D3919]
Copy OK

Track 5

Filename F:\ЗАГРУЗКИ\ Buddha-Bar Collection I-XIV\14. Buddha-Bar XIV By Ravin 2CD (2012)\CD2 Bhangra\05. Nacho Sotomayor - Return To Mykonos (PrOmid Remix).wav

Peak level 98.8 %
Extraction speed 5.9 X
Track quality 100.0 %
Test CRC 0390FAA3
Copy CRC 0390FAA3
Accurately ripped (confidence 2) [A6B2FA52]
Copy OK

Track 6

Filename F:\ЗАГРУЗКИ\ Buddha-Bar Collection I-XIV\14. Buddha-Bar XIV By Ravin 2CD (2012)\CD2 Bhangra\06. Mikael Simpson - Inden Du Falder I Sovn (Lulu Rouge Remix).wav

Peak level 98.8 %
Extraction speed 6.1 X
Track quality 100.0 %
Test CRC 31F73B5B
Copy CRC 31F73B5B
Accurately ripped (confidence 2) [B4315D2F]
Copy OK

Track 7

Filename F:\ЗАГРУЗКИ\ Buddha-Bar Collection I-XIV\14. Buddha-Bar XIV By Ravin 2CD (2012)\CD2 Bhangra\07. Sugar House Feat. Marieke Meijer - Desire.wav

Peak level 98.8 %
Extraction speed 6.7 X
Track quality 100.0 %
Test CRC 37A06B36
Copy CRC 37A06B36
Accurately ripped (confidence 2) [B8E9EC95]
Copy OK

Track 8

Filename F:\ЗАГРУЗКИ\ Buddha-Bar Collection I-XIV\14. Buddha-Bar XIV By Ravin 2CD (2012)\CD2 Bhangra\08. Vinayak A - Losing Myself Feat. Dhrithi (Alexey Sonar Remix).wav

Peak level 98.8 %
Extraction speed 6.8 X
Track quality 100.0 %
Test CRC B298312B
Copy CRC B298312B
Accurately ripped (confidence 2) [66DE6927]
Copy OK

Track 9

Filename F:\ЗАГРУЗКИ\ Buddha-Bar Collection I-XIV\14. Buddha-Bar XIV By Ravin 2CD (2012)\CD2 Bhangra\09. Denis Dallan - Liberta'.wav

Peak level 98.8 %
Extraction speed 7.1 X
Track quality 100.0 %
Test CRC CB785461
Copy CRC CB785461
Accurately ripped (confidence 2) [46B4B917]
Copy OK

Track 10

Filename F:\ЗАГРУЗКИ\ Buddha-Bar Collection I-XIV\14. Buddha-Bar XIV By Ravin 2CD (2012)\CD2 Bhangra\10. Consoul Trainin & Pink Noisy - Litanie Des Saints.wav

Peak level 98.8 %
Extraction speed 6.8 X
Track quality 100.0 %
Test CRC B6FB5038
Copy CRC B6FB5038
Accurately ripped (confidence 2) [A475AA8F]
Copy OK

Track 11

Filename F:\ЗАГРУЗКИ\ Buddha-Bar Collection I-XIV\14. Buddha-Bar XIV By Ravin 2CD (2012)\CD2 Bhangra\11. Rico Bernasconi Vs Sasha Dith - Bollywood (Saxo Club Mix).wav

Peak level 98.8 %
Extraction speed 7.4 X
Track quality 100.0 %
Test CRC A25DA70A
Copy CRC A25DA70A
Accurately ripped (confidence 2) [6DB67868]
Copy OK

Track 12

Filename F:\ЗАГРУЗКИ\ Buddha-Bar Collection I-XIV\14. Buddha-Bar XIV By Ravin 2CD (2012)\CD2 Bhangra\12. Alex Barattini - Let Me Kiss You.wav

Peak level 98.8 %
Extraction speed 7.7 X
Track quality 100.0 %
Test CRC 90B7EB34
Copy CRC 90B7EB34
Accurately ripped (confidence 2) [50C68D5F]
Copy OK

Track 13

Filename F:\ЗАГРУЗКИ\ Buddha-Bar Collection I-XIV\14. Buddha-Bar XIV By Ravin 2CD (2012)\CD2 Bhangra\13. Sezer Uysal Featuring Chinar - Baku (Dinka Remix).wav

Peak level 98.8 %
Extraction speed 8.1 X
Track quality 100.0 %
Test CRC 3CFA5661
Copy CRC 3CFA5661
Accurately ripped (confidence 2) [55CB64AF]
Copy OK

Track 14

Filename F:\ЗАГРУЗКИ\ Buddha-Bar Collection I-XIV\14. Buddha-Bar XIV By Ravin 2CD (2012)\CD2 Bhangra\14. Gorins Feat. Shena - I Grieve For Spring.wav

Peak level 98.8 %
Extraction speed 8.5 X
Track quality 100.0 %
Test CRC C90EDD38
Copy CRC C90EDD38
Accurately ripped (confidence 2) [66AB509C]
Copy OK


All tracks accurately ripped

No errors occurred

End of status report

==== Log checksum 8BD643085DB01B7F2C6CE18C86776A0A0FD95895DCC2C689BAE65463D7423460 ====

foobar2000 1.2 / Dynamic Range Meter 1.1.1
log date: 2013-10-31 20:24:55

––––––––––––––––––––––––––––––––––––––––
Analyzed: 22ROCKETS / Bhangra CD2 (1)
Alex Barattini / Bhangra CD2 (2)
Consoul Trainin & Pink Noisy / Bhangra CD2 (3)
Denis Dallan / Bhangra CD2 (4)
Flo Mrzdk & Juliet Sikora / Bhangra CD2 (5)
Gorins Feat. Shena / Bhangra CD2 (6)
Mikael Simpson / Bhangra CD2 (7)
Nacho Sotomayor / Bhangra CD2 (8)
Nora En Pure / Bhangra CD2 (9)
Rico Bernasconi Vs Sasha Dith / Bhangra CD2 (10)
Rosa Lux / Bhangra CD2 (11)
Sezer Uysal Featuring Chinar / Bhangra CD2 (12)
Sugar House Feat. Marieke Meijer / Bhangra CD2 (13)
Vinayak A / Bhangra CD2 (14)
––––––––––––––––––––––––––––––––––––––––

DR Peak RMS Duration Track
––––––––––––––––––––––––––––––––––––––––
DR6 -0.10 dB -7.86 dB 9:35 01-Umma
DR6 -0.10 dB -7.39 dB 5:09 12-Let Me Kiss You
DR6 -0.10 dB -7.77 dB 3:23 10-Litanie Des Saints
DR6 -0.10 dB -8.87 dB 5:26 09-Liberta'
DR6 -0.10 dB -8.08 dB 5:15 04-Shanti
DR5 -0.10 dB -6.73 dB 7:15 14-I Grieve For Spring
DR7 -0.10 dB -7.92 dB 4:51 06-Inden Du Falder I Sovn (Lulu Rouge Remix)
DR6 -0.10 dB -7.67 dB 5:56 05-Return To Mykonos (PrOmid Remix)
DR5 -0.12 dB -7.39 dB 4:46 03-Saltwater
DR6 -0.10 dB -8.09 dB 4:48 11-Bollywood (Saxo Club Mix)
DR8 -0.10 dB -9.46 dB 3:47 02-Min Klub Forst Feat. Alberte & Josefine Winding
DR5 -0.10 dB -6.74 dB 6:38 13-Baku (Dinka Remix)
DR7 -0.10 dB -7.99 dB 6:57 07-Desire
DR6 -0.10 dB -7.35 dB 5:33 08-Losing Myself Feat. Dhrithi (Alexey Sonar Remix)
––––––––––––––––––––––––––––––––––––––––

Number of tracks: 14
Official DR value: DR6

Samplerate: 44100 Hz
Channels: 2
Bits per sample: 16
Bitrate: 856 kbps
Codec: FLAC
================================================================================

VA - Buddha-Bar XIV By Ravin (2012) 2CDs

VA - Buddha-Bar XIV By Ravin (2012) 2CDs