Tags
Language
Tags

VA - Buddha-Bar XV By Ravin (2013) 2CDs

Posted By: Designol
VA - Buddha-Bar XV By Ravin (2013) 2CDs

VA - Buddha-Bar XV By Ravin (2013) 2CDs
EAC | FLAC | Tracks (Cue&Log) ~ 960 Mb | Mp3 (CBR320) ~ 338 Mb | Scans ~ 101 mb
Lounge, Chillout, Ethnic | Label: George V Records | # 3271612 | Time: 02:27:01

After India’s heat and its vibrant colors, Buddha-Bar takes us to the wild East to discover Russia. Emblematic and mysterious country, Russia offers a wide array of climates, cultures and arts. That last aspect has seduced DJ Ravin and led him to have Buddha-Bar XV focused on this enchanting atmosphere. Take a journey to these unexplored territories; walk through Russia from east to west and from North to South to the sweet sounds of Russian traditional instruments and vocals. The first CD, acoustic and enchanting, will take you through the steppe, listening Bliss, Yasmine Hamdan, Thor… The second CD, more infused with electronic music, will immerse you in Russia’s warm nights with artists such as Dim Vach or Sean Bay.

VA - Buddha-Bar XV By Ravin (2013) 2CDs

VA - Buddha-Bar XV By Ravin (2013) 2CDs


Tracklist:

CD1:

01. Bliss - Absence Of Fear (05:03)
02. Dale Cornelius - Lament N°2 (Thor Tibetan Bell Edit) (04:07)
03. Dim Vach - In Love With A Mermaid (03:56)
04. Shaheen Sheik - Lullaby For Samiyah (03:15)
05. Bart & Baker Feat. Marcella Puppini - Stop Googling Me! (ROGAN Future Soul Remix) (03:33)
06. Balkan Fanatik Feat. Prophet (Teruo Artistry) And Janga - Ha Te Tudnad/Love Gone Wrong (03:12)
07. Yasmine Hamdan - Shouei (03:10)
08. Uttara Kuru - Neyuki (05:19)
09. Thor - Chamka (04:47)
10. Zoe - Let Me Go (03:43)
11. Stan Kolev - Anandi (03:45)
12. Yin And Yang - Golden Sun (Feat. Tiefblau) (04:06)
13. Mihai Toma - Flutaka (03:39)
14. Niyaz - Mazaar (05:35)
15. George Chatzis - Thracian Vibe (04:24)
16. Ganga - The Wind (Feat. Helle Chirholm) (04:31)
17. SoulAvenue - Padmasundari (05:55)

CD2:

01. Jean & Masonaise - Mashti Edit - Indian Man Of Trouble (04:24)
02. Aki Bergen & Pezzner - Tarareando Feat. Terry Grant (05:31)
03. Riva Starr Feat. Rssll - Absence (Original Extended) (04:45)
04. Rocco - Saharien Child (Original Mix) (05:21)
05. Andrew Richardson Feat. Sarina Suno - 'The Violin Diva' Hashim Theme (Original Mix) (03:42)
06. Nicone & Sascha Braemer Feat. Narra - Raoui (Original Version) (06:22)
07. HP. Hoeger - Delhi Oneway (06:06)
08. Bevan Godden & Arnaud D - Ntobenthle (Momba Mix) (04:38)
09. Mariza - Meu Fado Meu (Nuno Cunha Souldillaz Remix) (04:51)
10. Fabrice Dayan & Peter Nalitch - My Guitar (04:18)
11. Mikael Delta - The Last Storm Of Words (Dimi Phaze Remix) (05:06)
12. Matvey Emerson - Luna (Original Mix) (05:30)
13. Stan Kolev & Dinka Feat. Albena Veskova - Luminal (Original Vocal Mix) (06:53)
14. Sean Bay Feat. Arabella - Maktoub 2 (Original Mix) (03:50)
15. DJ Kaan Gokman - Bellycious (03:31)


Exact Audio Copy V1.0 beta 1 from 15. November 2010

EAC extraction logfile from 25. September 2013, 10:37

Various / Buddha Bar XV - Chistie Prudy CD 1

Used drive : ASUS DRW-24B3ST Adapter: 1 ID: 2

Read mode : Secure
Utilize accurate stream : Yes
Defeat audio cache : Yes
Make use of C2 pointers : No

Read offset correction : 6
Overread into Lead-In and Lead-Out : No
Fill up missing offset samples with silence : Yes
Delete leading and trailing silent blocks : No
Null samples used in CRC calculations : Yes
Used interface : Native Win32 interface for Win NT & 2000
Gap handling : Appended to previous track

Used output format : User Defined Encoder
Selected bitrate : 896 kBit/s
Quality : High
Add ID3 tag : No
Command line compressor : C:\Program Files (x86)\Exact Audio Copy\Flac\flac.exe
Additional command line options : -8 -V -T "ARTIST=%a" -T "TITLE=%t" -T "ALBUM=%g" -T "DATE=%y" -T "TRACKNUMBER=%n" -T "GENRE=%m" -T "COMMENT=ripped by Oleandris" %s


TOC of the extracted CD

Track | Start | Length | Start sector | End sector
––––––––––––––––––––––––––––-
1 | 0:00.00 | 5:02.71 | 0 | 22720
2 | 5:02.71 | 4:07.28 | 22721 | 41273
3 | 9:10.24 | 3:56.60 | 41274 | 59033
4 | 13:07.09 | 3:15.20 | 59034 | 73678
5 | 16:22.29 | 3:33.23 | 73679 | 89676
6 | 19:55.52 | 3:12.22 | 89677 | 104098
7 | 23:07.74 | 3:10.45 | 104099 | 118393
8 | 26:18.44 | 5:19.36 | 118394 | 142354
9 | 31:38.05 | 4:47.40 | 142355 | 163919
10 | 36:25.45 | 3:43.59 | 163920 | 180703
11 | 40:09.29 | 3:45.49 | 180704 | 197627
12 | 43:55.03 | 4:06.22 | 197628 | 216099
13 | 48:01.25 | 3:39.37 | 216100 | 232561
14 | 51:40.62 | 5:35.45 | 232562 | 257731
15 | 57:16.32 | 4:24.41 | 257732 | 277572
16 | 61:40.73 | 4:31.18 | 277573 | 297915
17 | 66:12.16 | 5:55.32 | 297916 | 324572


Track 1

Filename F:\ЗАГРУЗКИ\ Buddha-Bar XV (By Ravin) 2CD (2013)\CD1 - Chistie Prudy\01. Bliss - Absence Of Fear.wav

Pre-gap length 0:00:02.00

Peak level 93.2 %
Extraction speed 3.7 X
Track quality 100.0 %
Test CRC 013CAC66
Copy CRC 013CAC66
Accurately ripped (confidence 7) [3B18756F]
Copy OK

Track 2

Filename F:\ЗАГРУЗКИ\ Buddha-Bar XV (By Ravin) 2CD (2013)\CD1 - Chistie Prudy\02. Dale Cornelius - Lament N°2 (Thor Tibetan Bell Edit).wav

Peak level 100.0 %
Extraction speed 3.2 X
Track quality 99.9 %
Test CRC 81F4F0B2
Copy CRC 81F4F0B2
Accurately ripped (confidence 6) [E864380B]
Copy OK

Track 3

Filename F:\ЗАГРУЗКИ\ Buddha-Bar XV (By Ravin) 2CD (2013)\CD1 - Chistie Prudy\03. Dim Vach - In Love With A Mermaid.wav

Peak level 100.0 %
Extraction speed 4.3 X
Track quality 100.0 %
Test CRC D7670190
Copy CRC D7670190
Accurately ripped (confidence 6) [B697C4F1]
Copy OK

Track 4

Filename F:\ЗАГРУЗКИ\ Buddha-Bar XV (By Ravin) 2CD (2013)\CD1 - Chistie Prudy\04. Shaheen Sheik - Lullaby For Samiyah.wav

Peak level 100.0 %
Extraction speed 3.4 X
Track quality 99.9 %
Test CRC 94FDE5B8
Copy CRC 94FDE5B8
Accurately ripped (confidence 6) [D6CA6092]
Copy OK

Track 5

Filename F:\ЗАГРУЗКИ\ Buddha-Bar XV (By Ravin) 2CD (2013)\CD1 - Chistie Prudy\05. Bart & Baker Feat. Marcella Puppini - Stop Googling Me! (ROGAN Future Soul Remix).wav

Peak level 100.0 %
Extraction speed 4.7 X
Track quality 100.0 %
Test CRC 5348DE7C
Copy CRC 5348DE7C
Accurately ripped (confidence 6) [DC392536]
Copy OK

Track 6

Filename F:\ЗАГРУЗКИ\ Buddha-Bar XV (By Ravin) 2CD (2013)\CD1 - Chistie Prudy\06. Balkan Fanatik Feat. Prophet (Teruo Artistry) And Janga - Ha Te Tudnad,Love Gone Wrong.wav

Peak level 100.0 %
Extraction speed 4.8 X
Track quality 100.0 %
Test CRC BA4EBF09
Copy CRC BA4EBF09
Accurately ripped (confidence 7) [B05F9691]
Copy OK

Track 7

Filename F:\ЗАГРУЗКИ\ Buddha-Bar XV (By Ravin) 2CD (2013)\CD1 - Chistie Prudy\07. Yasmine Hamdan - Shouei.wav

Peak level 99.9 %
Extraction speed 3.8 X
Track quality 99.9 %
Test CRC D27892AD
Copy CRC D27892AD
Accurately ripped (confidence 6) [33C18588]
Copy OK

Track 8

Filename F:\ЗАГРУЗКИ\ Buddha-Bar XV (By Ravin) 2CD (2013)\CD1 - Chistie Prudy\08. Uttara Kuru - Neyuki.wav

Peak level 97.4 %
Extraction speed 5.6 X
Track quality 100.0 %
Test CRC 0CE358AA
Copy CRC 0CE358AA
Accurately ripped (confidence 6) [F0C090FC]
Copy OK

Track 9

Filename F:\ЗАГРУЗКИ\ Buddha-Bar XV (By Ravin) 2CD (2013)\CD1 - Chistie Prudy\09. Thor - Chamka.wav

Peak level 99.9 %
Extraction speed 4.8 X
Track quality 99.9 %
Test CRC 73DBDF97
Copy CRC 73DBDF97
Accurately ripped (confidence 6) [79854141]
Copy OK

Track 10

Filename F:\ЗАГРУЗКИ\ Buddha-Bar XV (By Ravin) 2CD (2013)\CD1 - Chistie Prudy\10. Zoe - Let Me Go.wav

Peak level 100.0 %
Extraction speed 4.5 X
Track quality 99.9 %
Test CRC 0E2132E5
Copy CRC 0E2132E5
Accurately ripped (confidence 7) [F2FA44AD]
Copy OK

Track 11

Filename F:\ЗАГРУЗКИ\ Buddha-Bar XV (By Ravin) 2CD (2013)\CD1 - Chistie Prudy\11. Stan Kolev - Anandi.wav

Peak level 100.0 %
Extraction speed 6.0 X
Track quality 100.0 %
Test CRC 299D7C58
Copy CRC 299D7C58
Accurately ripped (confidence 7) [55FD8541]
Copy OK

Track 12

Filename F:\ЗАГРУЗКИ\ Buddha-Bar XV (By Ravin) 2CD (2013)\CD1 - Chistie Prudy\12. Yin And Yang - Golden Sun (Feat. Tiefblau).wav

Peak level 99.9 %
Extraction speed 6.3 X
Track quality 100.0 %
Test CRC 321C1C39
Copy CRC 321C1C39
Accurately ripped (confidence 6) [FFD22419]
Copy OK

Track 13

Filename F:\ЗАГРУЗКИ\ Buddha-Bar XV (By Ravin) 2CD (2013)\CD1 - Chistie Prudy\13. Mihai Toma - Flutaka.wav

Peak level 100.0 %
Extraction speed 5.0 X
Track quality 99.9 %
Test CRC 6F3FC22E
Copy CRC 6F3FC22E
Accurately ripped (confidence 6) [BDF3DF35]
Copy OK

Track 14

Filename F:\ЗАГРУЗКИ\ Buddha-Bar XV (By Ravin) 2CD (2013)\CD1 - Chistie Prudy\14. Niyaz - Mazaar.wav

Peak level 99.8 %
Extraction speed 7.0 X
Track quality 100.0 %
Test CRC 180CF6DF
Copy CRC 180CF6DF
Accurately ripped (confidence 6) [EA4D7448]
Copy OK

Track 15

Filename F:\ЗАГРУЗКИ\ Buddha-Bar XV (By Ravin) 2CD (2013)\CD1 - Chistie Prudy\15. George Chatzis - Thracian Vibe.wav

Peak level 100.0 %
Extraction speed 7.0 X
Track quality 100.0 %
Test CRC B66CDBB3
Copy CRC B66CDBB3
Accurately ripped (confidence 6) [B2CADDBA]
Copy OK

Track 16

Filename F:\ЗАГРУЗКИ\ Buddha-Bar XV (By Ravin) 2CD (2013)\CD1 - Chistie Prudy\16. Ganga - The Wind (Feat. Helle Chirholm).wav

Peak level 100.0 %
Extraction speed 7.2 X
Track quality 100.0 %
Test CRC 52334D3C
Copy CRC 52334D3C
Accurately ripped (confidence 6) [0C6B83B2]
Copy OK

Track 17

Filename F:\ЗАГРУЗКИ\ Buddha-Bar XV (By Ravin) 2CD (2013)\CD1 - Chistie Prudy\17. SoulAvenue - Padmasundari.wav

Peak level 99.9 %
Extraction speed 7.7 X
Track quality 100.0 %
Test CRC 2CBA1C90
Copy CRC 2CBA1C90
Accurately ripped (confidence 6) [886FBA80]
Copy OK


All tracks accurately ripped

No errors occurred

End of status report

==== Log checksum 005FDA2303FB1BA91431BA2C272658342CCF313BF29812BD41AE4E826401C0D8 ====

foobar2000 1.2 / Dynamic Range Meter 1.1.1
log date: 2013-10-31 00:11:49

––––––––––––––––––––––––––––––––––––––––
Analyzed: Balkan Fanatik Feat. Prophet (Teruo Artistry) And Janga / Buddha Bar XV - Chistie Prudy CD 1 (1)
Bart & Baker Feat. Marcella Puppini / Buddha Bar XV - Chistie Prudy CD 1 (2)
Bliss / Buddha Bar XV - Chistie Prudy CD 1 (3)
Dale Cornelius / Buddha Bar XV - Chistie Prudy CD 1 (4)
Dim Vach / Buddha Bar XV - Chistie Prudy CD 1 (5)
Ganga / Buddha Bar XV - Chistie Prudy CD 1 (6)
George Chatzis / Buddha Bar XV - Chistie Prudy CD 1 (7)
Mihai Toma / Buddha Bar XV - Chistie Prudy CD 1 (8)
Niyaz / Buddha Bar XV - Chistie Prudy CD 1 (9)
Shaheen Sheik / Buddha Bar XV - Chistie Prudy CD 1 (10)
SoulAvenue / Buddha Bar XV - Chistie Prudy CD 1 (11)
Stan Kolev / Buddha Bar XV - Chistie Prudy CD 1 (12)
Thor / Buddha Bar XV - Chistie Prudy CD 1 (13)
Uttara Kuru / Buddha Bar XV - Chistie Prudy CD 1 (14)
Yasmine Hamdan / Buddha Bar XV - Chistie Prudy CD 1 (15)
Yin And Yang / Buddha Bar XV - Chistie Prudy CD 1 (16)
Zoe / Buddha Bar XV - Chistie Prudy CD 1 (17)
––––––––––––––––––––––––––––––––––––––––

DR Peak RMS Duration Track
––––––––––––––––––––––––––––––––––––––––
DR6 0.00 dB -7.79 dB 3:12 06-Ha Te Tudnad/Love Gone Wrong
DR5 0.00 dB -7.42 dB 3:33 05-Stop Googling Me! (ROGAN Future Soul Remix)
DR7 -0.61 dB -9.59 dB 5:03 01-Absence Of Fear
DR7 0.00 dB -8.32 dB 4:07 02-Lament N°2 (Thor Tibetan Bell Edit)
DR7 0.00 dB -9.05 dB 3:57 03-In Love With A Mermaid
DR10 0.00 dB -12.04 dB 4:31 16-The Wind (Feat. Helle Chirholm)
DR9 0.00 dB -10.35 dB 4:25 15-Thracian Vibe
DR4 0.00 dB -5.45 dB 3:39 13-Flutaka
DR7 -0.01 dB -8.77 dB 5:36 14-Mazaar
DR7 0.00 dB -8.32 dB 3:15 04-Lullaby For Samiyah
DR9 -0.01 dB -10.41 dB 5:55 17-Padmasundari
DR6 0.00 dB -7.58 dB 3:46 11-Anandi
DR8 -0.01 dB -9.28 dB 4:48 09-Chamka
DR7 -0.23 dB -8.86 dB 5:19 08-Neyuki
DR7 -0.01 dB -8.90 dB 3:11 07-Shouei
DR8 -0.01 dB -9.06 dB 4:06 12-Golden Sun (Feat. Tiefblau)
DR8 0.00 dB -9.46 dB 3:44 10-Let Me Go
––––––––––––––––––––––––––––––––––––––––

Number of tracks: 17
Official DR value: DR7

Samplerate: 44100 Hz
Channels: 2
Bits per sample: 16
Bitrate: 897 kbps
Codec: FLAC
================================================================================


Exact Audio Copy V1.0 beta 1 from 15. November 2010

EAC extraction logfile from 25. September 2013, 12:36

Various / Buddha Bar XV - Kitai Gorod CD 2

Used drive : PLEXTOR DVDR PX-L890SA Adapter: 1 ID: 4

Read mode : Secure
Utilize accurate stream : Yes
Defeat audio cache : Yes
Make use of C2 pointers : No

Read offset correction : 6
Overread into Lead-In and Lead-Out : No
Fill up missing offset samples with silence : Yes
Delete leading and trailing silent blocks : No
Null samples used in CRC calculations : Yes
Used interface : Native Win32 interface for Win NT & 2000
Gap handling : Appended to previous track

Used output format : User Defined Encoder
Selected bitrate : 896 kBit/s
Quality : High
Add ID3 tag : No
Command line compressor : C:\Program Files (x86)\Exact Audio Copy\Flac\flac.exe
Additional command line options : -8 -V -T "ARTIST=%a" -T "TITLE=%t" -T "ALBUM=%g" -T "DATE=%y" -T "TRACKNUMBER=%n" -T "GENRE=%m" -T "COMMENT=ripped by Oleandris" %s


TOC of the extracted CD

Track | Start | Length | Start sector | End sector
––––––––––––––––––––––––––––-
1 | 0:00.00 | 4:24.23 | 0 | 19822
2 | 4:24.23 | 5:31.16 | 19823 | 44663
3 | 9:55.39 | 4:45.47 | 44664 | 66085
4 | 14:41.11 | 5:21.23 | 66086 | 90183
5 | 20:02.34 | 3:42.11 | 90184 | 106844
6 | 23:44.45 | 6:22.57 | 106845 | 135551
7 | 30:07.27 | 6:06.53 | 135552 | 163054
8 | 36:14.05 | 4:38.31 | 163055 | 183935
9 | 40:52.36 | 4:51.63 | 183936 | 205823
10 | 45:44.24 | 4:18.18 | 205824 | 225191
11 | 50:02.42 | 5:05.74 | 225192 | 248140
12 | 55:08.41 | 5:30.00 | 248141 | 272890
13 | 60:38.41 | 6:53.02 | 272891 | 303867
14 | 67:31.43 | 3:50.17 | 303868 | 321134
15 | 71:21.60 | 3:31.55 | 321135 | 337014


Track 1

Filename F:\ЗАГРУЗКИ\ Buddha-Bar XV (By Ravin) 2CD (2013)\CD2 - Kitai Gorod\01. Jean & Masonaise - Mashti Edit - Indian Man Of Trouble.wav

Pre-gap length 0:00:02.00

Peak level 99.9 %
Extraction speed 3.1 X
Track quality 99.9 %
Test CRC AA3D5461
Copy CRC AA3D5461
Accurately ripped (confidence 6) [5D58E89C]
Copy OK

Track 2

Filename F:\ЗАГРУЗКИ\ Buddha-Bar XV (By Ravin) 2CD (2013)\CD2 - Kitai Gorod\02. Aki Bergen & Pezzner - Tarareando Feat. Terry Grant.wav

Peak level 100.0 %
Extraction speed 4.3 X
Track quality 100.0 %
Test CRC 8AB88AB2
Copy CRC 8AB88AB2
Accurately ripped (confidence 6) [18C7B810]
Copy OK

Track 3

Filename F:\ЗАГРУЗКИ\ Buddha-Bar XV (By Ravin) 2CD (2013)\CD2 - Kitai Gorod\03. Riva Starr Feat. Rssll - Absence (Original Extended).wav

Peak level 100.0 %
Extraction speed 4.7 X
Track quality 100.0 %
Test CRC 205CCDFF
Copy CRC 205CCDFF
Accurately ripped (confidence 6) [064F1B9F]
Copy OK

Track 4

Filename F:\ЗАГРУЗКИ\ Buddha-Bar XV (By Ravin) 2CD (2013)\CD2 - Kitai Gorod\04. Rocco - Saharien Child (Original Mix).wav

Peak level 100.0 %
Extraction speed 5.0 X
Track quality 100.0 %
Test CRC CD57BAF2
Copy CRC CD57BAF2
Accurately ripped (confidence 6) [433D92C5]
Copy OK

Track 5

Filename F:\ЗАГРУЗКИ\ Buddha-Bar XV (By Ravin) 2CD (2013)\CD2 - Kitai Gorod\05. Andrew Richardson Feat. Sarina Suno - 'The Violin Diva' Hashim Theme (Original Mix).wav

Peak level 100.0 %
Extraction speed 4.0 X
Track quality 99.9 %
Test CRC 153B5FDB
Copy CRC 153B5FDB
Accurately ripped (confidence 6) [A828154D]
Copy OK

Track 6

Filename F:\ЗАГРУЗКИ\ Buddha-Bar XV (By Ravin) 2CD (2013)\CD2 - Kitai Gorod\06. Nicone & Sascha Braemer Feat. Narra - Raoui (Original Version).wav

Peak level 100.0 %
Extraction speed 5.8 X
Track quality 100.0 %
Test CRC A85C91E2
Copy CRC A85C91E2
Accurately ripped (confidence 6) [E9C7E037]
Copy OK

Track 7

Filename F:\ЗАГРУЗКИ\ Buddha-Bar XV (By Ravin) 2CD (2013)\CD2 - Kitai Gorod\07. HP. Hoeger - Delhi Oneway.wav

Peak level 100.0 %
Extraction speed 6.2 X
Track quality 100.0 %
Test CRC 5BF2FD91
Copy CRC 5BF2FD91
Accurately ripped (confidence 6) [F90C3225]
Copy OK

Track 8

Filename F:\ЗАГРУЗКИ\ Buddha-Bar XV (By Ravin) 2CD (2013)\CD2 - Kitai Gorod\08. Bevan Godden & Arnaud D - Ntobenthle (Momba Mix).wav

Peak level 100.0 %
Extraction speed 6.2 X
Track quality 100.0 %
Test CRC 04075CE0
Copy CRC 04075CE0
Accurately ripped (confidence 6) [9BFD596E]
Copy OK

Track 9

Filename F:\ЗАГРУЗКИ\ Buddha-Bar XV (By Ravin) 2CD (2013)\CD2 - Kitai Gorod\09. Mariza - Meu Fado Meu (Nuno Cunha Souldillaz Remix).wav

Peak level 100.0 %
Extraction speed 6.5 X
Track quality 100.0 %
Test CRC 379FE09A
Copy CRC 379FE09A
Accurately ripped (confidence 6) [9498D264]
Copy OK

Track 10

Filename F:\ЗАГРУЗКИ\ Buddha-Bar XV (By Ravin) 2CD (2013)\CD2 - Kitai Gorod\10. Fabrice Dayan & Peter Nalitch - My Guitar.wav

Peak level 100.0 %
Extraction speed 6.6 X
Track quality 100.0 %
Test CRC 2678011C
Copy CRC 2678011C
Accurately ripped (confidence 7) [89EA2ACC]
Copy OK

Track 11

Filename F:\ЗАГРУЗКИ\ Buddha-Bar XV (By Ravin) 2CD (2013)\CD2 - Kitai Gorod\11. Mikael Delta - The Last Storm Of Words (Dimi Phaze Remix).wav

Peak level 100.0 %
Extraction speed 7.1 X
Track quality 100.0 %
Test CRC D8BDE41B
Copy CRC D8BDE41B
Accurately ripped (confidence 6) [28A191DA]
Copy OK

Track 12

Filename F:\ЗАГРУЗКИ\ Buddha-Bar XV (By Ravin) 2CD (2013)\CD2 - Kitai Gorod\12. Matvey Emerson - Luna (Original Mix).wav

Peak level 100.0 %
Extraction speed 7.3 X
Track quality 100.0 %
Test CRC A2877BCF
Copy CRC A2877BCF
Accurately ripped (confidence 6) [A1816A24]
Copy OK

Track 13

Filename F:\ЗАГРУЗКИ\ Buddha-Bar XV (By Ravin) 2CD (2013)\CD2 - Kitai Gorod\13. Stan Kolev & Dinka Feat. Albena Veskova - Luminal (Original Vocal Mix).wav

Peak level 100.0 %
Extraction speed 7.9 X
Track quality 100.0 %
Test CRC D6B9FC38
Copy CRC D6B9FC38
Accurately ripped (confidence 6) [7F7D0FD5]
Copy OK

Track 14

Filename F:\ЗАГРУЗКИ\ Buddha-Bar XV (By Ravin) 2CD (2013)\CD2 - Kitai Gorod\14. Sean Bay Feat. Arabella - Maktoub 2 (Original Mix).wav

Peak level 100.0 %
Extraction speed 7.5 X
Track quality 100.0 %
Test CRC AA08177A
Copy CRC AA08177A
Accurately ripped (confidence 6) [FF04EA3B]
Copy OK

Track 15

Filename F:\ЗАГРУЗКИ\ Buddha-Bar XV (By Ravin) 2CD (2013)\CD2 - Kitai Gorod\15. DJ Kaan Gokman - Bellycious.wav

Peak level 100.0 %
Extraction speed 7.5 X
Track quality 100.0 %
Test CRC 1C077630
Copy CRC 1C077630
Accurately ripped (confidence 6) [99CC6C39]
Copy OK


All tracks accurately ripped

No errors occurred

End of status report

==== Log checksum DBBF044DDC3ADA393BC2C7C6B714A5E747E484E9A5FA3784DBB2F94325C0199F ====

foobar2000 1.2 / Dynamic Range Meter 1.1.1
log date: 2013-10-31 00:12:10

––––––––––––––––––––––––––––––––––––––––
Analyzed: Aki Bergen & Pezzner / Buddha Bar XV - Kitai Gorod CD 2 (1)
Andrew Richardson Feat. Sarina Suno / Buddha Bar XV - Kitai Gorod CD 2 (2)
Bevan Godden & Arnaud D / Buddha Bar XV - Kitai Gorod CD 2 (3)
DJ Kaan Gokman / Buddha Bar XV - Kitai Gorod CD 2 (4)
Fabrice Dayan & Peter Nalitch / Buddha Bar XV - Kitai Gorod CD 2 (5)
HP. Hoeger / Buddha Bar XV - Kitai Gorod CD 2 (6)
Jean & Masonaise - Mashti Edit / Buddha Bar XV - Kitai Gorod CD 2 (7)
Mariza / Buddha Bar XV - Kitai Gorod CD 2 (8)
Matvey Emerson / Buddha Bar XV - Kitai Gorod CD 2 (9)
Mikael Delta / Buddha Bar XV - Kitai Gorod CD 2 (10)
Nicone & Sascha Braemer Feat. Narra / Buddha Bar XV - Kitai Gorod CD 2 (11)
Riva Starr Feat. Rssll / Buddha Bar XV - Kitai Gorod CD 2 (12)
Rocco / Buddha Bar XV - Kitai Gorod CD 2 (13)
Sean Bay Feat. Arabella / Buddha Bar XV - Kitai Gorod CD 2 (14)
Stan Kolev & Dinka Feat. Albena Veskova / Buddha Bar XV - Kitai Gorod CD 2 (15)
––––––––––––––––––––––––––––––––––––––––

DR Peak RMS Duration Track
––––––––––––––––––––––––––––––––––––––––
DR6 0.00 dB -8.09 dB 5:31 02-Tarareando Feat. Terry Grant
DR7 0.00 dB -8.31 dB 3:42 05-'The Violin Diva' Hashim Theme (Original Mix)
DR4 0.00 dB -5.37 dB 4:38 08-Ntobenthle (Momba Mix)
DR5 0.00 dB -6.12 dB 3:32 15-Bellycious
DR6 0.00 dB -7.28 dB 4:18 10-My Guitar
DR6 0.00 dB -7.36 dB 6:07 07-Delhi Oneway
DR5 -0.01 dB -6.49 dB 4:24 01-Indian Man Of Trouble
DR7 0.00 dB -8.52 dB 4:52 09-Meu Fado Meu (Nuno Cunha Souldillaz Remix)
DR7 0.00 dB -7.79 dB 5:30 12-Luna (Original Mix)
DR6 0.00 dB -7.11 dB 5:06 11-The Last Storm Of Words (Dimi Phaze Remix)
DR7 0.00 dB -8.01 dB 6:23 06-Raoui (Original Version)
DR7 0.00 dB -8.46 dB 4:46 03-Absence (Original Extended)
DR8 0.00 dB -9.09 dB 5:21 04-Saharien Child (Original Mix)
DR6 0.00 dB -7.58 dB 3:50 14-Maktoub 2 (Original Mix)
DR5 0.00 dB -6.28 dB 6:53 13-Luminal (Original Vocal Mix)
––––––––––––––––––––––––––––––––––––––––

Number of tracks: 15
Official DR value: DR6

Samplerate: 44100 Hz
Channels: 2
Bits per sample: 16
Bitrate: 1031 kbps
Codec: FLAC
================================================================================

VA - Buddha-Bar XV By Ravin (2013) 2CDs

VA - Buddha-Bar XV By Ravin (2013) 2CDs