Subcategories

VA - Dubai Eklektic: Complied and Mixed by DJ Ravin and DJ Nicholas Sechaud (2010) 2CD [Re-Up]

Posted By: Designol
VA - Dubai Eklektic: Complied and Mixed by DJ Ravin and DJ Nicholas Sechaud (2010) 2CD [Re-Up]

VA - Dubai Eklektic: Complied and Mixed by DJ Ravin and DJ Nicholas Sechaud (2010) 2CD
EAC | FLAC | Image (Cue&Log) ~ 882 Mb | Mp3 (CBR320) ~ 304 Mb | Scans ~ 54 Mb
Downtempo, House, Lounge, Ethnic Fusion | Label: Avril Production | # AV1005 | 02:12:29

Dubai Eklektic By Ravin and Nicholas Sechaud Grosvenor House A Luxury Collection Hotel Dubai This title is linked to the impressive Grosvenor House Hotel, which stands like a monolith, competing for space in the Dubai skyline. DJ Ravin, part of the Buddha Bar Old Guard, knows his trade well and cuts some fine licks. Nicholas Sechaud backs Ravin up on the second disc, and his heritage comes from working as DJ in the fashion houses.

VA - Dubai Eklektic: Complied and Mixed by DJ Ravin and DJ Nicholas Sechaud (2010) 2CD [Re-Up]


Tracklist:

CD1 - Complied and Mixed by DJ Ravin:

01. Mademoiselle Caro & Franck Garcia - Soldiers (The Revenge Remix) (07:24)
02. Willie Graff & Tuccillo - 123 Yeah Yeah (08:10)
03. George Vala & Audioprophecy - Gringo Brass (Original Mix) (06:59)
04. Sertac Kaya - Touch Me (04:55)
05. Suat Atesdagli - My Love (04:26)
06. Parov Stelar - Catgroove (Original) (04:30)
07. Max Olsen - El Tango (Re/Zone Remix) (05:26)
08. Oskar Zenkert - Oriental (04:45)
09. Orey Andrew ft. Moonwaker, Rio Dela Duna & Kris Kolomb - APROVECHA! (05:28)
10. Dinka - Elements (EDX 5un5hine Remix) (05:51)
11. Fudge - Wally (04:09)
12. Matthias Heilbronn & Joeski - Sabrosito (06:03)
13. Sertac Kaya - Darbucarab (03:27)
14. Gio Di Leva, Christian Cheval, Nello Simioli - Gaya (Adiemus) (Nice Journey Mix) (05:10)

CD2 - Compiled And Mixed By DJ Nicholas Sechaud:

01. Tikaro & Selva Feat. Clarence - Miracle Of Love (Tikaro Luxure Mix) (05:01)
02. Olivier Renoir - Samarkand (04:26)
03. Christos Stylianou feat. Olga Kassimis - Pienso En Ti (04:12)
04. Ganga - Wake Up (04:47)
05. Desert Stream - Egyptian Nursery (04:21)
06. Triangle Sun - Buddha (05:55)
07. Bole 2 Harlem - Aya Bellew (04:36)
08. Clelia Felix - Stop The World (03:38)
09. Dab - Mystical (Eddie Silverton Remix) (03:41)
10. Ahilea - Cafe Svetlana (03:40)
11. Sezen Aksu - Sanima Inanma (03:47)
12. Parov Stelar Feat. Lilja Bloom - Coco (Original) (02:26)
13. Shantel - Ex Oriente Lux (03:01)
14. Aura - Glass Bone Crash (02:04)


Exact Audio Copy V1.0 beta 1 from 15. November 2010

EAC extraction logfile from 29. March 2012, 11:06

Various / Dubai Eklektic CD1 (Mixed By Dj Ravin)

Used drive : ASUS DRW-24B3ST Adapter: 3 ID: 0

Read mode : Secure
Utilize accurate stream : Yes
Defeat audio cache : Yes
Make use of C2 pointers : No

Read offset correction : 6
Overread into Lead-In and Lead-Out : No
Fill up missing offset samples with silence : Yes
Delete leading and trailing silent blocks : No
Null samples used in CRC calculations : Yes
Used interface : Native Win32 interface for Win NT & 2000
Gap handling : Appended to previous track

Used output format : User Defined Encoder
Selected bitrate : 1024 kBit/s
Quality : High
Add ID3 tag : No
Command line compressor : C:\Program Files\Exact Audio Copy\Flac\flac.exe
Additional command line options : -8 -V -T "ARTIST=%a" -T "TITLE=%t" -T "ALBUM=%g" -T "DATE=%y" -T "TRACKNUMBER=%n" -T "GENRE=%m" -T "COMMENT=ripped by Oleandris" %s


TOC of the extracted CD

Track | Start | Length | Start sector | End sector
––––––––––––––––––––––––––––-
1 | 0:00.00 | 7:24.42 | 0 | 33341
2 | 7:24.42 | 8:10.73 | 33342 | 70164
3 | 15:35.40 | 6:59.03 | 70165 | 101592
4 | 22:34.43 | 4:55.15 | 101593 | 123732
5 | 27:29.58 | 4:26.12 | 123733 | 143694
6 | 31:55.70 | 4:30.01 | 143695 | 163945
7 | 36:25.71 | 5:26.19 | 163946 | 188414
8 | 41:52.15 | 4:45.00 | 188415 | 209789
9 | 46:37.15 | 5:28.09 | 209790 | 234398
10 | 52:05.24 | 5:51.15 | 234399 | 260738
11 | 57:56.39 | 4:09.53 | 260739 | 279466
12 | 62:06.17 | 6:03.55 | 279467 | 306746
13 | 68:09.72 | 3:27.32 | 306747 | 322303
14 | 71:37.29 | 5:10.21 | 322304 | 345574


Track 1

Filename F:\ЗАГРУЗКИ\ Dubai Elektic I, II (2010, 2011)\Dubai Elektic 2CD (2010)\CD1 - Compiled And Mixed By DJ Ravin\01. Mademoiselle Caro & Franck Garcia - Soldiers (The Revenge Remix).wav

Pre-gap length 0:00:02.00

Peak level 100.0 %
Extraction speed 4.2 X
Track quality 100.0 %
Test CRC 55174FDE
Copy CRC 55174FDE
Accurately ripped (confidence 2) [BC478562]
Copy OK

Track 2

Filename F:\ЗАГРУЗКИ\ Dubai Elektic I, II (2010, 2011)\Dubai Elektic 2CD (2010)\CD1 - Compiled And Mixed By DJ Ravin\02. Willie Graff & Tuccillo - 123 Yeah Yeah.wav

Peak level 81.5 %
Extraction speed 4.9 X
Track quality 100.0 %
Test CRC E2881B0E
Copy CRC E2881B0E
Accurately ripped (confidence 2) [1BC5E893]
Copy OK

Track 3

Filename F:\ЗАГРУЗКИ\ Dubai Elektic I, II (2010, 2011)\Dubai Elektic 2CD (2010)\CD1 - Compiled And Mixed By DJ Ravin\03. George Vala & Audioprophecy - Gringo Brass (Original Mix).wav

Peak level 100.0 %
Extraction speed 4.7 X
Track quality 99.9 %
Test CRC D62712AA
Copy CRC D62712AA
Accurately ripped (confidence 2) [927EE41B]
Copy OK

Track 4

Filename F:\ЗАГРУЗКИ\ Dubai Elektic I, II (2010, 2011)\Dubai Elektic 2CD (2010)\CD1 - Compiled And Mixed By DJ Ravin\04. Sertac Kaya - Touch Me.wav

Peak level 95.5 %
Extraction speed 4.7 X
Track quality 99.9 %
Test CRC EC2B11D5
Copy CRC EC2B11D5
Accurately ripped (confidence 2) [7D64109A]
Copy OK

Track 5

Filename F:\ЗАГРУЗКИ\ Dubai Elektic I, II (2010, 2011)\Dubai Elektic 2CD (2010)\CD1 - Compiled And Mixed By DJ Ravin\05. Suat Atesdagli - My Love.wav

Peak level 94.4 %
Extraction speed 5.9 X
Track quality 100.0 %
Test CRC 03DB2A68
Copy CRC 03DB2A68
Accurately ripped (confidence 2) [4CBEA540]
Copy OK

Track 6

Filename F:\ЗАГРУЗКИ\ Dubai Elektic I, II (2010, 2011)\Dubai Elektic 2CD (2010)\CD1 - Compiled And Mixed By DJ Ravin\06. Parov Stelar - Catgroove (Original).wav

Peak level 100.0 %
Extraction speed 6.1 X
Track quality 100.0 %
Test CRC B119F710
Copy CRC B119F710
Accurately ripped (confidence 2) [A77B1C61]
Copy OK

Track 7

Filename F:\ЗАГРУЗКИ\ Dubai Elektic I, II (2010, 2011)\Dubai Elektic 2CD (2010)\CD1 - Compiled And Mixed By DJ Ravin\07. Max Olsen - El Tango (Re,Zone Remix).wav

Peak level 76.3 %
Extraction speed 6.6 X
Track quality 100.0 %
Test CRC 4AF2DF94
Copy CRC 4AF2DF94
Accurately ripped (confidence 2) [E1B38FD7]
Copy OK

Track 8

Filename F:\ЗАГРУЗКИ\ Dubai Elektic I, II (2010, 2011)\Dubai Elektic 2CD (2010)\CD1 - Compiled And Mixed By DJ Ravin\08. Oskar Zenkert - Oriental.wav

Peak level 97.5 %
Extraction speed 6.7 X
Track quality 100.0 %
Test CRC 9C9765F7
Copy CRC 9C9765F7
Accurately ripped (confidence 2) [B3570634]
Copy OK

Track 9

Filename F:\ЗАГРУЗКИ\ Dubai Elektic I, II (2010, 2011)\Dubai Elektic 2CD (2010)\CD1 - Compiled And Mixed By DJ Ravin\09. Orey Andrew ft. Moonwaker, Rio Dela Duna & Kris Kolomb - APROVECHA!.wav

Peak level 100.0 %
Extraction speed 7.0 X
Track quality 100.0 %
Test CRC A3526408
Copy CRC A3526408
Accurately ripped (confidence 2) [6CD9284D]
Copy OK

Track 10

Filename F:\ЗАГРУЗКИ\ Dubai Elektic I, II (2010, 2011)\Dubai Elektic 2CD (2010)\CD1 - Compiled And Mixed By DJ Ravin\10. Dinka - Elements (EDX 5un5hine Remix).wav

Peak level 80.1 %
Extraction speed 7.4 X
Track quality 100.0 %
Test CRC FB349C98
Copy CRC FB349C98
Accurately ripped (confidence 2) [3BBD8E91]
Copy OK

Track 11

Filename F:\ЗАГРУЗКИ\ Dubai Elektic I, II (2010, 2011)\Dubai Elektic 2CD (2010)\CD1 - Compiled And Mixed By DJ Ravin\11. Fudge - Wally.wav

Peak level 99.9 %
Extraction speed 5.8 X
Track quality 99.9 %
Test CRC ACA2F2B6
Copy CRC ACA2F2B6
Accurately ripped (confidence 2) [2783449C]
Copy OK

Track 12

Filename F:\ЗАГРУЗКИ\ Dubai Elektic I, II (2010, 2011)\Dubai Elektic 2CD (2010)\CD1 - Compiled And Mixed By DJ Ravin\12. Matthias Heilbronn & Joeski - Sabrosito.wav

Peak level 100.0 %
Extraction speed 7.9 X
Track quality 100.0 %
Test CRC 802CD6BB
Copy CRC 802CD6BB
Accurately ripped (confidence 2) [CCEF87D5]
Copy OK

Track 13

Filename F:\ЗАГРУЗКИ\ Dubai Elektic I, II (2010, 2011)\Dubai Elektic 2CD (2010)\CD1 - Compiled And Mixed By DJ Ravin\13. Sertac Kaya - Darbucarab.wav

Peak level 81.2 %
Extraction speed 7.6 X
Track quality 100.0 %
Test CRC 2FFF351C
Copy CRC 2FFF351C
Accurately ripped (confidence 2) [9AA4C5A5]
Copy OK

Track 14

Filename F:\ЗАГРУЗКИ\ Dubai Elektic I, II (2010, 2011)\Dubai Elektic 2CD (2010)\CD1 - Compiled And Mixed By DJ Ravin\14. Gio Di Leva, Christian Cheval, Nello Simioli - Gaya (Adiemus) (Nice Journey Mix).wav

Peak level 84.6 %
Extraction speed 8.1 X
Track quality 100.0 %
Test CRC 1CE21B60
Copy CRC 1CE21B60
Accurately ripped (confidence 2) [21536761]
Copy OK


All tracks accurately ripped

No errors occurred

End of status report

==== Log checksum F4D0629C3F853FDB271279A208BBEC1A6BE771688EBB6049639C018E5BE69601 ====

Exact Audio Copy V1.0 beta 1 from 15. November 2010

EAC extraction logfile from 29. March 2012, 12:35

Various / Dubai Eklektic CD2 (Mixed by Dj Nicholas Sechaud)

Used drive : PLEXTOR DVDR PX-L890SA Adapter: 5 ID: 0

Read mode : Secure
Utilize accurate stream : Yes
Defeat audio cache : Yes
Make use of C2 pointers : No

Read offset correction : 6
Overread into Lead-In and Lead-Out : No
Fill up missing offset samples with silence : Yes
Delete leading and trailing silent blocks : No
Null samples used in CRC calculations : Yes
Used interface : Native Win32 interface for Win NT & 2000
Gap handling : Appended to previous track

Used output format : User Defined Encoder
Selected bitrate : 1024 kBit/s
Quality : High
Add ID3 tag : No
Command line compressor : C:\Program Files\Exact Audio Copy\Flac\flac.exe
Additional command line options : -8 -V -T "ARTIST=%a" -T "TITLE=%t" -T "ALBUM=%g" -T "DATE=%y" -T "TRACKNUMBER=%n" -T "GENRE=%m" -T "COMMENT=ripped by Oleandris" %s


TOC of the extracted CD

Track | Start | Length | Start sector | End sector
––––––––––––––––––––––––––––-
1 | 0:00.00 | 5:01.57 | 0 | 22631
2 | 5:01.57 | 4:26.60 | 22632 | 42641
3 | 9:28.42 | 4:12.04 | 42642 | 61545
4 | 13:40.46 | 4:47.18 | 61546 | 83088
5 | 18:27.64 | 4:21.51 | 83089 | 102714
6 | 22:49.40 | 5:55.22 | 102715 | 129361
7 | 28:44.62 | 4:36.42 | 129362 | 150103
8 | 33:21.29 | 3:38.07 | 150104 | 166460
9 | 36:59.36 | 3:41.23 | 166461 | 183058
10 | 40:40.59 | 3:40.00 | 183059 | 199558
11 | 44:20.59 | 3:47.67 | 199559 | 216650
12 | 48:08.51 | 2:26.64 | 216651 | 227664
13 | 50:35.40 | 3:01.17 | 227665 | 241256
14 | 53:36.57 | 2:04.15 | 241257 | 250571


Track 1

Filename F:\ЗАГРУЗКИ\ Dubai Elektic I, II (2010, 2011)\Dubai Elektic 2CD (2010)\CD2 - Compiled And Mixed By DJ Nicholas Sechaud\01. Tikaro & Selva Feat. Clarence - Miracle Of Love (Tikaro Luxure Mix).wav

Pre-gap length 0:00:02.00

Peak level 100.0 %
Extraction speed 1.9 X
Track quality 100.0 %
Test CRC 0A1868F4
Copy CRC 0A1868F4
Accurately ripped (confidence 1) [001B3499]
Copy OK

Track 2

Filename F:\ЗАГРУЗКИ\ Dubai Elektic I, II (2010, 2011)\Dubai Elektic 2CD (2010)\CD2 - Compiled And Mixed By DJ Nicholas Sechaud\02. Olivier Renoir - Samarkand.wav

Peak level 100.0 %
Extraction speed 2.1 X
Track quality 100.0 %
Test CRC 37DA7B31
Copy CRC 37DA7B31
Accurately ripped (confidence 1) [03B4988C]
Copy OK

Track 3

Filename F:\ЗАГРУЗКИ\ Dubai Elektic I, II (2010, 2011)\Dubai Elektic 2CD (2010)\CD2 - Compiled And Mixed By DJ Nicholas Sechaud\03. Christos Stylianou feat. Olga Kassimis - Pienso En Ti.wav

Peak level 100.0 %
Extraction speed 2.3 X
Track quality 100.0 %
Test CRC CB82EC97
Copy CRC CB82EC97
Accurately ripped (confidence 1) [C1EED502]
Copy OK

Track 4

Filename F:\ЗАГРУЗКИ\ Dubai Elektic I, II (2010, 2011)\Dubai Elektic 2CD (2010)\CD2 - Compiled And Mixed By DJ Nicholas Sechaud\04. Ganga - Wake Up.wav

Peak level 100.0 %
Extraction speed 1.9 X
Track quality 99.9 %
Test CRC E1D2E511
Copy CRC E1D2E511
Accurately ripped (confidence 1) [83A6FCE5]
Copy OK

Track 5

Filename F:\ЗАГРУЗКИ\ Dubai Elektic I, II (2010, 2011)\Dubai Elektic 2CD (2010)\CD2 - Compiled And Mixed By DJ Nicholas Sechaud\05. Desert Stream - Egyptian Nursery.wav

Peak level 100.0 %
Extraction speed 2.0 X
Track quality 99.9 %
Test CRC E32C1BCA
Copy CRC E32C1BCA
Accurately ripped (confidence 1) [8A1D412D]
Copy OK

Track 6

Filename F:\ЗАГРУЗКИ\ Dubai Elektic I, II (2010, 2011)\Dubai Elektic 2CD (2010)\CD2 - Compiled And Mixed By DJ Nicholas Sechaud\06. Triangle Sun - Buddha.wav

Peak level 100.0 %
Extraction speed 2.3 X
Track quality 99.9 %
Test CRC FE38E38F
Copy CRC FE38E38F
Accurately ripped (confidence 1) [8C4C062E]
Copy OK

Track 7

Filename F:\ЗАГРУЗКИ\ Dubai Elektic I, II (2010, 2011)\Dubai Elektic 2CD (2010)\CD2 - Compiled And Mixed By DJ Nicholas Sechaud\07. Bole 2 Harlem - Aya Bellew.wav

Peak level 100.0 %
Extraction speed 3.1 X
Track quality 100.0 %
Test CRC C21D2BFF
Copy CRC C21D2BFF
Accurately ripped (confidence 1) [26035E4E]
Copy OK

Track 8

Filename F:\ЗАГРУЗКИ\ Dubai Elektic I, II (2010, 2011)\Dubai Elektic 2CD (2010)\CD2 - Compiled And Mixed By DJ Nicholas Sechaud\08. Clelia Felix - Stop The World.wav

Peak level 100.0 %
Extraction speed 3.1 X
Track quality 100.0 %
Test CRC 9913566C
Copy CRC 9913566C
Accurately ripped (confidence 1) [8B803493]
Copy OK

Track 9

Filename F:\ЗАГРУЗКИ\ Dubai Elektic I, II (2010, 2011)\Dubai Elektic 2CD (2010)\CD2 - Compiled And Mixed By DJ Nicholas Sechaud\09. Dab - Mystical (Eddie Silverton Remix).wav

Peak level 100.0 %
Extraction speed 3.2 X
Track quality 100.0 %
Test CRC 39D0DBCC
Copy CRC 39D0DBCC
Accurately ripped (confidence 1) [14F7CFBC]
Copy OK

Track 10

Filename F:\ЗАГРУЗКИ\ Dubai Elektic I, II (2010, 2011)\Dubai Elektic 2CD (2010)\CD2 - Compiled And Mixed By DJ Nicholas Sechaud\10. Ahilea - Cafe Svetlana.wav

Peak level 100.0 %
Extraction speed 3.3 X
Track quality 100.0 %
Test CRC 76048066
Copy CRC 76048066
Accurately ripped (confidence 1) [31084A20]
Copy OK

Track 11

Filename F:\ЗАГРУЗКИ\ Dubai Elektic I, II (2010, 2011)\Dubai Elektic 2CD (2010)\CD2 - Compiled And Mixed By DJ Nicholas Sechaud\11. Sezen Aksu - Sanima Inanma.wav

Peak level 100.0 %
Extraction speed 3.4 X
Track quality 100.0 %
Test CRC 8C20335F
Copy CRC 8C20335F
Accurately ripped (confidence 1) [7C8E5D81]
Copy OK

Track 12

Filename F:\ЗАГРУЗКИ\ Dubai Elektic I, II (2010, 2011)\Dubai Elektic 2CD (2010)\CD2 - Compiled And Mixed By DJ Nicholas Sechaud\12. Parov Stelar Feat. Lilja Bloom - Coco (Original).wav

Peak level 100.0 %
Extraction speed 3.2 X
Track quality 100.0 %
Test CRC 51070D3D
Copy CRC 51070D3D
Accurately ripped (confidence 1) [E800F0A4]
Copy OK

Track 13

Filename F:\ЗАГРУЗКИ\ Dubai Elektic I, II (2010, 2011)\Dubai Elektic 2CD (2010)\CD2 - Compiled And Mixed By DJ Nicholas Sechaud\13. Shantel - Ex Oriente Lux.wav

Peak level 100.0 %
Extraction speed 3.4 X
Track quality 100.0 %
Test CRC 761DCEE4
Copy CRC 761DCEE4
Accurately ripped (confidence 1) [79B1B8B2]
Copy OK

Track 14

Filename F:\ЗАГРУЗКИ\ Dubai Elektic I, II (2010, 2011)\Dubai Elektic 2CD (2010)\CD2 - Compiled And Mixed By DJ Nicholas Sechaud\14. Aura - Glass Bone Crash.wav

Peak level 99.9 %
Extraction speed 1.9 X
Track quality 99.9 %
Test CRC 985FCBB0
Copy CRC 985FCBB0
Cannot be verified as accurate (confidence 1) [8392E3F7], AccurateRip returned [6CECAFCD]
Copy OK


13 track(s) accurately ripped
1 track(s) could not be verified as accurate

Some tracks could not be verified as accurate

No errors occurred

End of status report

==== Log checksum D0AE40AD0ED9E447E4F2D6CECB180810A8BF91A430EFA46AF74EB767DDEA1EAA ====

VA - Dubai Eklektic: Complied and Mixed by DJ Ravin and DJ Nicholas Sechaud (2010) 2CD [Re-Up]

VA - Dubai Eklektic: Complied and Mixed by DJ Ravin and DJ Nicholas Sechaud (2010) 2CD [Re-Up]

All thanks to original releaser - Oleandris

More interesting music in My Blog