Tags
Language
Tags

Banco De Gaia - The 9th Of Nine Hearts (2016)

Posted By: gribovar
Banco De Gaia - The 9th Of Nine Hearts (2016)

Banco De Gaia - The 9th Of Nine Hearts (2016)
EAC Rip | FLAC (tracks+.cue+log) - 365 MB | MP3 CBR 320 kbps (LAME 3.93) - 139 MB | Covers - 11 MB
Genre: Downtempo, Ambient, Dub, World | RAR 3% Rec. | Label: Disco Gecko (GKOCD022)

An enchanting journey through nine responses to love, Banco de Gaia’s ninth studio album arrives at a time when the world needs it more than many of us may realise. Featuring special guest artists, from Pink Floyd’s Dick Parry, Zero 7’s Sophie Barker, The The’s James Eller and No-Man’s Tim Bowness, The 9th of Nine Hearts is a celebration of the spark in all of us: the concept of love itself. Fusing ambient, psychedelia, art rock and acid house, each track evolves naturally into the next, with love the starting point to them all.
Tracklist:
01. Nine Hearts
02. Burn The Witch
03. Warp And Weft
04. Le Foucauld
05. No Hablo Italiano
06. Is-Is Loves Ankh-An-Atum
07. And So We Dream Of Futures Lost
08. 91
09. The Princess And The Sky Goat
10. My Midnight Sun
11. This Heart

Total time: 58:39

Exact Audio Copy V1.1 from 23. June 2015

EAC extraction logfile from 15. October 2016, 10:05

Banco de Gaia / The 9th Of Nine Hearts

Used drive : ATAPI iHAS124 W Adapter: 1 ID: 0

Read mode : Secure
Utilize accurate stream : Yes
Defeat audio cache : Yes
Make use of C2 pointers : No

Read offset correction : 48
Overread into Lead-In and Lead-Out : No
Fill up missing offset samples with silence : Yes
Delete leading and trailing silent blocks : No
Null samples used in CRC calculations : Yes
Used interface : Native Win32 interface for Win NT & 2000
Gap handling : Appended to previous track

Used output format : User Defined Encoder
Selected bitrate : 896 kBit/s
Quality : High
Add ID3 tag : No
Command line compressor : C:\Program Files (x86)\Various\FLAC\flac.exe
Additional command line options : -8 -V -T "artist=%artist%" -T "albumartist=%albumartist%" -T "album=%albumtitle%" -T "title=%title%" -T "year=%year%" -T "tracknumber=%tracknr2%" -T "genre=%genre%" %source% -o %dest%


TOC of the extracted CD

Track | Start | Length | Start sector | End sector
––––––––––––––––––––––––––––-
1 | 0:00.00 | 3:22.38 | 0 | 15187
2 | 3:22.38 | 5:22.61 | 15188 | 39398
3 | 8:45.24 | 4:02.21 | 39399 | 57569
4 | 12:47.45 | 6:22.73 | 57570 | 86292
5 | 19:10.43 | 6:13.43 | 86293 | 114310
6 | 25:24.11 | 4:27.32 | 114311 | 134367
7 | 29:51.43 | 4:49.53 | 134368 | 156095
8 | 34:41.21 | 7:30.63 | 156096 | 189908
9 | 42:12.09 | 8:29.71 | 189909 | 228154
10 | 50:42.05 | 5:30.05 | 228155 | 252909
11 | 56:12.10 | 2:26.05 | 252910 | 263864


Track 1

Filename F:\My Documents\My Music\Albums (Complete)\01. Nine Hearts.wav

Pre-gap length 0:00:02.00

Peak level 100.0 %
Extraction speed 2.9 X
Track quality 99.9 %
Test CRC 2A159559
Copy CRC 2A159559
Track not present in AccurateRip database
Copy OK

Track 2

Filename F:\My Documents\My Music\Albums (Complete)\02. Burn The Witch.wav

Peak level 100.0 %
Extraction speed 5.1 X
Track quality 100.0 %
Test CRC 1B7D555A
Copy CRC 1B7D555A
Track not present in AccurateRip database
Copy OK

Track 3

Filename F:\My Documents\My Music\Albums (Complete)\03. Warp And Weft.wav

Peak level 99.9 %
Extraction speed 5.4 X
Track quality 100.0 %
Test CRC C1A7DDA5
Copy CRC C1A7DDA5
Track not present in AccurateRip database
Copy OK

Track 4

Filename F:\My Documents\My Music\Albums (Complete)\04. Le Foucauld.wav

Peak level 100.0 %
Extraction speed 6.2 X
Track quality 100.0 %
Test CRC 37A03A50
Copy CRC 37A03A50
Track not present in AccurateRip database
Copy OK

Track 5

Filename F:\My Documents\My Music\Albums (Complete)\05. No Hablo Italiano.wav

Pre-gap length 0:00:02.12

Peak level 100.0 %
Extraction speed 6.7 X
Track quality 100.0 %
Test CRC 8A522D90
Copy CRC 8A522D90
Track not present in AccurateRip database
Copy OK

Track 6

Filename F:\My Documents\My Music\Albums (Complete)\06. Is-Is Loves Ankh-An-Atum.wav

Pre-gap length 0:00:01.51

Peak level 100.0 %
Extraction speed 6.8 X
Track quality 100.0 %
Test CRC CAB2C780
Copy CRC CAB2C780
Track not present in AccurateRip database
Copy OK

Track 7

Filename F:\My Documents\My Music\Albums (Complete)\07. And So We Dream Of Futures Lost.wav

Peak level 100.0 %
Extraction speed 7.3 X
Track quality 100.0 %
Test CRC B61DB62A
Copy CRC B61DB62A
Track not present in AccurateRip database
Copy OK

Track 8

Filename F:\My Documents\My Music\Albums (Complete)\08. 91.wav

Pre-gap length 0:00:03.14

Peak level 100.0 %
Extraction speed 6.4 X
Track quality 99.9 %
Test CRC 64653055
Copy CRC 64653055
Track not present in AccurateRip database
Copy OK

Track 9

Filename F:\My Documents\My Music\Albums (Complete)\09. The Princess And The Sky Goat.wav

Peak level 100.0 %
Extraction speed 5.9 X
Track quality 99.9 %
Test CRC 9D64FF7B
Copy CRC 9D64FF7B
Track not present in AccurateRip database
Copy OK

Track 10

Filename F:\My Documents\My Music\Albums (Complete)\10. My Midnight Sun.wav

Peak level 100.0 %
Extraction speed 3.7 X
Track quality 100.0 %
Test CRC D7C02F8F
Copy CRC D7C02F8F
Track not present in AccurateRip database
Copy OK

Track 11

Filename F:\My Documents\My Music\Albums (Complete)\11. This Heart.wav

Peak level 37.1 %
Extraction speed 2.9 X
Track quality 99.9 %
Test CRC AE525A2D
Copy CRC AE525A2D
Track not present in AccurateRip database
Copy OK


None of the tracks are present in the AccurateRip database

No errors occurred

End of status report

–– CUETools DB Plugin V2.1.6

[CTDB TOCID: ahgrFj__KxwdwOFeocYSSzKbmbA-] found
Submit result: ahgrFj__KxwdwOFeocYSSzKbmbA- has been confirmed
Track | CTDB Status
1 | (3/3) Accurately ripped
2 | (3/3) Accurately ripped
3 | (3/3) Accurately ripped
4 | (3/3) Accurately ripped
5 | (3/3) Accurately ripped
6 | (3/3) Accurately ripped
7 | (3/3) Accurately ripped
8 | (3/3) Accurately ripped
9 | (3/3) Accurately ripped
10 | (3/3) Accurately ripped
11 | (3/3) Accurately ripped


==== Log checksum 56BBBE3E87BC573BA1237413F7FDF8C664A065569CDCE4AB127E489AE15E6699 ====

[CUETools log; Date: 25.04.2021 1:32:35; Version: 2.1.4]
[CTDB TOCID: ahgrFj__KxwdwOFeocYSSzKbmbA-] found.
Track | CTDB Status
1 | (20/20) Accurately ripped
2 | (20/20) Accurately ripped
3 | (20/20) Accurately ripped
4 | (20/20) Accurately ripped
5 | (20/20) Accurately ripped
6 | (20/20) Accurately ripped
7 | (20/20) Accurately ripped
8 | (20/20) Accurately ripped
9 | (20/20) Accurately ripped
10 | (20/20) Accurately ripped
11 | (20/20) Accurately ripped
[AccurateRip ID: 00177810-00cfe54a-8e0dbe0b] found.
Track [ CRC | V2 ] Status
01 [278c821b|bb7366dc] (0+9/9) Accurately ripped
02 [d39e8dd2|30a549bf] (0+9/9) Accurately ripped
03 [1e674f7c|7ba3133a] (0+9/9) Accurately ripped
04 [49ace1bb|9b823598] (0+9/9) Accurately ripped
05 [43197810|fba50f52] (0+9/9) Accurately ripped
06 [ced035e4|fe39afe0] (0+9/9) Accurately ripped
07 [f73e9d57|24f4705f] (0+9/9) Accurately ripped
08 [c5b5d226|9448ac97] (0+9/9) Accurately ripped
09 [9ce69cd3|7a1dfba0] (0+9/9) Accurately ripped
10 [9aa556c7|b820865c] (0+9/9) Accurately ripped
11 [473a9b95|3c595d98] (0+9/9) Accurately ripped

Track Peak [ CRC32 ] [W/O NULL] [ LOG ]
– 100,0 [306ADF91] [DDB35726]
01 100,0 [2A159559] [E6A55832] CRC32
02 100,0 [1B7D555A] [AE71E3C7] CRC32
03 99,9 [C1A7DDA5] [B8D5ACAD] CRC32
04 100,0 [37A03A50] [22F0E600] CRC32
05 100,0 [8A522D90] [DF66C4A3] CRC32
06 100,0 [CAB2C780] [2CFD2F87] CRC32
07 100,0 [B61DB62A] [5F96E259] CRC32
08 100,0 [64653055] [DE3AB231] CRC32
09 100,0 [9D64FF7B] [C0A07CF5] CRC32
10 100,0 [D7C02F8F] [A43B9EDF] CRC32
11 37,1 [AE525A2D] [D52B7F88] CRC32

Thanks to Summerisle

See also: