Tags
Language
Tags

The Art Of Noise - Albums Collection 1984-1999 (9CD)

Posted By: Designol
The Art Of Noise - Albums Collection 1984-1999 (9CD)

The Art Of Noise - Albums Collection 1984-1999 (9CD)
EAC | FLAC | Image (Cue&Log) ~ 2.58 Gb | Mp3 (CBR320) ~ 1.21 Gb | Scans included
Experimental Electronic, Experimental Rock, Synthpop, Art Pop, Dance-Rock, New Wave

Anne Dudley, Gary Langan, and Paul Morley were members of producer Trevor Horn's in-house studio band in the early '80s before they formed the Art of Noise, a techno-pop group whose music was an amalgam of studio gimmickry, tape splicing, and synthesized beats. The Art of Noise took material from a variety of sources: hip-hop, rock, jazz, R&B, traditional pop, found sounds, and noise all worked their way into the group's distinctly postmodern soundscapes.

Dudley was the center of the group, having arranged and produced material for Frankie Goes to Hollywood, ABC, and Paul McCartney before forming the Art of Noise. The trio signed with Trevor Horn's ZTT label, releasing their first EP, Into Battle With the Art of Noise, in 1983. The following year, the group released the full-length (Who's Afraid Of?) The Art of Noise!, which featured the hit single "Close (To the Edit)."

After "Close (To the Edit)," the group parted ways with Horn and ZTT, releasing In Visible Silence in 1986; the album included the U.K. Top Ten hit "Peter Gunn," which featured Duane Eddy on guitar. Re-works of the Art of Noise, an album of remixes and live tracks, was released that same year. In No Sense? Nonsense!, released in 1987, saw the band experimenting with orchestras and choirs, as well as horns and rock bands. The next year, the Art of Noise released a greatest-hits collection, The Best of the Art of Noise, which featured their collaboration with Tom Jones on Prince's "Kiss."

Below the Waste (1990) captured the band experimenting with world music; it received a lukewarm critical and commercial reception. The following year, a low-key remix album directed by Killing Joke's Youth called The Ambient Collection appeared. Later in the year, the Art of Noise broke up. Dudley eventually worked with Killing Joke's Jaz Coleman and Phil Collins. Horn, Dudley, and Morley reunited in 1999 for a new album, The Seduction of Claude Debussy. Kevin Godley and Lol Creme were added to the lineup.

Stephen Thomas Erlewine, Allmusic.com

The Art Of Noise - Albums Collection 1984-1999 (9CD)






The Art Of Noise - Albums Collection 1984-1999 (9CD)

The Art Of Noise - (Who's Afraid Of?) The Art Of Noise! (1984) US Reissue
EAC | FLAC | Image (Cue&Log) ~ 246 Mb | Mp3 (CBR320) ~ 123 Mb | Scans included
Island/ZTT | # 422-842 473-2 | 00:41:13

Art of Noise's first full album, (Who's Afraid Of?) The Art of Noise!, consolidated the future shock of the earlier EPs and singles in one entertaining and often frightening and screwed-up package. Rarely has something aiming for modern pop status also sought to destroy and disturb so effectively. The most legendary song is still "Close (To the Edit)," benefiting not merely from the innovative video but from its strong funk groove and nutty sense of humor in the mostly lyric-less vocals, not to mention the "hey!" vocal hook the Prodigy would sample for "Firestarter." Its close cousin, the title track, brilliantly blends a nagging bass synth, echoed drum, and percussion fills and constantly shifting vocal cut-ups, random noises, and strange melodies. They're just two highlights on this prescient release, though. Part of the thrill of Who's Afraid is the sense of juxtaposition and playing around, something still not very common in music and even less so in the pop music genre. The blunt political protest of "A Time for Fear (Who's Afraid)" and the more abstract "How to Kill," achieved via appropriate sampling, slams right up against the rough beat sonics and serene orchestration. If such material had appeared on Rephlex or even DHR in the mid- to late '90s, few would have been surprised. Things aren't all dour and gloomy, though; "Beat Box" captures heavy grooves from said source with quirky vocal bits and soft vibes. Patented Trevor Horn orchestral stabs surface throughout, while Anne Dudley's knack for gentler shadings and dramatic arrangements also comes through clearly, something that would surface ever more strongly in her freelance production career. The full ten-minute version of "Moments in Love" is perhaps her triumph here, a seemingly pretty instrumental turned increasingly strange.

Review by Ned Raggett, Allmusic.com

Tracklist:

01. A Time For Fear (Who's Afraid) (04:45)
02. Beat Box (Diversion One) (08:33)
03. Snapshot (01:02)
04. Close (To The Edit) (05:37)
05. Who's Afraid (Of The Art Of Noise) (04:21)
06. Moments In Love (10:16)
07. Momento (02:12)
08. How To Kill (02:42)
09. Realization (01:42)


Exact Audio Copy V1.3 from 2. September 2016

EAC extraction logfile from 21. October 2016, 21:25

The Art Of Noise / (Who's Afraid Of?) The Art Of Noise!

Used drive : PLEXTOR DVDR PX-810SA Adapter: 1 ID: 0

Read mode : Secure
Utilize accurate stream : Yes
Defeat audio cache : Yes
Make use of C2 pointers : No

Read offset correction : 48
Overread into Lead-In and Lead-Out : No
Fill up missing offset samples with silence : Yes
Delete leading and trailing silent blocks : No
Null samples used in CRC calculations : Yes
Used interface : Installed external ASPI interface

Used output format : User Defined Encoder
Selected bitrate : 1024 kBit/s
Quality : High
Add ID3 tag : No
Command line compressor : C:\Program Files (x86)\Exact Audio Copy\Flac\flac.exe
Additional command line options : -8 -V -T "Date=%year%" -T "Genre=%genre%" -T "COMMENT=ripped by bvstudio®" %source%


TOC of the extracted CD

Track | Start | Length | Start sector | End sector
––––––––––––––––––––––––––––-
1 | 0:00.32 | 4:45.05 | 32 | 21411
2 | 4:45.37 | 8:33.05 | 21412 | 59891
3 | 13:18.42 | 1:02.25 | 59892 | 64566
4 | 14:20.67 | 5:37.40 | 64567 | 89881
5 | 19:58.32 | 4:21.00 | 89882 | 109456
6 | 24:19.32 | 10:16.05 | 109457 | 155661
7 | 34:35.37 | 2:12.63 | 155662 | 165624
8 | 36:48.25 | 2:42.35 | 165625 | 177809
9 | 39:30.60 | 1:42.57 | 177810 | 185516


Range status and errors

Selected range

Filename F:\The Art Of Noise\1984 - (Who's Afraid Of) The Art Of Noise (1989 - Island Records • ZTT - US - 422-842 473-2)\The Art Of Noise - (Who's Afraid Of) The Art Of Noise!.wav

Peak level 100.0 %
Extraction speed 6.3 X
Range quality 100.0 %
Test CRC AAED4D66
Copy CRC AAED4D66
Copy OK

No errors occurred


AccurateRip summary

Track 1 accurately ripped (confidence 41) [EAB798E1] (AR v2)
Track 2 accurately ripped (confidence 41) [E83A8435] (AR v2)
Track 3 accurately ripped (confidence 42) [56476649] (AR v2)
Track 4 accurately ripped (confidence 42) [98BFD0BC] (AR v2)
Track 5 accurately ripped (confidence 41) [DD5D3B03] (AR v2)
Track 6 accurately ripped (confidence 44) [E135C9F2] (AR v2)
Track 7 accurately ripped (confidence 42) [C8A2C971] (AR v2)
Track 8 accurately ripped (confidence 42) [968E772F] (AR v2)
Track 9 accurately ripped (confidence 43) [FA49C224] (AR v2)

All tracks accurately ripped

End of status report

–– CUETools DB Plugin V2.1.6

[CTDB TOCID: sDMtfWKHMB3VdV8PfY2n2zfIy7Q-] found
Submit result: sDMtfWKHMB3VdV8PfY2n2zfIy7Q- has been confirmed
Track | CTDB Status
1 | (48/53) Accurately ripped
2 | (47/53) Accurately ripped
3 | (52/53) Accurately ripped
4 | (52/53) Accurately ripped
5 | (52/53) Accurately ripped
6 | (48/53) Accurately ripped
7 | (52/53) Accurately ripped
8 | (48/53) Accurately ripped
9 | (51/53) Accurately ripped


==== Log checksum 9DBC4D4E87C5B3E3D85D48145F3715A5C3DF3BA9E0F073D3A02604A104E516AF ====

foobar2000 1.2 / Dynamic Range Meter 1.1.1
log date: 2016-10-27 17:01:44

––––––––––––––––––––––––––––––––––––––––
Analyzed: The Art Of Noise / (Who's Afraid Of?) The Art Of Noise!
––––––––––––––––––––––––––––––––––––––––

DR Peak RMS Duration Track
––––––––––––––––––––––––––––––––––––––––
DR12 -2.88 dB -19.15 dB 4:45 01-A Time For Fear (Who's Afraid)
DR14 0.00 dB -16.24 dB 8:33 02-Beat Box (Diversion One)
DR12 -2.69 dB -17.46 dB 1:02 03-Snapshot
DR14 -0.42 dB -15.90 dB 5:38 04-Close (To The Edit)
DR13 -0.05 dB -14.73 dB 4:21 05-Who's Afraid (Of The Art Of Noise)
DR13 -1.91 dB -17.91 dB 10:16 06-Moments In Love
DR12 -1.84 dB -20.21 dB 2:13 07-Momento
DR10 -2.36 dB -17.47 dB 2:42 08-How To Kill
DR12 -1.44 dB -16.83 dB 1:43 09-Realization
––––––––––––––––––––––––––––––––––––––––

Number of tracks: 9
Official DR value: DR12

Samplerate: 44100 Hz
Channels: 2
Bits per sample: 16
Bitrate: 737 kbps
Codec: FLAC
================================================================================

The Art Of Noise - Albums Collection 1984-1999 (9CD)

The Art Of Noise - Albums Collection 1984-1999 (9CD)




The Art Of Noise - Albums Collection 1984-1999 (9CD)

The Art Of Noise - In Visible Silence (1986) Reissue 1994
EAC | FLAC | Image (Cue&Log) ~ 307 Mb | Mp3 (CBR320) ~ 139 Mb | Scans included
China Records | # 4509-95912-2, WOLCD 1016 | 00:51:10

AON hit their stride with the release of this record, while showing their colors in the choices of material – while the usual offbeat AON elements were present, so was "Peter Gunn," with Duane Eddy guesting on guitar. Another AON hit, "Legs," was present, as was the original version of "Paranoimia," enhanced in its single versions by the addition of routines from Max Headroom performed by Matt Frewer, who would later play the digital ding-a-ling on a short-lived TV series. The Frewer versions replaced the original on some pressings, including the original CD, but the original version has since been restored, with both Frewer versions now confined to best-of collections.

Review by Steven McDonald, Allmusic.com

Tracklist:

01. Opus 4 (02:00)
02. Paranoimia (04:46)
03. Eye Of A Needle (04:23)
04. Legs (03:57)
05. Slip of The Tongue (01:38)
06. Backbeat (04:08)
07. Instruments Of Darkness (07:14)
08. Peter Gunn (feat. Duane Eddy) (03:58)
09. Camilla (07:23)
10. Chameleon's Dish (04:16)
11. Beatback (01:21)
12. Peter Gunn (Extended Version) (06:01)


Exact Audio Copy V1.3 from 2. September 2016

EAC extraction logfile from 21. October 2016, 21:45

The Art Of Noise / In Visible Silence

Used drive : PLEXTOR DVDR PX-810SA Adapter: 1 ID: 0

Read mode : Secure
Utilize accurate stream : Yes
Defeat audio cache : Yes
Make use of C2 pointers : No

Read offset correction : 48
Overread into Lead-In and Lead-Out : No
Fill up missing offset samples with silence : Yes
Delete leading and trailing silent blocks : No
Null samples used in CRC calculations : Yes
Used interface : Installed external ASPI interface

Used output format : User Defined Encoder
Selected bitrate : 1024 kBit/s
Quality : High
Add ID3 tag : No
Command line compressor : C:\Program Files (x86)\Exact Audio Copy\Flac\flac.exe
Additional command line options : -8 -V -T "Date=%year%" -T "Genre=%genre%" -T "COMMENT=ripped by bvstudio®" %source%


TOC of the extracted CD

Track | Start | Length | Start sector | End sector
––––––––––––––––––––––––––––-
1 | 0:00.00 | 2:00.60 | 0 | 9059
2 | 2:00.60 | 4:46.40 | 9060 | 30549
3 | 6:47.25 | 4:23.40 | 30550 | 50314
4 | 11:10.65 | 3:57.02 | 50315 | 68091
5 | 15:07.67 | 1:38.65 | 68092 | 75506
6 | 16:46.57 | 4:08.43 | 75507 | 94149
7 | 20:55.25 | 7:14.25 | 94150 | 126724
8 | 28:09.50 | 3:58.02 | 126725 | 144576
9 | 32:07.52 | 7:23.68 | 144577 | 177869
10 | 39:31.45 | 4:16.15 | 177870 | 197084
11 | 43:47.60 | 1:21.12 | 197085 | 203171
12 | 45:08.72 | 6:01.53 | 203172 | 230299


Range status and errors

Selected range

Filename F:\The Art Of Noise\1986 - In Visible Silence (1994 - Cnina Records - Germany - 4509-95912-2 • WOLCD 1016)\The Art Of Noise - In Visible Silence.wav

Peak level 98.7 %
Extraction speed 6.7 X
Range quality 99.9 %
Test CRC 35B1BC22
Copy CRC 35B1BC22
Copy OK

No errors occurred


AccurateRip summary

Track 1 accurately ripped (confidence 18) [92656374] (AR v2)
Track 2 accurately ripped (confidence 19) [2DEECA51] (AR v2)
Track 3 accurately ripped (confidence 18) [5658DEA0] (AR v2)
Track 4 accurately ripped (confidence 18) [42011943] (AR v2)
Track 5 accurately ripped (confidence 18) [9933EB9A] (AR v2)
Track 6 accurately ripped (confidence 18) [ACE8034B] (AR v2)
Track 7 accurately ripped (confidence 18) [E618DF77] (AR v2)
Track 8 accurately ripped (confidence 19) [BF52269F] (AR v2)
Track 9 accurately ripped (confidence 19) [59EB20A3] (AR v2)
Track 10 accurately ripped (confidence 17) [F3ED7369] (AR v2)
Track 11 accurately ripped (confidence 17) [781AA22D] (AR v2)
Track 12 accurately ripped (confidence 18) [850CD4D5] (AR v2)

All tracks accurately ripped

End of status report

–– CUETools DB Plugin V2.1.6

[CTDB TOCID: g4hNEJ4_J6KwGda3gwlrwFqkrQM-] found
Submit result: g4hNEJ4_J6KwGda3gwlrwFqkrQM- has been confirmed
Track | CTDB Status
1 | (31/31) Accurately ripped
2 | (31/31) Accurately ripped
3 | (31/31) Accurately ripped
4 | (31/31) Accurately ripped
5 | (31/31) Accurately ripped
6 | (31/31) Accurately ripped
7 | (31/31) Accurately ripped
8 | (31/31) Accurately ripped
9 | (31/31) Accurately ripped
10 | (31/31) Accurately ripped
11 | (31/31) Accurately ripped
12 | (31/31) Accurately ripped


==== Log checksum 557B927EC2BE6C48DEE1BC0988C5388D3CB60010FEAAFF9759B8D0A38DBD5ACE ====

foobar2000 1.2 / Dynamic Range Meter 1.1.1
log date: 2016-11-01 15:43:54

––––––––––––––––––––––––––––––––––––––––
Analyzed: The Art Of Noise / In Visible Silence
––––––––––––––––––––––––––––––––––––––––

DR Peak RMS Duration Track
––––––––––––––––––––––––––––––––––––––––
DR13 -8.22 dB -24.14 dB 2:01 01-Opus 4
DR16 -0.14 dB -20.52 dB 4:47 02-Paranoimia
DR11 -3.25 dB -18.11 dB 4:24 03-Eye Of A Needle
DR13 -0.11 dB -15.21 dB 3:57 04-Legs
DR14 -0.51 dB -17.68 dB 1:39 05-Slip of The Tongue
DR15 -0.34 dB -18.09 dB 4:09 06-Backbeat
DR14 -0.14 dB -17.89 dB 7:14 07-Instruments Of Darkness
DR12 -1.80 dB -16.39 dB 3:58 08-Peter Gunn (feat. Duane Eddy)
DR11 -6.01 dB -20.03 dB 7:24 09-Camilla
DR12 -1.78 dB -16.76 dB 4:16 10-Chameleon's Dish
DR12 -2.96 dB -18.55 dB 1:21 11-Beatback
DR12 -1.30 dB -15.98 dB 6:02 12-Peter Gunn (Extended Version)
––––––––––––––––––––––––––––––––––––––––

Number of tracks: 12
Official DR value: DR13

Samplerate: 44100 Hz
Channels: 2
Bits per sample: 16
Bitrate: 779 kbps
Codec: FLAC
================================================================================

The Art Of Noise - Albums Collection 1984-1999 (9CD)

The Art Of Noise - Albums Collection 1984-1999 (9CD)




The Art Of Noise - Albums Collection 1984-1999 (9CD)

The Art Of Noise - Daft (1986) Reissue 1994
EAC | FLAC | Image (Cue&Log) ~ 343 Mb | Mp3 (CBR320) ~ 178 Mb
Label: ZTT | # 4509-94747-2 | Time: 01:01:18 | Scans included

The place for Art of Noise neophytes to start, Daft collects (Who's Afraid Of?) The Art of Noise! and Into Battle with the Art of Noise, along with two reworkings of "Moments in Love" from the original U.K. release of that song, to make a fantastic hour's worth of music. If anything, a single or two aside, Daft beats out the official Best Of compilation by a mile. Having aged superbly with time, AON's early works sound all the more advanced and of the moment, a testament especially to Trevor Horn's excellent production and Anne Dudley's gripping arrangements. Further entertainment comes from the liner notes, which aren't merely state-of-the-art 1984 album design but an apparently barbed attack on the further incarnation of the band from one Otto Flake. The exact seriousness of this is up to the reader. As for the "Moments in Love" versions, both are gentler and more elegant than the already lush original, and none the worse for that, though "(Three Fingers Of) Love" does have rather disconcerting sound effects added to it.

Review by Ned Raggett, Allmusic.com

Tracklist:

01. Love (07:04)
02. A Time For Fear (Who's Afraid) (04:45)
03. Beat Box (Diversion 1) (08:31)
04. The Army Now (02:04)
05. Donna (01:44)
06. Memento (02:12)
07. How To Kill (02:42)
08. Realisation (01:44)
09. Who's Afraid (Of The Art Of Noise) (04:21)
10. Moments In Love (10:19)
11. Bright Noise (00:05)
12. Flesh In Armour (01:23)
13. Comes And Goes (01:18)
14. Snapshot (02:34)
15. Close (To The Edit) (05:39)
16. (Three Fingers Of) Love (04:44)


Exact Audio Copy V1.3 from 2. September 2016

EAC extraction logfile from 21. October 2016, 22:07

The Art Of Noise / Daft

Used drive : PLEXTOR DVDR PX-810SA Adapter: 1 ID: 0

Read mode : Secure
Utilize accurate stream : Yes
Defeat audio cache : Yes
Make use of C2 pointers : No

Read offset correction : 48
Overread into Lead-In and Lead-Out : No
Fill up missing offset samples with silence : Yes
Delete leading and trailing silent blocks : No
Null samples used in CRC calculations : Yes
Used interface : Installed external ASPI interface

Used output format : User Defined Encoder
Selected bitrate : 1024 kBit/s
Quality : High
Add ID3 tag : No
Command line compressor : C:\Program Files (x86)\Exact Audio Copy\Flac\flac.exe
Additional command line options : -8 -V -T "Date=%year%" -T "Genre=%genre%" -T "COMMENT=ripped by bvstudio®" %source%


TOC of the extracted CD

Track | Start | Length | Start sector | End sector
––––––––––––––––––––––––––––-
1 | 0:00.32 | 7:04.48 | 32 | 31879
2 | 7:05.05 | 4:45.50 | 31880 | 53304
3 | 11:50.55 | 8:31.72 | 53305 | 91701
4 | 20:22.52 | 2:04.68 | 91702 | 101069
5 | 22:27.45 | 1:44.52 | 101070 | 108921
6 | 24:12.22 | 2:12.63 | 108922 | 118884
7 | 26:25.10 | 2:42.27 | 118885 | 131061
8 | 29:07.37 | 1:44.63 | 131062 | 138924
9 | 30:52.25 | 4:21.40 | 138925 | 158539
10 | 35:13.65 | 10:19.12 | 158540 | 204976
11 | 45:33.02 | 0:05.65 | 204977 | 205416
12 | 45:38.67 | 1:23.35 | 205417 | 211676
13 | 47:02.27 | 1:18.25 | 211677 | 217551
14 | 48:20.52 | 2:34.33 | 217552 | 229134
15 | 50:55.10 | 5:39.15 | 229135 | 254574
16 | 56:34.25 | 4:44.27 | 254575 | 275901


Range status and errors

Selected range

Filename F:\The Art Of Noise\1986 - Daft (1994 - ZTT Records - Germany - 4509-94747-2 • ZCID Q2)\The Art Of Noise - Daft.wav

Peak level 84.9 %
Extraction speed 7.6 X
Range quality 100.0 %
Test CRC F3BC0C73
Copy CRC F3BC0C73
Copy OK

No errors occurred


AccurateRip summary

Track 1 accurately ripped (confidence 50) [45EBECDE] (AR v2)
Track 2 accurately ripped (confidence 45) [6F479058] (AR v2)
Track 3 accurately ripped (confidence 46) [5D1A8B43] (AR v2)
Track 4 accurately ripped (confidence 43) [513F0B7A] (AR v2)
Track 5 accurately ripped (confidence 44) [5ECD6F18] (AR v2)
Track 6 accurately ripped (confidence 44) [43FF1E00] (AR v2)
Track 7 accurately ripped (confidence 44) [C8B0DA9E] (AR v2)
Track 8 accurately ripped (confidence 44) [7620FAB7] (AR v2)
Track 9 accurately ripped (confidence 44) [B1F0781B] (AR v2)
Track 10 accurately ripped (confidence 46) [3E9A15E1] (AR v2)
Track 11 accurately ripped (confidence 22) [D89EE2C1] (AR v2)
Track 12 accurately ripped (confidence 44) [93E2E364] (AR v2)
Track 13 accurately ripped (confidence 44) [9FA6D5B1] (AR v2)
Track 14 accurately ripped (confidence 44) [5FC33036] (AR v2)
Track 15 accurately ripped (confidence 44) [7DFDD3B9] (AR v2)
Track 16 accurately ripped (confidence 47) [01D0D9B0] (AR v2)

All tracks accurately ripped

End of status report

–– CUETools DB Plugin V2.1.6

[CTDB TOCID: pkOVfjk1Ahdkcum.8QJD.cgWOs8-] found
Submit result: pkOVfjk1Ahdkcum.8QJD.cgWOs8- has been confirmed
Track | CTDB Status
1 | (80/81) Accurately ripped
2 | (81/81) Accurately ripped
3 | (77/81) Accurately ripped, or (1/81) differs in 595 samples @00:09:73-00:09:74,00:10:35-00:10:36,00:10:48-00:10:49,00:10:60-00:10:61,02:02:26-02:02:27,02:02:39-02:02:40,02:03:15-02:03:16,02:12:47-02:12:48
4 | (81/81) Accurately ripped
5 | (79/81) Accurately ripped
6 | (81/81) Accurately ripped
7 | (54/81) Accurately ripped, or (14/81) differs in 1786 samples @01:35:33-01:35:35, or (10/81) differs in 1786 samples @01:35:33-01:35:35
8 | (81/81) Accurately ripped
9 | (81/81) Accurately ripped
10 | (78/81) Accurately ripped
11 | (81/81) Accurately ripped
12 | (81/81) Accurately ripped
13 | (81/81) Accurately ripped
14 | (81/81) Accurately ripped
15 | (78/81) Accurately ripped
16 | (77/81) Accurately ripped


==== Log checksum D628115523BB1AD48E5512FBE1EF4124C394798DCCC1727A1E4854BA03663599 ====

foobar2000 1.2 / Dynamic Range Meter 1.1.1
log date: 2016-11-03 16:42:44

––––––––––––––––––––––––––––––––––––––––
Analyzed: The Art Of Noise / Daft
––––––––––––––––––––––––––––––––––––––––

DR Peak RMS Duration Track
––––––––––––––––––––––––––––––––––––––––
DR12 -2.17 dB -18.37 dB 7:05 01-Love
DR11 -3.01 dB -18.85 dB 4:46 02-A Time For Fear (Who's Afraid)
DR14 -2.05 dB -18.41 dB 8:32 03-Beat Box (Diversion 1)
DR11 -2.12 dB -16.95 dB 2:05 04-The Army Now
DR14 -2.25 dB -18.59 dB 1:45 05-Donna
DR12 -2.34 dB -21.55 dB 2:13 06-Memento
DR10 -3.86 dB -18.70 dB 2:42 07-How To Kill
DR11 -3.01 dB -17.42 dB 1:45 08-Realisation
DR14 -1.42 dB -17.82 dB 4:22 09-Who's Afraid (Of The Art Of Noise)
DR13 -3.26 dB -19.26 dB 10:19 10-Moments In Love
DR14 -11.60 dB -25.92 dB 0:06 11-Bright Noise
DR12 -1.67 dB -16.62 dB 1:23 12-Flesh In Armour
DR13 -5.34 dB -21.69 dB 1:18 13-Comes And Goes
DR12 -5.71 dB -19.52 dB 2:34 14-Snapshot
DR13 -3.11 dB -18.64 dB 5:39 15-Close (To The Edit)
DR13 -3.37 dB -19.73 dB 4:44 16-(Three Fingers Of) Love
––––––––––––––––––––––––––––––––––––––––

Number of tracks: 16
Official DR value: DR12

Samplerate: 44100 Hz
Channels: 2
Bits per sample: 16
Bitrate: 696 kbps
Codec: FLAC
================================================================================

The Art Of Noise - Albums Collection 1984-1999 (9CD)

The Art Of Noise - Albums Collection 1984-1999 (9CD)




The Art Of Noise - Albums Collection 1984-1999 (9CD)

The Art Of Noise - In No Sense? Nonsense! (1987)
EAC | FLAC | Image (Cue&Log) ~ 252 Mb | Mp3 (CBR320) ~ 113 Mb
Label: China | # 4509-95913-2 | Time: 00:41:40 | Scans included

In No Sense? Nonsense! was the third full-length album by Art of Noise, recorded and released in 1987. By the time of its recording, the group had been reduced to a duo, with engineer Gary Langan leaving the previous year—Langan's mix engineering duties were taken over by Bob Kraushaar and Ted Hayton for this album, but the music was produced entirely by Anne Dudley and J.J. Jeczalik. The album saw the group expanding its sound to include rock and orchestral instrumentation, in addition to its trademark sampling. Many of the album's tracks are seamlessly segued; ambient soundscapes blend into percussive rhythms, dramatic buildups, melodic string arrangements, and vocal choruses and chants. The sounds of various forms of transport are a recurrent theme. Musical motifs from "Dragnet," "Galleons of Stone," and "Ode to Don Jose" recur throughout the album.

In No Sense? Nonsense! contains some of the Art of Noise's most compelling work. With this album, Anne Dudley and company expanded their new wave experiments to include more instrumental firepower. In addition to full rock band production (including electric guitars, drums, and synthesizers), this record makes use of brass band, orchestral, and choral music. The result is about as rich and complex as they ever got. In No Sense? Nonsense! is probably best known as the album that included their take on the theme from the '50s cop show Dragnet, used in the 1987 film version that starred Dan Akroyd and Tom Hanks. That track is certainly the most accessible on the record, but it somehow seems a little too punchy for the primary ambient pop surroundings. It might fit better on a different album. This record is more notable for tracks like "How Rapid?" and "Opus for Four" that engage in fanciful genre blending. At times, the sound almost begins to anticipate later ambient dance artists like Enigma and DJ Shadow. But the Art of Noise are aptly named and consequently limited. Their artful noise collage lacks the visceral impact afforded by those later bands. In No Sense? is more often interesting than beautiful.

Review by Evan Cater, Allmusic.com

Tracklist:

01. Galleons Of Stone (01:11)
02. Dragnet (03:27)
03. Fin Du Temps (02:04)
04. How Rapid? (00:51)
05. Opus For Four (03:11)
06. Debut (01:56)
07. E.F.L. (05:24)
08. A Day At The Races (04:00)
09. Ode To Don Jose (04:13)
10. Counterpoint (00:56)
11. Roundabout 727 (00:45)
12. Ransom On The Sand (01:16)
13. Roller 1 (03:30)
14. Nothing Was Going To Stop Them Then, Anyway (00:44)
15. Crusoe (03:55)
16. One Earth (04:09)


Exact Audio Copy V1.3 from 2. September 2016

EAC extraction logfile from 26. October 2016, 21:41

The Art Of Noise / In No Sense? Nonsense!

Used drive : PLEXTOR DVDR PX-810SA Adapter: 1 ID: 0

Read mode : Secure
Utilize accurate stream : Yes
Defeat audio cache : Yes
Make use of C2 pointers : No

Read offset correction : 48
Overread into Lead-In and Lead-Out : No
Fill up missing offset samples with silence : Yes
Delete leading and trailing silent blocks : No
Null samples used in CRC calculations : Yes
Used interface : Installed external ASPI interface

Used output format : User Defined Encoder
Selected bitrate : 1024 kBit/s
Quality : High
Add ID3 tag : No
Command line compressor : C:\Program Files (x86)\Exact Audio Copy\Flac\flac.exe
Additional command line options : -8 -V -T "Date=%year%" -T "Genre=%genre%" -T "COMMENT=ripped by bvstudio®" %source%


TOC of the extracted CD

Track | Start | Length | Start sector | End sector
––––––––––––––––––––––––––––-
1 | 0:00.00 | 1:11.35 | 0 | 5359
2 | 1:11.35 | 3:27.23 | 5360 | 20907
3 | 4:38.58 | 2:04.50 | 20908 | 30257
4 | 6:43.33 | 0:51.52 | 30258 | 34134
5 | 7:35.10 | 3:11.08 | 34135 | 48467
6 | 10:46.18 | 1:56.35 | 48468 | 57202
7 | 12:42.53 | 5:24.65 | 57203 | 81567
8 | 18:07.43 | 4:00.65 | 81568 | 99632
9 | 22:08.33 | 4:13.62 | 99633 | 118669
10 | 26:22.20 | 0:56.60 | 118670 | 122929
11 | 27:19.05 | 0:45.00 | 122930 | 126304
12 | 28:04.05 | 1:16.73 | 126305 | 132077
13 | 29:21.03 | 3:30.25 | 132078 | 147852
14 | 32:51.28 | 0:44.60 | 147853 | 151212
15 | 33:36.13 | 3:55.05 | 151213 | 168842
16 | 37:31.18 | 4:09.10 | 168843 | 187527


Range status and errors

Selected range

Filename F:\LOSSLESS UPLOADS\The Art Of Noise\1987 - In·No·Sense. Nonsense! (1994 - Cnina Records - Germany - 4509-95913-2)\The Art Of Noise - In No Sense Nonsense!.wav

Peak level 100.0 %
Extraction speed 6.5 X
Range quality 100.0 %
Test CRC 3A5EB5F8
Copy CRC 3A5EB5F8
Copy OK

No errors occurred


AccurateRip summary

Track 1 accurately ripped (confidence 16) [D637E6F5] (AR v2)
Track 2 accurately ripped (confidence 16) [A2002BAC] (AR v2)
Track 3 accurately ripped (confidence 16) [8A91990D] (AR v2)
Track 4 accurately ripped (confidence 16) [4C42742A] (AR v2)
Track 5 accurately ripped (confidence 16) [9F7FE492] (AR v2)
Track 6 accurately ripped (confidence 16) [EEF7CFB3] (AR v2)
Track 7 accurately ripped (confidence 16) [45E4254D] (AR v2)
Track 8 accurately ripped (confidence 16) [2AA18ACB] (AR v2)
Track 9 accurately ripped (confidence 16) [7889E02F] (AR v2)
Track 10 accurately ripped (confidence 16) [F6F907DF] (AR v2)
Track 11 accurately ripped (confidence 16) [1B311023] (AR v2)
Track 12 accurately ripped (confidence 16) [87EFD941] (AR v2)
Track 13 accurately ripped (confidence 16) [33EF4AD1] (AR v2)
Track 14 accurately ripped (confidence 16) [0408BB6A] (AR v2)
Track 15 accurately ripped (confidence 16) [9B855813] (AR v2)
Track 16 accurately ripped (confidence 16) [CD7945A8] (AR v2)

All tracks accurately ripped

End of status report

–– CUETools DB Plugin V2.1.6

[CTDB TOCID: HtJLMOoYrf6gWrUma3WxJKYRZgo-] found
Submit result: HtJLMOoYrf6gWrUma3WxJKYRZgo- has been confirmed
Track | CTDB Status
1 | (47/47) Accurately ripped
2 | (47/47) Accurately ripped
3 | (47/47) Accurately ripped
4 | (47/47) Accurately ripped
5 | (47/47) Accurately ripped
6 | (47/47) Accurately ripped
7 | (47/47) Accurately ripped
8 | (47/47) Accurately ripped
9 | (47/47) Accurately ripped
10 | (47/47) Accurately ripped
11 | (47/47) Accurately ripped
12 | (47/47) Accurately ripped
13 | (47/47) Accurately ripped
14 | (47/47) Accurately ripped
15 | (47/47) Accurately ripped
16 | (47/47) Accurately ripped


==== Log checksum 73120C6803D35D37DD5E480F0504E668D886D189D6A634E522C25E627CFB2ACF ====

foobar2000 1.2 / Dynamic Range Meter 1.1.1
log date: 2016-10-29 16:20:03

––––––––––––––––––––––––––––––––––––––––
Analyzed: The Art Of Noise / In No Sense? Nonsense!
––––––––––––––––––––––––––––––––––––––––

DR Peak RMS Duration Track
––––––––––––––––––––––––––––––––––––––––
DR12 -15.24 dB -31.58 dB 1:11 01-Galleons Of Stone
DR13 0.00 dB -15.94 dB 3:27 02-Dragnet
DR12 -0.96 dB -15.56 dB 2:05 03-Fin Du Temps
DR12 -0.06 dB -27.35 dB 0:52 04-How Rapid?
DR13 -0.21 dB -17.25 dB 3:11 05-Opus For Four
DR11 -1.46 dB -15.99 dB 1:56 06-Debut
DR13 0.00 dB -16.30 dB 5:25 07-E.F.L.
DR13 -0.37 dB -17.77 dB 4:01 08-A Day At The Races
DR11 -0.45 dB -16.62 dB 4:14 09-Ode To Don Jose
DR10 -5.66 dB -20.96 dB 0:57 10-Counterpoint
DR11 -4.70 dB -18.47 dB 0:45 11-Roundabout 727
DR10 -4.97 dB -17.78 dB 1:17 12-Ransom On The Sand
DR15 0.00 dB -17.93 dB 3:30 13-Roller 1
DR11 -3.45 dB -23.39 dB 0:45 14-Nothing Was Going To Stop Them Then, Anyway
DR11 -2.73 dB -17.86 dB 3:55 15-Crusoe
DR13 -0.29 dB -16.66 dB 4:09 16-One Earth
––––––––––––––––––––––––––––––––––––––––

Number of tracks: 16
Official DR value: DR12

Samplerate: 44100 Hz
Channels: 2
Bits per sample: 16
Bitrate: 788 kbps
Codec: FLAC
================================================================================

The Art Of Noise - Albums Collection 1984-1999 (9CD)

The Art Of Noise - Albums Collection 1984-1999 (9CD)




The Art Of Noise - Albums Collection 1984-1999 (9CD)

The Art Of Noise - Below The Waste (1989) US 1994
EAC | FLAC | Image (Cue&Log) ~ 349 Mb | Mp3 (CBR320) ~ 178 Mb | Scans included
Label: China Records/Off-Beat | # OBR-01011-2 | Time: 00:52:42

Below the Waste is Art of Noise's fourth full-length original album and their last album for China Records before Anne Dudley reformed with ZTT's Trevor Horn and Paul Morley for 1999's The Seduction of Claude Debussy.

The album saw the group experimenting with world music, collaborating with South African Zulu group Mahlathini and the Mahotella Queens, who provide a heavy layer of mostly non-English-language vocals on three tracks ("Yebo!", "Chain Gang" and "Spit"). The album was produced by Anne Dudley, Ted Hayton and J.J. Jeczalik."

The album represents the diverging interests of the two remaining members of the original group, Anne Dudley and J.J. Jeczalik. Dudley's influence is evident in the album's ambient interludes of melodic, orchestral pieces, while Jeczalik's influence can be heard in the album's dub tracks and harder, rock-edged pieces. The latter songs also feature arrangements more typical of the band's earlier material, utilising sampling techniques, lengthy fade-outs, a diverse mixture of classical instruments, guitar riffs and percussion typical of industrial music.

Tracklist:

01. Dan Dare (6:02)
02. Yebo! (feat.Mahlathini and The Mahotella Queens) (7:11)
03. Catwalk (5:29)
04. Promenade 1 (0:33)
05. Dilemma (3:01)
06. Island (5:49)
07. Chain Gang (3:07)
08. Promenade 2 (0:38)
09. Back To Back (3:53)
10. Flashback (1:45)
11. Spit (3:31)
12. Robinson Crusoe (3:47)
13. James Bond Theme (5:19)
14. Finale (2:38)


Exact Audio Copy V1.3 from 2. September 2016

EAC extraction logfile from 21. October 2016, 22:28

The Art Of Noise / Below The Waste

Used drive : PLEXTOR DVDR PX-810SA Adapter: 1 ID: 0

Read mode : Secure
Utilize accurate stream : Yes
Defeat audio cache : Yes
Make use of C2 pointers : No

Read offset correction : 48
Overread into Lead-In and Lead-Out : No
Fill up missing offset samples with silence : Yes
Delete leading and trailing silent blocks : No
Null samples used in CRC calculations : Yes
Used interface : Installed external ASPI interface

Used output format : User Defined Encoder
Selected bitrate : 1024 kBit/s
Quality : High
Add ID3 tag : No
Command line compressor : C:\Program Files (x86)\Exact Audio Copy\Flac\flac.exe
Additional command line options : -8 -V -T "Date=%year%" -T "Genre=%genre%" -T "COMMENT=ripped by bvstudio®" %source%


TOC of the extracted CD

Track | Start | Length | Start sector | End sector
––––––––––––––––––––––––––––-
1 | 0:00.00 | 6:01.60 | 0 | 27134
2 | 6:01.60 | 7:11.37 | 27135 | 59496
3 | 13:13.22 | 5:29.33 | 59497 | 84204
4 | 18:42.55 | 0:32.62 | 84205 | 86666
5 | 19:15.42 | 3:01.15 | 86667 | 100256
6 | 22:16.57 | 5:49.13 | 100257 | 126444
7 | 28:05.70 | 3:07.20 | 126445 | 140489
8 | 31:13.15 | 0:38.27 | 140490 | 143366
9 | 31:51.42 | 3:53.00 | 143367 | 160841
10 | 35:44.42 | 1:45.30 | 160842 | 168746
11 | 37:29.72 | 3:31.33 | 168747 | 184604
12 | 41:01.30 | 3:47.20 | 184605 | 201649
13 | 44:48.50 | 5:18.62 | 201650 | 225561
14 | 50:07.37 | 2:37.65 | 225562 | 237401


Range status and errors

Selected range

Filename F:\The Art Of Noise\1989 - Below The Waste (1993 - China Records • Off-Beat Records - US - OBR-01011-2)\The Art Of Noise - Below The Waste.wav

Peak level 100.0 %
Extraction speed 6.8 X
Range quality 100.0 %
Test CRC CC305038
Copy CRC CC305038
Copy OK

No errors occurred


AccurateRip summary

Track 1 accurately ripped (confidence 4) [41FBF46D] (AR v2)
Track 2 accurately ripped (confidence 4) [7B6EEBFA] (AR v2)
Track 3 accurately ripped (confidence 3) [60024FEE] (AR v2)
Track 4 accurately ripped (confidence 3) [CEE27352] (AR v2)
Track 5 accurately ripped (confidence 3) [3535B096] (AR v2)
Track 6 accurately ripped (confidence 3) [0611D9D5] (AR v2)
Track 7 accurately ripped (confidence 3) [607596CE] (AR v2)
Track 8 accurately ripped (confidence 4) [E7F89201] (AR v2)
Track 9 accurately ripped (confidence 3) [B016EB88] (AR v2)
Track 10 accurately ripped (confidence 3) [C84F2490] (AR v2)
Track 11 accurately ripped (confidence 3) [533268B1] (AR v2)
Track 12 accurately ripped (confidence 3) [9515B051] (AR v2)
Track 13 accurately ripped (confidence 3) [FD46E8E1] (AR v2)
Track 14 accurately ripped (confidence 3) [E2D1EC1C] (AR v2)

All tracks accurately ripped

End of status report

–– CUETools DB Plugin V2.1.6

[CTDB TOCID: qWrNoKjBsfO7BR925igSlh_JUAQ-] found
Submit result: qWrNoKjBsfO7BR925igSlh_JUAQ- has been confirmed
Track | CTDB Status
1 | (5/5) Accurately ripped
2 | (5/5) Accurately ripped
3 | (5/5) Accurately ripped
4 | (5/5) Accurately ripped
5 | (5/5) Accurately ripped
6 | (5/5) Accurately ripped
7 | (5/5) Accurately ripped
8 | (5/5) Accurately ripped
9 | (5/5) Accurately ripped
10 | (5/5) Accurately ripped
11 | (5/5) Accurately ripped
12 | (5/5) Accurately ripped
13 | (5/5) Accurately ripped
14 | (5/5) Accurately ripped


==== Log checksum DC49D07438CC581A51BB74D6E5CE93783407D8C19A22F867DC2D79366EEF5AF7 ====

foobar2000 1.2 / Dynamic Range Meter 1.1.1
log date: 2020-04-25 17:27:53

––––––––––––––––––––––––––––––––––––––––
Analyzed: The Art Of Noise / Below The Waste
––––––––––––––––––––––––––––––––––––––––

DR Peak RMS Duration Track
––––––––––––––––––––––––––––––––––––––––
DR11 -0.59 dB -15.00 dB 6:02 01-Dan Dare
DR11 -0.15 dB -14.08 dB 7:11 02-Yebo! (feat.Mahlathini and The Mahotella Queens)
DR12 -0.15 dB -14.25 dB 5:29 03-Catwalk
DR9 -6.47 dB -21.36 dB 0:33 04-Promenade 1
DR16 -1.22 dB -21.25 dB 3:01 05-Dilemma
DR12 -0.15 dB -16.62 dB 5:49 06-Island
DR13 0.00 dB -17.04 dB 3:07 07-Chain Gang
DR10 -2.46 dB -14.24 dB 0:38 08-Promenade 2
DR12 -0.54 dB -15.63 dB 3:53 09-Back To Back
DR16 -1.70 dB -20.23 dB 1:45 10-Flashback
DR13 0.00 dB -16.66 dB 3:31 11-Spit
DR11 -2.16 dB -15.62 dB 3:47 12-Robinson Crusoe
DR12 -0.88 dB -15.93 dB 5:19 13-James Bond Theme
DR10 -5.12 dB -20.40 dB 2:38 14-Finale
––––––––––––––––––––––––––––––––––––––––

Number of tracks: 14
Official DR value: DR12

Samplerate: 44100 Hz
Channels: 2
Bits per sample: 16
Bitrate: 772 kbps
Codec: FLAC
================================================================================

The Art Of Noise - Albums Collection 1984-1999 (9CD)

The Art Of Noise - Albums Collection 1984-1999 (9CD)




The Art Of Noise - Albums Collection 1984-1999 (9CD)

The Art Of Noise - The Ambient Collection (1990) Reissue 1993
EAC | FLAC | Image (Cue&Log) ~ 296 Mb | Mp3 (CBR320) ~ 147 Mb | Scans included
Label: China/Off-Beat | # OBR 01012-2 | 00:49:20

Discovery Records, just before its demise, did a great and wondrous thing by putting out four, count them, four Art of Noise CDs in one fell swoop. Art of Noise began in the mid-'80s and is now a touchstone to which all electronic music should be compared. While compiling their own collections, Discovery Records was able to take advantage of a excellent compendium ready for reissue. Ambient Collection had long been a jewel in many vinyl collections. These Art of Noise catalog remixes by Youth, bassist for Killing Joke, remain a classic of compositional ambient electronica. One of the themes to this ambient opus is explicitly stated in "Robinson Crusoe" and hinted at elsewhere. Art of Noise's Anne Dudley had mentioned just before the original 1990 release on a GLR Radio U.K. program that French composer Robert Mellin's main theme for "Robinson Crusoe" recalled here was one of her Top Ten favorite pop songs.

Review by Tom Schulte, Allmusic.com

Tracklist:

01. Opus 4 (00:42)
02. Opus For 4 (03:47)
03. Nothing Was Going To Stop Them Then, Anyway (00:44)
04. Crusoe (05:03)
05. Island (05:40)
06. Camilla (07:56)
07. Ode To Don Jose (04:14)
08. Counterpoint (00:56)
09. Roundabout 727 / Ransom In The Sand (02:09)
10. Eye Of A Needle (04:42)
11. Robinson Crusoe (04:03)
12. A Nation Rejects (04:45)
13. Art Of Love (7' Edition) (04:34)


Exact Audio Copy V1.3 from 2. September 2016

EAC extraction logfile from 21. October 2016, 22:48

The Art Of Noise / The Ambient Collection

Used drive : PLEXTOR DVDR PX-810SA Adapter: 1 ID: 0

Read mode : Secure
Utilize accurate stream : Yes
Defeat audio cache : Yes
Make use of C2 pointers : No

Read offset correction : 48
Overread into Lead-In and Lead-Out : No
Fill up missing offset samples with silence : Yes
Delete leading and trailing silent blocks : No
Null samples used in CRC calculations : Yes
Used interface : Installed external ASPI interface

Used output format : User Defined Encoder
Selected bitrate : 1024 kBit/s
Quality : High
Add ID3 tag : No
Command line compressor : C:\Program Files (x86)\Exact Audio Copy\Flac\flac.exe
Additional command line options : -8 -V -T "Date=%year%" -T "Genre=%genre%" -T "COMMENT=ripped by bvstudio®" %source%


TOC of the extracted CD

Track | Start | Length | Start sector | End sector
––––––––––––––––––––––––––––-
1 | 0:00.00 | 0:42.72 | 0 | 3221
2 | 0:42.72 | 3:47.25 | 3222 | 20271
3 | 4:30.22 | 0:44.28 | 20272 | 23599
4 | 5:14.50 | 5:03.52 | 23600 | 46376
5 | 10:18.27 | 5:40.33 | 46377 | 71909
6 | 15:58.60 | 7:56.22 | 71910 | 107631
7 | 23:55.07 | 4:14.23 | 107632 | 126704
8 | 28:09.30 | 0:56.37 | 126705 | 130941
9 | 29:05.67 | 2:09.23 | 130942 | 140639
10 | 31:15.15 | 4:42.30 | 140640 | 161819
11 | 35:57.45 | 4:03.00 | 161820 | 180044
12 | 40:00.45 | 4:45.52 | 180045 | 201471
13 | 44:46.22 | 4:34.53 | 201472 | 222074


Range status and errors

Selected range

Filename F:\The Art Of Noise\1990 - The Ambient Collection (1993 - China Records • Off-Beat Records - US - OBR 01012-2)\The Art Of Noise - The Ambient Collection.wav

Peak level 95.2 %
Extraction speed 6.8 X
Range quality 100.0 %
Test CRC 8B8338CC
Copy CRC 8B8338CC
Copy OK

No errors occurred


AccurateRip summary

Track 1 accurately ripped (confidence 7) [7E04876C] (AR v2)
Track 2 accurately ripped (confidence 7) [9F1F8FA8] (AR v2)
Track 3 accurately ripped (confidence 7) [F955E136] (AR v2)
Track 4 accurately ripped (confidence 7) [3698CBE3] (AR v2)
Track 5 accurately ripped (confidence 7) [94CB8736] (AR v2)
Track 6 accurately ripped (confidence 7) [38072AC7] (AR v2)
Track 7 accurately ripped (confidence 7) [80F03786] (AR v2)
Track 8 accurately ripped (confidence 7) [D5474FF6] (AR v2)
Track 9 accurately ripped (confidence 7) [054A8864] (AR v2)
Track 10 accurately ripped (confidence 7) [08B4D0FD] (AR v2)
Track 11 accurately ripped (confidence 7) [4915D844] (AR v2)
Track 12 accurately ripped (confidence 7) [EE2FA157] (AR v2)
Track 13 accurately ripped (confidence 7) [4A15522E] (AR v2)

All tracks accurately ripped

End of status report

–– CUETools DB Plugin V2.1.6

[CTDB TOCID: 05gu7XTI2ybs6IOUJ3qYIf1qx.k-] found
Submit result: 05gu7XTI2ybs6IOUJ3qYIf1qx.k- has been confirmed
Track | CTDB Status
1 | (13/13) Accurately ripped
2 | (13/13) Accurately ripped
3 | (13/13) Accurately ripped
4 | (13/13) Accurately ripped
5 | (13/13) Accurately ripped
6 | (13/13) Accurately ripped
7 | (13/13) Accurately ripped
8 | (13/13) Accurately ripped
9 | (13/13) Accurately ripped
10 | (13/13) Accurately ripped
11 | (12/13) Accurately ripped
12 | (13/13) Accurately ripped
13 | (13/13) Accurately ripped


==== Log checksum 7AF7CA07C7914C5A5A078EF520728EE346D98C1AED181A015E94CC380D3DB805 ====

foobar2000 1.2 / Dynamic Range Meter 1.1.1
log date: 2016-11-05 18:43:15

––––––––––––––––––––––––––––––––––––––––
Analyzed: The Art Of Noise / The Ambient Collection
––––––––––––––––––––––––––––––––––––––––

DR Peak RMS Duration Track
––––––––––––––––––––––––––––––––––––––––
DR10 -4.03 dB -27.44 dB 0:43 01-Opus 4
DR13 -1.40 dB -17.95 dB 3:47 02-Opus For 4
DR11 -3.82 dB -22.83 dB 0:44 03-Nothing Was Going To Stop Them Then, Anyway
DR11 -2.89 dB -18.90 dB 5:04 04-Crusoe
DR12 -1.40 dB -17.12 dB 5:40 05-Island
DR11 -3.46 dB -17.51 dB 7:56 06-Camilla
DR11 -2.00 dB -17.30 dB 4:14 07-Ode To Don Jose
DR10 -5.25 dB -21.17 dB 0:56 08-Counterpoint
DR13 -2.51 dB -18.44 dB 2:09 09-Roundabout 727 / Ransom In The Sand
DR12 -1.63 dB -17.26 dB 4:42 10-Eye Of A Needle
DR12 -2.47 dB -16.47 dB 4:03 11-Robinson Crusoe
DR12 -6.33 dB -22.77 dB 4:46 12-A Nation Rejects
DR13 -0.42 dB -16.00 dB 4:35 13-Art Of Love (7' Edition)
––––––––––––––––––––––––––––––––––––––––

Number of tracks: 13
Official DR value: DR12

Samplerate: 44100 Hz
Channels: 2
Bits per sample: 16
Bitrate: 742 kbps
Codec: FLAC
================================================================================

The Art Of Noise - Albums Collection 1984-1999 (9CD)

The Art Of Noise - Albums Collection 1984-1999 (9CD)




The Art Of Noise - Albums Collection 1984-1999 (9CD)

The Art Of Noise - The FON Mixes (1991)
EAC | FLAC | Image (Cue&Log) ~ 295 Mb | Mp3 (CBR320) ~ 129 Mb | Scans included
Label: China Records | # 4509-96101-2, WOLCD 1023 | Time: 00:49:11

The Fon Mixes are a diverse techno collection remixed at the legendary Fon Studios in Sheffield, England. This album features early work from the Prodigy, LFO, Youth and Graham Massey of 808 State, highlighting the emerging rave culture which has crossed the Atlantic and permeated America.

Tracklist:

01. Instruments Of Darkness (All Of Us Are One People) (The Prodigy Mix) (3:38)
02. Yebo (Interlude 1) (A Mark Gamble Mix) (1:18)
03. Roller 10 (The Rhythmatic Mix) (4:47)
04. Back To Backbeat (The Robert Gordon Mix) (4:28)
05. Shades Of Paranoimia (The Carl Cox Mix) (3:44)
06. Ode To A D.J. (Interlude 2) (The Mark Gambler Mix) (1:09)
07. Catwalk (The Ground Mix) (5:02)
08. Dragnet And Peter Gunn Have A Day At The Races (Interlude 3) ((A Mark Gamble Mix) (1:27)
09. Legs (The Graham Massey Mix) (3:18)
10. L.E.F. (The Mark Brydon Mix) (5:01)
11. I Of The Needled (The Sweet Exorcist Mix) (4:35)
12. Crusoe (The LFO Mix) (3:45)
13. The Art Of Slow Love (Youth (Slow concept by Phil Barber)) (5:13)
14. No Sun (Interlude 4) (A Mark Gamble Mix) (1:48)


Exact Audio Copy V1.0 beta 3 from 29. August 2011

Отчёт EAC об извлечении, выполненном 24. марта 2018, 19:17

The Art Of Noise / The Fon Mixes

Дисковод: Optiarc DVD RW AD-7200S Adapter: 3 ID: 0

Режим чтения : Достоверность
Использование точного потока : Да
Отключение кэша аудио : Да
Использование указателей C2 : Нет

Коррекция смещения при чтении : 48
Способность читать области Lead-in и Lead-out : Нет
Заполнение пропущенных сэмплов тишиной : Да
Удаление блоков с тишиной в начале и конце : Нет
При вычислениях CRC использовались нулевые сэмплы : Да
Интерфейс : Установленный внешний ASPI-интерфейс

Выходной формат : Пользовательский кодировщик
Выбранный битрейт : 1024 kBit/s
Качество : Высокий
Добавление ID3-тега : Нет
Утилита сжатия : C:\Program Files\Exact Audio Copy\FLAC\FLAC.EXE
Дополнительные параметры : -V -8 -T "Date=%year%" -T "Genre=%genre%" %source%


TOC извлечённого CD

Трек | Старт | Длительность | Начальный сектор | Конечный сектор
––––––––––––––––––––––––––––––––––-
1 | 0:00.00 | 3:38.02 | 0 | 16351
2 | 3:38.02 | 1:18.00 | 16352 | 22201
3 | 4:56.02 | 4:47.08 | 22202 | 43734
4 | 9:43.10 | 4:27.67 | 43735 | 63826
5 | 14:11.02 | 3:43.38 | 63827 | 80589
6 | 17:54.40 | 1:09.10 | 80590 | 85774
7 | 19:03.50 | 5:02.22 | 85775 | 108446
8 | 24:05.72 | 1:26.65 | 108447 | 114961
9 | 25:32.62 | 3:17.48 | 114962 | 129784
10 | 28:50.35 | 5:00.47 | 129785 | 152331
11 | 33:51.07 | 4:34.53 | 152332 | 172934
12 | 38:25.60 | 3:44.47 | 172935 | 189781
13 | 42:10.32 | 5:12.38 | 189782 | 213219
14 | 47:22.70 | 1:47.67 | 213220 | 221311


Характеристики диапазона извлечения и сообщения об ошибках

Выбранный диапазон

Имя файла C:\Users\ASUS\Music\Аудио\The Art Of Noise - The Fon Mixes.wav

Пиковый уровень 99.9 %
Скорость извлечения 3.7 X
Качество диапазона 100.0 %
CRC теста 6ADDFA5E
CRC копии 6ADDFA5E
Копирование… OK

Ошибок не произошло


AccurateRip: сводка

Трек 1 : извлечено точно (доверие 5) [D2604AF1] (AR v2)
Трек 2 : извлечено точно (доверие 5) [0B3FF960] (AR v2)
Трек 3 : извлечено точно (доверие 5) [94FE0451] (AR v2)
Трек 4 : извлечено точно (доверие 5) [478C089E] (AR v2)
Трек 5 : извлечено точно (доверие 5) [8CEE7311] (AR v2)
Трек 6 : извлечено точно (доверие 5) [B8A9FBD5] (AR v2)
Трек 7 : извлечено точно (доверие 5) [F9BE20FF] (AR v2)
Трек 8 : извлечено точно (доверие 5) [0DE419CD] (AR v2)
Трек 9 : извлечено точно (доверие 5) [62EC3EBC] (AR v2)
Трек 10 : извлечено точно (доверие 5) [B4121660] (AR v2)
Трек 11 : извлечено точно (доверие 5) [766345AF] (AR v2)
Трек 12 : извлечено точно (доверие 5) [4BE8D941] (AR v2)
Трек 13 : извлечено точно (доверие 5) [BCF7CDBF] (AR v2)
Трек 14 : извлечено точно (доверие 5) [A7FCCFFF] (AR v2)

Все треки извлечены точно

Конец отчёта

==== Контрольная сумма отчёта C232F1B53C8B27C129F3B8B45DEDA78B22C97860DABB8F14DA899623DCA69946 ====

[CUETools log; Date: 25.03.2018 3:53:34; Version: 2.1.4]
[CTDB TOCID: zSoInmRmQ96vKGiMYXUjDGjzhA8-] found.
Track | CTDB Status
1 | (26/29) Accurately ripped
2 | (26/29) Accurately ripped
3 | (25/29) Accurately ripped
4 | (24/29) Accurately ripped
5 | (26/29) Accurately ripped
6 | (26/29) Accurately ripped
7 | (25/29) Accurately ripped
8 | (26/29) Accurately ripped
9 | (26/29) Accurately ripped
10 | (26/29) Accurately ripped
11 | (26/29) Accurately ripped
12 | (26/29) Accurately ripped
13 | (25/29) Accurately ripped
14 | (26/29) Accurately ripped
[AccurateRip ID: 0018a598-010981a9-b00b860e] found.
Track [ CRC | V2 ] Status
01 [c218d364|adf9be9e] (00+00/27) No match
02 [4dda1afb|59454536] (00+00/28) No match
03 [9ebd35cb|78fbf06e] (00+00/28) No match
04 [35c35ad1|b1130e8a] (00+00/28) No match
05 [2d63d91f|12e077a1] (00+00/28) No match
06 [b0104b87|1d459d90] (00+00/28) No match
07 [b9261a78|70a9a7a5] (00+00/28) No match
08 [04bcdcad|46f53bfa] (00+00/28) No match
09 [180aac99|def0ec5f] (00+00/28) No match
10 [6591457f|45df782c] (00+00/28) No match
11 [34abdbad|d99693a1] (00+00/28) No match
12 [ae0ec996|b07daeb0] (00+00/28) No match
13 [72ebf2cc|c571048b] (00+00/28) No match
14 [9dcd692e|39d79494] (00+00/28) No match
Offsetted by 18:
01 [cca70b07] (03/27) Accurately ripped
02 [fdb9daf3] (04/28) Accurately ripped
03 [a3f6ecc8] (04/28) Accurately ripped
04 [4904b003] (04/28) Accurately ripped
05 [a6583ef2] (04/28) Accurately ripped
06 [fd125d27] (04/28) Accurately ripped
07 [bfc69c2c] (04/28) Accurately ripped
08 [cc77c939] (04/28) Accurately ripped
09 [0b3627fb] (04/28) Accurately ripped
10 [2e759432] (04/28) Accurately ripped
11 [b1979aff] (04/28) Accurately ripped
12 [cc3b0932] (04/28) Accurately ripped
13 [84b9fd25] (04/28) Accurately ripped
14 [166fc9df] (04/28) Accurately ripped

Track Peak [ CRC32 ] [W/O NULL] [ LOG ]
– 99,9 [6ADDFA5E] [2EDE5B82] CRC32
01 82,3 [1E0B2044] [1A400145]
02 65,8 [1487827D] [916E569D]
03 61,5 [FAEDB11A] [1F0F29EF]
04 87,8 [10F0A333] [52663184]
05 70,0 [0BEAA90B] [8CE16928]
06 57,3 [A7480789] [EF9A518D]
07 87,0 [3190A391] [C11D60D8]
08 71,0 [819AFA0E] [2A3B10EA]
09 85,5 [77BD5704] [0847F692]
10 81,9 [79E245C7] [A2ECECC4]
11 81,5 [D3885DEE] [A825B4FB]
12 62,9 [C03C6F00] [7ACA4A41]
13 99,9 [CF70DB81] [01ACF64E]
14 72,8 [13697D4C] [58FA73EA]

foobar2000 1.2 / Dynamic Range Meter 1.1.1
log date: 2018-03-25 03:50:39

––––––––––––––––––––––––––––––––––––––––
Analyzed: The Art Of Noise / The Fon Mixes
––––––––––––––––––––––––––––––––––––––––

DR Peak RMS Duration Track
––––––––––––––––––––––––––––––––––––––––
DR13 -1.68 dB -17.68 dB 3:38 01-Instruments Of Darkness (All Of Us Are One People) (The Prodigy Mix)
DR11 -3.63 dB -18.14 dB 1:18 02-Yebo (Interlude 1) (A Mark Gamble Mix)
DR10 -4.21 dB -16.68 dB 4:47 03-Roller 10 (The Rhythmatic Mix)
DR12 -1.13 dB -16.99 dB 4:28 04-Back To Backbeat (The Robert Gordon Mix)
DR11 -3.09 dB -17.05 dB 3:44 05-Shades Of Paranoimia (The Carl Cox Mix)
DR16 -4.83 dB -25.11 dB 1:09 06-Ode To A D.J. (Interlude 2) (The Mark Gambler Mix)
DR17 -1.20 dB -20.30 dB 5:02 07-Catwalk (The Ground Mix)
DR10 -2.97 dB -19.00 dB 1:27 08-Dragnet And Peter Gunn Have A Day At The Races (Interlude 3) (The MarkGambler…
DR14 -1.35 dB -16.94 dB 3:18 09-Legs (The Graham Massey Mix)
DR15 -1.73 dB -19.02 dB 5:01 10-L.E.F. (The Mark Brydon Mix)
DR14 -1.77 dB -17.93 dB 4:35 11-I Of The Needled (The Sweet Exorcist Mix)
DR12 -4.02 dB -18.89 dB 3:45 12-Crusoe (The LFO Mix)
DR15 0.00 dB -19.06 dB 5:13 13-The Art Of Slow Love (Youth (Slow concept by Phil Barber))
DR15 -2.75 dB -20.08 dB 1:48 14-No Sun (Interlude 4) (A Mark Gamble Mix)
––––––––––––––––––––––––––––––––––––––––

Number of tracks: 14
Official DR value: DR13

Samplerate: 44100 Hz
Channels: 2
Bits per sample: 16
Bitrate: 792 kbps
Codec: FLAC
================================================================================

The Art Of Noise - Albums Collection 1984-1999 (9CD)

The Art Of Noise - Albums Collection 1984-1999 (9CD)

All thanks to original releaser - truckdriver975



The Art Of Noise - Albums Collection 1984-1999 (9CD)

The Art Of Noise - The Best Of The Art Of Noise (1992) Germany 1994
EAC | FLAC | Image (Cue&Log) ~ 219 Mb | Mp3 (CBR320) ~ 103 Mb | Scans included
Label: China Records | # 4509-96102-2 | Time: 00:33:00

As an overview of Art of Noise's brief output, this best-of can't be beat, though it does inadvertently track their slide from forerunners to recyclers and cultural panderers. The 1-2-3 rush of "Beat Box," "Moments in Love," and "Close (To the Edit)" make this CD worth the money already – at the time of their release, these singles swiped electronic music back from America (by way of Germany) and cut the whole thing up with ridiculous samples (a car starting, the omnipresent orchestral hit) and enjoyable art school posturing. It was like Dada had invaded the charts, circa 1984. But soon, after their break with ZTT and joining China Records, it wasn't long until they were parodying themselves and trying to score pop hits with a recognizable "sound." Singles featured older pop stars trying to score a hit again (Duane Eddy on "Peter Gunn," Tom Jones on "Kiss"), current celebrities riding their own popularity wave (Max Headroom), or cover songs gussied up with a few more car starting sounds (the made-for-hire "Dragnet '88," used in the regrettable film remake). The vinyl version contains the (sometimes preferable) single mixes; the CD and cassette contain 12" remixes, good for the collector, bad on the patience. A similarly covered CD, only in pink (and released two years later), is also called "The Best Of" but focuses more on the group's album tracks.

Review by Ted Mills, Allmusic.com

Tracklist:

01. Opus 4 (2:01)
02. Yebo (3:50)
03. Instruments Of Darkness (All Of Us Are One People) (3:39)
04. Robinson Crusoe (3:48)
05. Peter Gunn (feat. Duane Eddy) (3:58)
06. Paranoimia (feat. Max Headroom) (3:18)
07. Legacy (3:25)
08. Dragnet '88 (From The Motion Picture) (3:00)
09. Kiss (feat. Tom Jones) (3:31)
10. Something Always Happens (2:30)


Exact Audio Copy V1.3 from 2. September 2016

EAC extraction logfile from 26. October 2016, 21:57

The Art Of Noise / The Best Of The Art Of Noise (Pink Cover)

Used drive : PLEXTOR DVDR PX-810SA Adapter: 1 ID: 0

Read mode : Secure
Utilize accurate stream : Yes
Defeat audio cache : Yes
Make use of C2 pointers : No

Read offset correction : 48
Overread into Lead-In and Lead-Out : No
Fill up missing offset samples with silence : Yes
Delete leading and trailing silent blocks : No
Null samples used in CRC calculations : Yes
Used interface : Installed external ASPI interface

Used output format : User Defined Encoder
Selected bitrate : 1024 kBit/s
Quality : High
Add ID3 tag : No
Command line compressor : C:\Program Files (x86)\Exact Audio Copy\Flac\flac.exe
Additional command line options : -8 -V -T "Date=%year%" -T "Genre=%genre%" -T "COMMENT=ripped by bvstudio®" %source%


TOC of the extracted CD

Track | Start | Length | Start sector | End sector
––––––––––––––––––––––––––––-
1 | 0:00.00 | 2:00.57 | 0 | 9056
2 | 2:00.57 | 3:50.35 | 9057 | 26341
3 | 5:51.17 | 3:38.60 | 26342 | 42751
4 | 9:30.02 | 3:48.23 | 42752 | 59874
5 | 13:18.25 | 3:57.45 | 59875 | 77694
6 | 17:15.70 | 3:18.35 | 77695 | 92579
7 | 20:34.30 | 3:25.05 | 92580 | 107959
8 | 23:59.35 | 3:00.05 | 107960 | 121464
9 | 26:59.40 | 3:31.20 | 121465 | 137309
10 | 30:30.60 | 2:29.40 | 137310 | 148524


Range status and errors

Selected range

Filename F:\LOSSLESS UPLOADS\The Art Of Noise\1992 - The Best Of The Art Of Noise (Pink Cover) (1994 - Cnina Records - Germany - 4509-96102-2)\The Art Of Noise - The Best Of The Art Of Noise (Pink Cover).wav

Peak level 100.0 %
Extraction speed 6.2 X
Range quality 100.0 %
Test CRC 11C1AB40
Copy CRC 11C1AB40
Copy OK

No errors occurred


AccurateRip summary

Track 1 accurately ripped (confidence 10) [C31666A5] (AR v2)
Track 2 accurately ripped (confidence 10) [37E53C33] (AR v2)
Track 3 accurately ripped (confidence 10) [D9B27996] (AR v2)
Track 4 accurately ripped (confidence 10) [3A1F4EBB] (AR v2)
Track 5 accurately ripped (confidence 10) [80B34C4D] (AR v2)
Track 6 accurately ripped (confidence 10) [4E1A6010] (AR v2)
Track 7 accurately ripped (confidence 10) [D9809A55] (AR v2)
Track 8 accurately ripped (confidence 10) [2DA54C69] (AR v2)
Track 9 accurately ripped (confidence 10) [48276B14] (AR v2)
Track 10 accurately ripped (confidence 10) [A55C0A5A] (AR v2)

All tracks accurately ripped

End of status report

–– CUETools DB Plugin V2.1.6

[CTDB TOCID: Ml21rYSSpydeS4HI5K6_n.1P0J8-] found
Submit result: Ml21rYSSpydeS4HI5K6_n.1P0J8- has been confirmed
Track | CTDB Status
1 | (60/60) Accurately ripped
2 | (59/60) Accurately ripped
3 | (58/60) Accurately ripped
4 | (59/60) Accurately ripped
5 | (59/60) Accurately ripped
6 | (59/60) Accurately ripped
7 | (59/60) Accurately ripped
8 | (59/60) Accurately ripped
9 | (58/60) Accurately ripped
10 | (59/60) Accurately ripped


==== Log checksum 70185DEA184C71B3E483AA20F10FDE6E69BFCB2C349B4B2CCB29AA93A516B609 ====

foobar2000 1.2 / Dynamic Range Meter 1.1.1
log date: 2020-04-25 18:45:25

––––––––––––––––––––––––––––––––––––––––
Analyzed: The Art Of Noise / The Best Of The Art Of Noise (Pink Cover)
––––––––––––––––––––––––––––––––––––––––

DR Peak RMS Duration Track
––––––––––––––––––––––––––––––––––––––––
DR13 -5.61 dB -21.40 dB 2:01 01-Opus 4
DR13 0.00 dB -14.92 dB 3:50 02-Yebo
DR12 0.00 dB -15.15 dB 3:39 03-Instruments Of Darkness (All Of Us Are One People)
DR13 -0.08 dB -15.58 dB 3:48 04-Robinson Crusoe
DR12 -0.94 dB -16.02 dB 3:58 05-Peter Gunn (feat. Duane Eddy)
DR14 -1.47 dB -18.44 dB 3:18 06-Paranoimia (feat. Max Headroom)
DR12 -1.40 dB -15.89 dB 3:25 07-Legacy
DR11 -1.57 dB -14.35 dB 3:00 08-Dragnet '88 (From The Motion Picture)
DR15 -0.68 dB -18.55 dB 3:31 09-Kiss (feat. Tom Jones)
DR15 -1.99 dB -18.91 dB 2:30 10-Something Always Happens
––––––––––––––––––––––––––––––––––––––––

Number of tracks: 10
Official DR value: DR13

Samplerate: 44100 Hz
Channels: 2
Bits per sample: 16
Bitrate: 811 kbps
Codec: FLAC
================================================================================

The Art Of Noise - Albums Collection 1984-1999 (9CD)

The Art Of Noise - Albums Collection 1984-1999 (9CD)




The Art Of Noise - Albums Collection 1984-1999 (9CD)

The Art Of Noise - The Seduction Of Claude Debussy (1999)
EAC | FLAC | Image (Cue&Log) ~ 333 Mb | Mp3 (CBR320) ~ 130 Mb | Scans ~ 92 Mb
Label: ZTT | # ZTT130CD | Time: 00:56:49

More than ten years after the Art of Noise left Trevor Horn's ZTT label to record on their own, original members Anne Dudley and Paul Morley reunited with Horn plus 10cc's Lol Creme to record another LP, organized around the work of French modernist composer Claude Debussy. With a guest list including John Hurt as well as Rakim, the album charts the artistic use of sampled breakbeats – pioneered by the Art of Noise themselves – with nods to '80s hip-hop plus their '90s equivalent, drum'n'bass. Though the Art of Noise doesn't sound quite as brash as they did in their '80s prime, The Seduction of Claude Debussy is an interesting showcase of what made the group great.

Review by Keith Farley, Allmusic.com

Tracklist:

01. Il Pleure (At The Turn Of The Century) (08:02)
02. Born On A Sunday (04:40)
03. Dreaming In Colour (06:42)
04. On Being Blue (04:58)
05. Continued In Colour (01:19)
06. Rapt : In The Evening Air (04:21)
07. Metaforce (03:44)
08. The Holy Egoism Of Genius (07:56)
09. La Flute De Pan (02:45)
10. Metaphor On The Floor (02:06)
11. Approximate Mood Swing No: 2 (02:14)
12. Pause (02:29)
13. Out Of This World (Version 138) (05:27)


Exact Audio Copy V1.3 from 2. September 2016

EAC extraction logfile from 22. October 2016, 23:39

The Art Of Noise / The Seduction Of Claude Debussy

Used drive : PLEXTOR DVDR PX-810SA Adapter: 1 ID: 0

Read mode : Secure
Utilize accurate stream : Yes
Defeat audio cache : Yes
Make use of C2 pointers : No

Read offset correction : 48
Overread into Lead-In and Lead-Out : No
Fill up missing offset samples with silence : Yes
Delete leading and trailing silent blocks : No
Null samples used in CRC calculations : Yes
Used interface : Installed external ASPI interface

Used output format : User Defined Encoder
Selected bitrate : 1024 kBit/s
Quality : High
Add ID3 tag : No
Command line compressor : C:\Program Files (x86)\Exact Audio Copy\Flac\flac.exe
Additional command line options : -8 -V -T "Date=%year%" -T "Genre=%genre%" -T "COMMENT=ripped by bvstudio®" %source%


TOC of the extracted CD

Track | Start | Length | Start sector | End sector
––––––––––––––––––––––––––––-
1 | 0:00.00 | 8:02.74 | 0 | 36223
2 | 8:02.74 | 4:40.09 | 36224 | 57232
3 | 12:43.08 | 6:42.11 | 57233 | 87393
4 | 19:25.19 | 4:58.18 | 87394 | 109761
5 | 24:23.37 | 1:19.53 | 109762 | 115739
6 | 25:43.15 | 4:21.67 | 115740 | 135381
7 | 30:05.07 | 3:44.37 | 135382 | 152218
8 | 33:49.44 | 7:56.32 | 152219 | 187950
9 | 41:46.01 | 2:45.25 | 187951 | 200350
10 | 44:31.26 | 2:06.07 | 200351 | 209807
11 | 46:37.33 | 2:14.34 | 209808 | 219891
12 | 48:51.67 | 2:29.72 | 219892 | 231138
13 | 51:21.64 | 5:27.34 | 231139 | 255697


Range status and errors

Selected range

Filename F:\The Art Of Noise\1999 - The Seduction Of Claude Debussy (1999 - ZTT Records - UK - ztt130cd)\The Art Of Noise - The Seduction Of Claude Debussy.wav

Peak level 99.4 %
Extraction speed 7.3 X
Range quality 99.9 %
Test CRC B908F1F0
Copy CRC B908F1F0
Copy OK

No errors occurred


AccurateRip summary

Track 1 accurately ripped (confidence 7) [87BD3559] (AR v2)
Track 2 accurately ripped (confidence 7) [B2EDFEFD] (AR v2)
Track 3 accurately ripped (confidence 7) [B93D21AE] (AR v2)
Track 4 accurately ripped (confidence 7) [86DB3D7A] (AR v2)
Track 5 accurately ripped (confidence 7) [9BF915E0] (AR v2)
Track 6 accurately ripped (confidence 7) [A2650883] (AR v2)
Track 7 accurately ripped (confidence 7) [85D53828] (AR v2)
Track 8 accurately ripped (confidence 7) [90C398E4] (AR v2)
Track 9 accurately ripped (confidence 7) [0B864D2E] (AR v2)
Track 10 accurately ripped (confidence 7) [619B8DB7] (AR v2)
Track 11 accurately ripped (confidence 7) [2EA1A517] (AR v2)
Track 12 accurately ripped (confidence 7) [733E4EF5] (AR v2)
Track 13 accurately ripped (confidence 7) [49183F90] (AR v2)

All tracks accurately ripped

End of status report

–– CUETools DB Plugin V2.1.6

[CTDB TOCID: nH_Ib2gAFvegcPSRqwgpCHxemfI-] found
Submit result: nH_Ib2gAFvegcPSRqwgpCHxemfI- has been confirmed
Track | CTDB Status
1 | (11/11) Accurately ripped
2 | (11/11) Accurately ripped
3 | (11/11) Accurately ripped
4 | (11/11) Accurately ripped
5 | (11/11) Accurately ripped
6 | (11/11) Accurately ripped
7 | (11/11) Accurately ripped
8 | (11/11) Accurately ripped
9 | (11/11) Accurately ripped
10 | (11/11) Accurately ripped
11 | (11/11) Accurately ripped
12 | (11/11) Accurately ripped
13 | (11/11) Accurately ripped


==== Log checksum B991FCA307CAB51F477193D5C700C30C4A0A56EDE02D5D805D684AF557CC5ACC ====

foobar2000 1.2 / Dynamic Range Meter 1.1.1
log date: 2016-11-10 17:05:48

––––––––––––––––––––––––––––––––––––––––
Analyzed: The Art Of Noise / The Seduction Of Claude Debussy
––––––––––––––––––––––––––––––––––––––––

DR Peak RMS Duration Track
––––––––––––––––––––––––––––––––––––––––
DR7 -0.10 dB -9.81 dB 8:03 01-Il Pleure (At The Turn Of The Century)
DR8 -0.12 dB -10.19 dB 4:40 02-Born On A Sunday
DR6 -0.43 dB -8.92 dB 6:42 03-Dreaming In Colour
DR7 -0.80 dB -10.78 dB 4:58 04-On Being Blue
DR8 -0.05 dB -11.37 dB 1:20 05-Continued In Colour
DR8 -0.40 dB -10.83 dB 4:22 06-Rapt : In The Evening Air
DR6 -0.50 dB -8.59 dB 3:44 07-Metaforce
DR7 -0.10 dB -10.22 dB 7:56 08-The Holy Egoism Of Genius
DR12 -0.80 dB -15.72 dB 2:45 09-La Flute De Pan
DR6 -0.50 dB -7.93 dB 2:06 10-Metaphor On The Floor
DR6 -0.10 dB -8.46 dB 2:14 11-Approximate Mood Swing No: 2
DR10 -0.10 dB -13.88 dB 2:30 12-Pause
DR8 -1.09 dB -11.20 dB 5:27 13-Out Of This World (Version 138)
––––––––––––––––––––––––––––––––––––––––

Number of tracks: 13
Official DR value: DR8

Samplerate: 44100 Hz
Channels: 2
Bits per sample: 16
Bitrate: 819 kbps
Codec: FLAC
================================================================================

The Art Of Noise - Albums Collection 1984-1999 (9CD)

The Art Of Noise - Albums Collection 1984-1999 (9CD)




All thanks to original releaser - bvstudio (exept The FON Mixes)

More interesting music in My Blog