Tags
Language
Tags

Aretha Franklin - Jump To It (1982) [1988, Reissue]

Posted By: BlondStyle
Aretha Franklin - Jump To It (1982) [1988, Reissue]

Aretha Franklin - Jump To It (1982) [1988, Reissue]
R&B, Soul/Funk, Electronic | EAC Rip | FLAC, Img+CUE+LOG+Scans (PNG) | 43:00 Min | 353,95 Mb
Label: Arista/BMG (Germany) | Cat.# 259 060 | Released: 1988 (1982)
Aretha Franklin - Jump To It (1982) [1988, Reissue]

"Jump to It" is the twenty-eighth studio album by American singer Aretha Franklin, produced by Luther Vandross and released in July 1982. This album gave Franklin her tenth #1 R&B album - at the time it was the all-time record. It enjoyed a seven-week run at #1 on Billboard's R&B albums chart and also reached #23 on Billboard's main album chart. It was hailed as a comeback album, given that it provided Franklin with her first Gold-certified disc and Top 40 song since "Sparkle" in 1976. The title track, "Jump to It", was Franklin's first Pop Top 40 hit since 1976, and her first #1 R&B hit since 1977's "Break It To Me Gently". The infectious song was nominated for a Grammy Award. The album itself received an American Music Award for Best Soul Album in 1983. On February 1, 1983, The "Jump to It" album was certified Gold by the RIAA. Franklin was presented her framed Gold record in Detroit by her long-time friends the Four Tops. In 2005, Patrick Alavi released "Come to Me" which used a sample of "Jump to It"
~Wikipedia
Aretha Franklin scored some hits with this early- '80s album and managed to make concessions to urban contemporary tastes without totally distorting her classic soul sound. While it's certainly not in the class of past recordings, the title cut gave Franklin her first number one of the '80s, and "Love Me Right" was a decent follow-up.
~Review by Ron Wynn

Aretha Franklin - Jump To It (1982) [1988, Reissue]

Aretha Franklin - Jump To It (1982) [1988, Reissue]




Release of the album: 1982, July [CD Arista Records, Cat.# AL 9602, USA]
Release of this CD: 1988 [CD Arista/BMG (Germany), Cat.# 259 060 / UPC: 4007192 590605]
℗&©1982 Arista Records, Inc.
Distributed in the UK by BMG Records
Distribué en Europe par BMG Ariola
Printed in Germany by TOPAC (Artwork)
Made by Sonopress (CD)


Credits:

Backing Vocals – Alexandra Brown (tracks: 3), Brenda Corbett (tracks: 5 to 7), Brenda White (tracks: 1, 2), Cissy Houston (tracks: 1), Cissy Houston (tracks: 3, 5, 8), Darlene Love (tracks: 3, 5, 8), Erma Franklin (tracks: 6, 7), Fonzi Thornton (tracks: 1, 2), The Four Tops (tracks: 6), Luther Vandross (tracks: 1, 2, 5), Michelle Cobbs (tracks: 1, 2), Norma Jean Wright (tracks: 2), Pam Vincent (tracks: 6, 7), Paulette McWilliams (tracks: 3), Phillip Ballou (tracks: 1, 2), Sandra Dance (tracks: 6, 7), Stephanie Spruill (tracks: 3, 5, 8), Tawatha Agee (tracks: 1, 2)
Bass – Francisco Centeno (tracks: 3), Louis Johnson (tracks: 8)
Bass, Keyboards – Marcus Miller (tracks: 1, 2, 4 to 7)
Drums – Buddy Williams (tracks: 2), Yogi Horton (tracks: 1, 3 to 8)
Engineer, Mixed By – Michael Brauer
Guitar – Steve Love (tracks: 7)
Keyboards – Nat Adderley, Jr. (tracks: 1, 3, 5 to 8), Sonny Burke (tracks: 8)
Lead Vocals – Aretha Franklin, Levi Stubbs (tracks: 6)
Percussion – Crusher Bennett (tracks: 1, 3, 4, 5, 8), Paulinho Da Costa (tracks: 7)
Piano – George Duke (tracks: 5)
Producer – Luther Vandross
Soprano Saxophone – George Young (tracks: 4)


Tracklist:

01. Jump To It (06:41)
(Luther Vandross, Marcus Miller)
02. Love Me Right (04:09)
(Luther Vandross)
03. If She Don't Want Your Lovin' (05:39)
(Sam Dees)
04. This Is For Real (04:50)
(Luther Vandross)
05. (It's Just) Your Love (04:50)
(Luther Vandross, Marcus Miller)
06. I Wanna Make It Up To You (06:42)
(Aretha Franklin)
07. It's Your Thing (04:14)
(O'Kelly Isley, Ronald Isley, Rudolph Isley)
08. Just My Daydream (05:56)
(Smokey Robinson)

Exact Audio Copy V1.3 from 2. September 2016

EAC extraction logfile from 22. October 2018, 12:34

Aretha Franklin / Jump To It

Used drive : PIONEER BD-RW BDR-208D Adapter: 1 ID: 0

Read mode : Secure
Utilize accurate stream : Yes
Defeat audio cache : Yes
Make use of C2 pointers : No

Read offset correction : 667
Overread into Lead-In and Lead-Out : No
Fill up missing offset samples with silence : Yes
Delete leading and trailing silent blocks : No
Null samples used in CRC calculations : Yes
Used interface : Native Win32 interface for Win NT & 2000

Used output format : Internal WAV Routines
Sample format : 44.100 Hz; 16 Bit; Stereo


TOC of the extracted CD

Track | Start | Length | Start sector | End sector
––––––––––––––––––––––––––––-
1 | 0:00.00 | 6:40.65 | 0 | 30064
2 | 6:40.65 | 4:08.55 | 30065 | 48719
3 | 10:49.45 | 5:38.45 | 48720 | 74114
4 | 16:28.15 | 4:49.60 | 74115 | 95849
5 | 21:18.00 | 4:50.25 | 95850 | 117624
6 | 26:08.25 | 6:41.58 | 117625 | 147757
7 | 32:50.08 | 4:14.25 | 147758 | 166832
8 | 37:04.33 | 5:55.42 | 166833 | 193499


Range status and errors

Selected range

Filename D:\BlondStyle\Aretha Franklin - Jump To It.wav

Peak level 100.0 %
Extraction speed 3.9 X
Range quality 99.9 %
Test CRC 01B44615
Copy CRC 01B44615
Copy OK

No errors occurred


AccurateRip summary

Track 1 accurately ripped (confidence 5) [DD40C375] (AR v2)
Track 2 accurately ripped (confidence 5) [89159146] (AR v2)
Track 3 accurately ripped (confidence 5) [AE84F607] (AR v2)
Track 4 accurately ripped (confidence 5) [E569FB69] (AR v2)
Track 5 accurately ripped (confidence 5) [50FB5FF1] (AR v2)
Track 6 accurately ripped (confidence 5) [8EAACF1D] (AR v2)
Track 7 accurately ripped (confidence 4) [721BFD61] (AR v2)
Track 8 accurately ripped (confidence 5) [A60E778E] (AR v2)

All tracks accurately ripped

End of status report

–– CUETools DB Plugin V2.1.6

[CTDB TOCID: 9gtW3hSM5nzEvNYkuBgli35qT9E-] found
Submit result: 9gtW3hSM5nzEvNYkuBgli35qT9E- has been confirmed
Track | CTDB Status
1 | (11/11) Accurately ripped
2 | (11/11) Accurately ripped
3 | (11/11) Accurately ripped
4 | (11/11) Accurately ripped
5 | (11/11) Accurately ripped
6 | (11/11) Accurately ripped
7 | (11/11) Accurately ripped
8 | (10/11) Accurately ripped


==== Log checksum EDF9FEA986FA31B639836054E62AAA35AAE5DC7BE158CFD3A6D3B63E69B05F08 ====

––––––––––––––––––––––––––––––––––––––––
Analyzed: Aretha Franklin / Jump To It
––––––––––––––––––––––––––––––––––––––––

DR Peak RMS Duration Track
––––––––––––––––––––––––––––––––––––––––
DR13 0.00 dB -15.36 dB 6:41 01-Jump To It
DR13 0.00 dB -15.33 dB 4:09 02-Love Me Right
DR12 0.00 dB -14.89 dB 5:39 03-If She Don't Want Your Lovin'
DR13 -1.19 dB -17.68 dB 4:50 04-This Is For Real
DR12 -1.29 dB -16.10 dB 4:50 05-(It's Just) Your Love
DR13 0.00 dB -16.97 dB 6:42 06-I Wanna Make It Up To You
DR12 -0.19 dB -14.85 dB 4:14 07-It's Your Thing
DR13 -1.64 dB -16.79 dB 5:56 08-Just My Daydream
––––––––––––––––––––––––––––––––––––––––

Number of tracks: 8
Official DR value: DR13

Samplerate: 44100 Hz
Channels: 2
Bits per sample: 16
Bitrate: 871 kbps
Codec: FLAC
================================================================================

See also:


password: BlondStyle