Tags
Language
Tags

VA - The Funk Box (4CD) (2000) {Hip-O}

Posted By: TestTickles
VA - The Funk Box (4CD) (2000) {Hip-O}

VA - The Funk Box (4CD) (2000) {Hip-O}
EAC Rip | FLAC with CUE and LOG | scans | 2.01 gb
MP3 CBR 320 kbps | RAR | 710 mb
Genre: soul, R&B, funk

The Funk Box is a 4CD compilation released in 2000 consisting of some of the most primal funk and soul music, many of which are now owned by the Universal catalog and is there a reason this was released by Universal reissue subsidiary Hip-O? Yes.

VA - The Funk Box (4CD) (2000) {Hip-O}

DISC 1
01. James Brown - Get Up I Feel Like Being A Sex Machine (5:17)
02. Charles Wright & The Watts 103rd Street Rhythm Band - Express Yourself (3:53)
03. James Brown - Give It Up Or Turnit A Loose (6:23)
04. Aretha Franklin - Rock Steady (3:12)
05. War - Slippin' Into Darkness (7:00)
06. Bobby Byrd - I Know You Got Soul (4:43)
07. Chakachas - Jungle Fever (4:24)
08. The Jimmy Castor Bunch - It's Just Begun (3:43)
09. Billy Preston - Outa-Space (4:10)
10. Lyn Collins (The Female Preacher) - Think (About It) (3:22)
11. Fatback Band - Goin' To See My Baby (3:18)
12. The J.B.'s - Pass The Peas (3:29)
13. Marvin Gaye - 'T' Plays It Cool (4:28)
14. Cymande - The Message (4:17)
15. The New Birth - I Can Understand It (6:24)
16. Barry White - I'm Gonna Love You Just A Little More, Baby (7:10)

DISC 2
01. Curtis Mayfield - Future Shock (3:37)
02. Gil Scott-Heron & Brian Jackson - The Bottle (5:07)
03. Tower Of Power - What Is Hip (5:06)
04. James Brown - The Payback (7:40)
05. The O'Jays - For The Love Of Money (7:19)
06. Kool & The Gang - Hollywood Swinging (4:37)
07. Rufus featuring Chaka Khan - Tell Me Something Good (4:39)
08. The Blackbyrds - Do It, Fluid (5:27)
09. B.T. Express - Do It (Till Your Satisfied) (5:54)
10. The Meters - Just Kissed My Baby (4:42)
11. Ohio Players - Skin Tight (7:56)
12. George McCrae - I Get Lifted (2:48)
13. The Temptations - Shakey Ground (4:04)
14. Average White Band - School Boy Crush (4:58)
15. Jermaine Jackson - Erucu (3:30)

DISC 3
01. The Isley Brothers - Fight The Power - Pts. 1 & 2 (5:21)
02. Graham Central Station - The Jam (3:38)
03. Parliament - Give Up The Funk (Tear The Roof Off The Sucker) (5:48)
04. Brothers Johnson - Get The Funk Out Ma Face (5:59)
05. Brass Construction - Changin' (8:14)
06. Brick - Dazz (5:38)
07. Johnny Guitar Watson - Superman Lover (5:44)
08. Bootsy's Rubber Band - The Pinocchio Theory (6:10)
09. Slave - Slide (6:50)
10. Patrice Rushen - The Hump (6:08)
11. Roy Ayers - Running Away (12 inch Mix) (6:55)
12. The Commodores - Brick House (12 inch Mix) (6:12)
13. Bar-Kays - Let's Have Some Fun (6:02)

DISC 4
01. Rick James - You And I (8:07)
02. Fatback - I Like Girls (7:39)
03. Bohannon - Let's Start The Dance (5:55)
04. Funkadelic - One Nation Under A Groove (7:29)
05. Chuck Brown & The Soul Searchers - Bustin' Loose (7:43)
06. Cameo - I Just Want To Be (12 inch Extended Mix) (6:23)
07. Pleasure - Glide (6:29)
08. Teena Marie - Behind The Groove (6:04)
09. Zapp - More Bounce To The Ounce (9:29)
10. Gap Band - Burn Rubber (Why You Wanna Hurt Me) (5:31)
11. George Clinton - Atomic Dog (4:45)

VA - The Funk Box (4CD) (2000) {Hip-O}


X Lossless Decoder version 20130407 (143.0)

XLD extraction logfile from 2014-11-04 13:10:38 -0800

Various Artists / The Funk Box (Disc 1)

Used drive : HL-DT-ST DVDRW GA32N (revision KE06)
Media type : Pressed CD

Ripper mode : XLD Secure Ripper
Disable audio cache : OK for the drive with a cache less than 1375KiB
Make use of C2 pointers : NO
Read offset correction : 103
Max retry count : 100
Gap status : Analyzed, Appended (except HTOA)

TOC of the extracted CD
Track | Start | Length | Start sector | End sector
––––––––––––––––––––––––––––-
1 | 00:00:00 | 05:17:60 | 0 | 23834
2 | 05:17:60 | 03:53:67 | 23835 | 41376
3 | 09:11:52 | 06:23:53 | 41377 | 70154
4 | 15:35:30 | 03:12:40 | 70155 | 84594
5 | 18:47:70 | 07:00:65 | 84595 | 116159
6 | 25:48:60 | 04:43:30 | 116160 | 137414
7 | 30:32:15 | 04:24:25 | 137415 | 157239
8 | 34:56:40 | 03:43:52 | 157240 | 174016
9 | 38:40:17 | 04:10:10 | 174017 | 192776
10 | 42:50:27 | 03:22:10 | 192777 | 207936
11 | 46:12:37 | 03:18:30 | 207937 | 222816
12 | 49:30:67 | 03:29:33 | 222817 | 238524
13 | 53:00:25 | 04:28:65 | 238525 | 258689
14 | 57:29:15 | 04:17:40 | 258690 | 278004
15 | 61:46:55 | 06:24:05 | 278005 | 306809
16 | 68:10:60 | 07:10:52 | 306810 | 339111

List of alternate offset correction values
# | Absolute | Relative | Confidence
–––––––––––––––––––––
1 | 93 | -10 | 12

AccurateRip Summary (DiscID: 002b7abb-0203f488-e711a910)
Track 01 : OK (v1+v2, confidence 14/26)
Track 02 : OK (v1+v2, confidence 18/30)
Track 03 : OK (v1+v2, confidence 17/29)
Track 04 : OK (v1+v2, confidence 16/28)
Track 05 : OK (v1+v2, confidence 16/28)
Track 06 : OK (v1+v2, confidence 17/28)
Track 07 : OK (v1+v2, confidence 17/29)
Track 08 : OK (v1+v2, confidence 17/29)
Track 09 : OK (v1+v2, confidence 16/27)
Track 10 : OK (v1+v2, confidence 17/29)
Track 11 : OK (v1+v2, confidence 16/28)
Track 12 : OK (v1+v2, confidence 15/26)
Track 13 : OK (v1+v2, confidence 17/29)
Track 14 : OK (v1+v2, confidence 17/28)
Track 15 : OK (v1+v2, confidence 17/27)
Track 16 : OK (v1+v2, confidence 14/25)
->All tracks accurately ripped.

All Tracks
Album gain : -7.18 dB
Peak : 1.000000
Statistics
Read error : 0
Jitter error (maybe fixed) : 0
Retry sector count : 0
Damaged sector count : 0

Track 01
Filename : /cuntfist/FLAC/VA - The Funk Box (4CD) (2000) [FLAC] {Hip-O}/Disc 1/01 - James Brown - Get Up I Feel Like Being A Sex Machine.flac
Pre-gap length : 00:02:00

Track gain : -7.05 dB
Peak : 1.000000
CRC32 hash (test run) : 9E335CED
CRC32 hash : 9E335CED
CRC32 hash (skip zero) : D94012CE
AccurateRip v1 signature : 69AE2C93
AccurateRip v2 signature : 0ED27F83
->Accurately ripped (v1+v2, confidence 5+9/26)
Statistics
Read error : 0
Jitter error (maybe fixed) : 0
Retry sector count : 0
Damaged sector count : 0

Track 02
Filename : /cuntfist/FLAC/VA - The Funk Box (4CD) (2000) [FLAC] {Hip-O}/Disc 1/02 - Charles Wright & The Watts 103rd Street Rhythm Band - Express Yourself.flac
Pre-gap length : 00:01:48

Track gain : -7.92 dB
Peak : 0.865387
CRC32 hash (test run) : 309866C8
CRC32 hash : 309866C8
CRC32 hash (skip zero) : 9D840FFE
AccurateRip v1 signature : 9EE9B8D2
AccurateRip v2 signature : 70BB4F0D
->Accurately ripped (v1+v2, confidence 8+10/30)
Statistics
Read error : 0
Jitter error (maybe fixed) : 0
Retry sector count : 0
Damaged sector count : 0

Track 03
Filename : /cuntfist/FLAC/VA - The Funk Box (4CD) (2000) [FLAC] {Hip-O}/Disc 1/03 - James Brown - Give It Up Or Turnit A Loose.flac
Pre-gap length : 00:02:42

Track gain : -8.62 dB
Peak : 1.000000
CRC32 hash (test run) : 7A881AEC
CRC32 hash : 7A881AEC
CRC32 hash (skip zero) : 40D21447
AccurateRip v1 signature : 0DE34664
AccurateRip v2 signature : D09295ED
->Accurately ripped (v1+v2, confidence 8+9/29)
Statistics
Read error : 0
Jitter error (maybe fixed) : 0
Retry sector count : 0
Damaged sector count : 0

Track 04
Filename : /cuntfist/FLAC/VA - The Funk Box (4CD) (2000) [FLAC] {Hip-O}/Disc 1/04 - Aretha Franklin - Rock Steady.flac

Track gain : -6.68 dB
Peak : 0.955414
CRC32 hash (test run) : 91745C7A
CRC32 hash : 91745C7A
CRC32 hash (skip zero) : 10FCDAF2
AccurateRip v1 signature : 073466C0
AccurateRip v2 signature : 437304D9
->Accurately ripped (v1+v2, confidence 7+9/28)
Statistics
Read error : 0
Jitter error (maybe fixed) : 0
Retry sector count : 0
Damaged sector count : 0

Track 05
Filename : /cuntfist/FLAC/VA - The Funk Box (4CD) (2000) [FLAC] {Hip-O}/Disc 1/05 - War - Slippin' Into Darkness.flac
Pre-gap length : 00:01:13

Track gain : -7.22 dB
Peak : 0.919281
CRC32 hash (test run) : 5FECE14E
CRC32 hash : 5FECE14E
CRC32 hash (skip zero) : 597B0251
AccurateRip v1 signature : C0138976
AccurateRip v2 signature : 95323F63
->Accurately ripped (v1+v2, confidence 7+9/28)
Statistics
Read error : 0
Jitter error (maybe fixed) : 0
Retry sector count : 0
Damaged sector count : 0

Track 06
Filename : /cuntfist/FLAC/VA - The Funk Box (4CD) (2000) [FLAC] {Hip-O}/Disc 1/06 - Bobby Byrd - I Know You Got Soul.flac
Pre-gap length : 00:01:43

Track gain : -7.05 dB
Peak : 0.999908
CRC32 hash (test run) : 1DC67D27
CRC32 hash : 1DC67D27
CRC32 hash (skip zero) : 1936DAA1
AccurateRip v1 signature : CEDE98B9
AccurateRip v2 signature : 8C83A2DF
->Accurately ripped (v1+v2, confidence 7+10/28)
Statistics
Read error : 0
Jitter error (maybe fixed) : 0
Retry sector count : 0
Damaged sector count : 0

Track 07
Filename : /cuntfist/FLAC/VA - The Funk Box (4CD) (2000) [FLAC] {Hip-O}/Disc 1/07 - Chakachas - Jungle Fever.flac
Pre-gap length : 00:01:70

Track gain : -6.73 dB
Peak : 0.944519
CRC32 hash (test run) : 8C1CE801
CRC32 hash : 8C1CE801
CRC32 hash (skip zero) : F72D01D6
AccurateRip v1 signature : 991FA3D7
AccurateRip v2 signature : B756092A
->Accurately ripped (v1+v2, confidence 7+10/29)
Statistics
Read error : 0
Jitter error (maybe fixed) : 0
Retry sector count : 0
Damaged sector count : 0

Track 08
Filename : /cuntfist/FLAC/VA - The Funk Box (4CD) (2000) [FLAC] {Hip-O}/Disc 1/08 - The Jimmy Castor Bunch - It's Just Begun.flac
Pre-gap length : 00:02:20

Track gain : -7.62 dB
Peak : 0.872437
CRC32 hash (test run) : 72F498C3
CRC32 hash : 72F498C3
CRC32 hash (skip zero) : 332BE2CC
AccurateRip v1 signature : 6218B36F
AccurateRip v2 signature : 80F757D7
->Accurately ripped (v1+v2, confidence 7+10/29)
Statistics
Read error : 0
Jitter error (maybe fixed) : 0
Retry sector count : 0
Damaged sector count : 0

Track 09
Filename : /cuntfist/FLAC/VA - The Funk Box (4CD) (2000) [FLAC] {Hip-O}/Disc 1/09 - Billy Preston - Outa-Space.flac
Pre-gap length : 00:01:35

Track gain : -9.00 dB
Peak : 0.964630
CRC32 hash (test run) : 18E245DB
CRC32 hash : 18E245DB
CRC32 hash (skip zero) : 9E8B04CC
AccurateRip v1 signature : B2925664
AccurateRip v2 signature : 7E519FE4
->Accurately ripped (v1+v2, confidence 6+10/27)
Statistics
Read error : 0
Jitter error (maybe fixed) : 0
Retry sector count : 0
Damaged sector count : 0

Track 10
Filename : /cuntfist/FLAC/VA - The Funk Box (4CD) (2000) [FLAC] {Hip-O}/Disc 1/10 - Lyn Collins (The Female Preacher) - Think (About It).flac
Pre-gap length : 00:01:65

Track gain : -6.47 dB
Peak : 1.000000
CRC32 hash (test run) : C1911DC5
CRC32 hash : C1911DC5
CRC32 hash (skip zero) : 77CD91FB
AccurateRip v1 signature : E42DAFE7
AccurateRip v2 signature : B1CD71F5
->Accurately ripped (v1+v2, confidence 7+10/29)
Statistics
Read error : 0
Jitter error (maybe fixed) : 0
Retry sector count : 0
Damaged sector count : 0

Track 11
Filename : /cuntfist/FLAC/VA - The Funk Box (4CD) (2000) [FLAC] {Hip-O}/Disc 1/11 - Fatback Band - Goin' To See My Baby.flac
Pre-gap length : 00:01:60

Track gain : -4.37 dB
Peak : 0.999939
CRC32 hash (test run) : 35675687
CRC32 hash : 35675687
CRC32 hash (skip zero) : 36C7B5C2
AccurateRip v1 signature : 415C001E
AccurateRip v2 signature : 18F682A5
->Accurately ripped (v1+v2, confidence 6+10/28)
Statistics
Read error : 0
Jitter error (maybe fixed) : 0
Retry sector count : 0
Damaged sector count : 0

Track 12
Filename : /cuntfist/FLAC/VA - The Funk Box (4CD) (2000) [FLAC] {Hip-O}/Disc 1/12 - The J.B.'s - Pass The Peas.flac
Pre-gap length : 00:01:37

Track gain : -4.24 dB
Peak : 0.845978
CRC32 hash (test run) : 806C2FDB
CRC32 hash : 806C2FDB
CRC32 hash (skip zero) : 996FB87B
AccurateRip v1 signature : 6D3303F1
AccurateRip v2 signature : C863303B
->Accurately ripped (v1+v2, confidence 5+10/26)
Statistics
Read error : 0
Jitter error (maybe fixed) : 0
Retry sector count : 0
Damaged sector count : 0

Track 13
Filename : /cuntfist/FLAC/VA - The Funk Box (4CD) (2000) [FLAC] {Hip-O}/Disc 1/13 - Marvin Gaye - 'T' Plays It Cool.flac

Track gain : -5.83 dB
Peak : 0.931091
CRC32 hash (test run) : B582A173
CRC32 hash : B582A173
CRC32 hash (skip zero) : 87588A74
AccurateRip v1 signature : CEF52F60
AccurateRip v2 signature : 46F99FF4
->Accurately ripped (v1+v2, confidence 7+10/29)
Statistics
Read error : 0
Jitter error (maybe fixed) : 0
Retry sector count : 0
Damaged sector count : 0

Track 14
Filename : /cuntfist/FLAC/VA - The Funk Box (4CD) (2000) [FLAC] {Hip-O}/Disc 1/14 - Cymande - The Message.flac
Pre-gap length : 00:02:03

Track gain : -6.22 dB
Peak : 0.898651
CRC32 hash (test run) : BB7EDE2F
CRC32 hash : BB7EDE2F
CRC32 hash (skip zero) : F5C2E619
AccurateRip v1 signature : 1A7A45E9
AccurateRip v2 signature : D6442095
->Accurately ripped (v1+v2, confidence 7+10/28)
Statistics
Read error : 0
Jitter error (maybe fixed) : 0
Retry sector count : 0
Damaged sector count : 0

Track 15
Filename : /cuntfist/FLAC/VA - The Funk Box (4CD) (2000) [FLAC] {Hip-O}/Disc 1/15 - The New Birth - I Can Understand It.flac
Pre-gap length : 00:01:40

Track gain : -7.93 dB
Peak : 0.842743
CRC32 hash (test run) : 74BD0FF7
CRC32 hash : 74BD0FF7
CRC32 hash (skip zero) : 0081FC3A
AccurateRip v1 signature : 1CEB8535
AccurateRip v2 signature : 9797BCE0
->Accurately ripped (v1+v2, confidence 7+10/27)
Statistics
Read error : 0
Jitter error (maybe fixed) : 0
Retry sector count : 0
Damaged sector count : 0

Track 16
Filename : /cuntfist/FLAC/VA - The Funk Box (4CD) (2000) [FLAC] {Hip-O}/Disc 1/16 - Barry White - I'm Gonna Love You Just A Little More, Baby.flac
Pre-gap length : 00:01:60

Track gain : -5.92 dB
Peak : 0.999878
CRC32 hash (test run) : 71B82FC2
CRC32 hash : 71B82FC2
CRC32 hash (skip zero) : 4BB82EAF
AccurateRip v1 signature : ABA9AADA
AccurateRip v2 signature : 30282AE5
->Accurately ripped (v1+v2, confidence 4+10/25)
Statistics
Read error : 0
Jitter error (maybe fixed) : 0
Retry sector count : 0
Damaged sector count : 0

No errors occurred

End of status report

––-BEGIN XLD SIGNATURE––-
N02ZX_jwu3qET_tIH4FeU2WdI4LdlgIpIyhTMZkKYk.BlO90CvmLAzJ6mxJDs0gRw1w5SgxWO7jP75LlqxHwIR1_bdDRPi0ym7.O6uK
––-END XLD SIGNATURE––-







X Lossless Decoder version 20130407 (143.0)

XLD extraction logfile from 2014-11-04 13:57:59 -0800

Various Artists / The Funk Box (Disc 2)

Used drive : HL-DT-ST DVDRW GA32N (revision KE06)
Media type : Pressed CD

Ripper mode : XLD Secure Ripper
Disable audio cache : OK for the drive with a cache less than 1375KiB
Make use of C2 pointers : NO
Read offset correction : 103
Max retry count : 100
Gap status : Analyzed, Appended (except HTOA)

TOC of the extracted CD
Track | Start | Length | Start sector | End sector
––––––––––––––––––––––––––––-
1 | 00:00:00 | 03:37:67 | 0 | 16341
2 | 03:37:67 | 05:07:43 | 16342 | 39409
3 | 08:45:35 | 05:06:02 | 39410 | 62361
4 | 13:51:37 | 07:40:35 | 62362 | 96896
5 | 21:31:72 | 07:19:70 | 96897 | 129891
6 | 28:51:67 | 04:37:25 | 129892 | 150691
7 | 33:29:17 | 04:39:53 | 150692 | 171669
8 | 38:08:70 | 05:27:17 | 171670 | 196211
9 | 43:36:12 | 05:54:35 | 196212 | 222796
10 | 49:30:47 | 04:42:28 | 222797 | 243974
11 | 54:13:00 | 07:56:17 | 243975 | 279691
12 | 62:09:17 | 02:48:30 | 279692 | 292321
13 | 64:57:47 | 04:04:33 | 292322 | 310654
14 | 69:02:05 | 04:58:32 | 310655 | 333036
15 | 74:00:37 | 03:30:13 | 333037 | 348799

List of alternate offset correction values
# | Absolute | Relative | Confidence
–––––––––––––––––––––
1 | 93 | -10 | 11

AccurateRip Summary (DiscID: 002c2ba3-01f54836-d2122a0f)
Track 01 : OK (v1+v2, confidence 17/27)
Track 02 : OK (v1+v2, confidence 15/25)
Track 03 : OK (v1+v2, confidence 17/27)
Track 04 : OK (v1+v2, confidence 18/28)
Track 05 : OK (v1+v2, confidence 16/26)
Track 06 : OK (v1+v2, confidence 16/26)
Track 07 : OK (v1+v2, confidence 17/27)
Track 08 : OK (v1+v2, confidence 16/26)
Track 09 : OK (v1+v2, confidence 19/28)
Track 10 : OK (v1+v2, confidence 16/26)
Track 11 : OK (v1+v2, confidence 16/26)
Track 12 : OK (v1+v2, confidence 18/28)
Track 13 : OK (v1+v2, confidence 18/27)
Track 14 : OK (v1+v2, confidence 17/26)
Track 15 : OK (v1+v2, confidence 15/26)
->All tracks accurately ripped.

All Tracks
Album gain : -6.95 dB
Peak : 0.999969
Statistics
Read error : 0
Jitter error (maybe fixed) : 0
Retry sector count : 0
Damaged sector count : 0

Track 01
Filename : /cuntfist/FLAC/VA - The Funk Box (4CD) (2000) [FLAC] {Hip-O}/Disc 2/01 - Curtis Mayfield - Future Shock.flac
Pre-gap length : 00:02:00

Track gain : -5.84 dB
Peak : 0.866730
CRC32 hash (test run) : 047D9A41
CRC32 hash : 047D9A41
CRC32 hash (skip zero) : 7D3C35FB
AccurateRip v1 signature : B46065BA
AccurateRip v2 signature : EF4169AE
->Accurately ripped (v1+v2, confidence 8+9/27)
Statistics
Read error : 0
Jitter error (maybe fixed) : 0
Retry sector count : 0
Damaged sector count : 0

Track 02
Filename : /cuntfist/FLAC/VA - The Funk Box (4CD) (2000) [FLAC] {Hip-O}/Disc 2/02 - Gil Scott-Heron & Brian Jackson - The Bottle.flac
Pre-gap length : 00:01:25

Track gain : -4.74 dB
Peak : 0.890503
CRC32 hash (test run) : 3B00D102
CRC32 hash : 3B00D102
CRC32 hash (skip zero) : FC97BBF5
AccurateRip v1 signature : E537FC11
AccurateRip v2 signature : DE5B3EEF
->Accurately ripped (v1+v2, confidence 7+8/25)
Statistics
Read error : 0
Jitter error (maybe fixed) : 0
Retry sector count : 0
Damaged sector count : 0

Track 03
Filename : /cuntfist/FLAC/VA - The Funk Box (4CD) (2000) [FLAC] {Hip-O}/Disc 2/03 - Tower Of Power - What Is Hip.flac
Pre-gap length : 00:01:65

Track gain : -6.99 dB
Peak : 0.613739
CRC32 hash (test run) : 1CF0B2F3
CRC32 hash : 1CF0B2F3
CRC32 hash (skip zero) : 9281BF59
AccurateRip v1 signature : 8868B01A
AccurateRip v2 signature : 2483B27A
->Accurately ripped (v1+v2, confidence 8+9/27)
Statistics
Read error : 0
Jitter error (maybe fixed) : 0
Retry sector count : 0
Damaged sector count : 0

Track 04
Filename : /cuntfist/FLAC/VA - The Funk Box (4CD) (2000) [FLAC] {Hip-O}/Disc 2/04 - James Brown - The Payback.flac
Pre-gap length : 00:01:27

Track gain : -9.85 dB
Peak : 0.850006
CRC32 hash (test run) : ECC29C48
CRC32 hash : ECC29C48
CRC32 hash (skip zero) : 409022B9
AccurateRip v1 signature : 133E6A31
AccurateRip v2 signature : AD36CB2B
->Accurately ripped (v1+v2, confidence 9+9/28)
Statistics
Read error : 0
Jitter error (maybe fixed) : 0
Retry sector count : 0
Damaged sector count : 0

Track 05
Filename : /cuntfist/FLAC/VA - The Funk Box (4CD) (2000) [FLAC] {Hip-O}/Disc 2/05 - The O'Jays - For The Love Of Money.flac

Track gain : -4.07 dB
Peak : 0.927521
CRC32 hash (test run) : F97909B6
CRC32 hash : F97909B6
CRC32 hash (skip zero) : D43C1C53
AccurateRip v1 signature : 5DFE3986
AccurateRip v2 signature : 398706E1
->Accurately ripped (v1+v2, confidence 8+8/26)
Statistics
Read error : 0
Jitter error (maybe fixed) : 0
Retry sector count : 0
Damaged sector count : 0

Track 06
Filename : /cuntfist/FLAC/VA - The Funk Box (4CD) (2000) [FLAC] {Hip-O}/Disc 2/06 - Kool & The Gang - Hollywood Swinging.flac
Pre-gap length : 00:01:17

Track gain : -8.19 dB
Peak : 0.999969
CRC32 hash (test run) : 0E267B40
CRC32 hash : 0E267B40
CRC32 hash (skip zero) : 839F07C6
AccurateRip v1 signature : BA0BE621
AccurateRip v2 signature : 9B87C1CA
->Accurately ripped (v1+v2, confidence 8+8/26)
Statistics
Read error : 0
Jitter error (maybe fixed) : 0
Retry sector count : 0
Damaged sector count : 0

Track 07
Filename : /cuntfist/FLAC/VA - The Funk Box (4CD) (2000) [FLAC] {Hip-O}/Disc 2/07 - Rufus featuring Chaka Khan - Tell Me Something Good.flac
Pre-gap length : 00:01:45

Track gain : -7.79 dB
Peak : 0.999908
CRC32 hash (test run) : 3C71BA5E
CRC32 hash : 3C71BA5E
CRC32 hash (skip zero) : 74A5A70F
AccurateRip v1 signature : CFAD5D94
AccurateRip v2 signature : 5F83BA6E
->Accurately ripped (v1+v2, confidence 9+8/27)
Statistics
Read error : 0
Jitter error (maybe fixed) : 0
Retry sector count : 0
Damaged sector count : 0

Track 08
Filename : /cuntfist/FLAC/VA - The Funk Box (4CD) (2000) [FLAC] {Hip-O}/Disc 2/08 - The Blackbyrds - Do It, Fluid.flac
Pre-gap length : 00:02:43

Track gain : -6.88 dB
Peak : 0.999969
CRC32 hash (test run) : 76A05773
CRC32 hash : 76A05773
CRC32 hash (skip zero) : 5F7FF506
AccurateRip v1 signature : AA0DEB13
AccurateRip v2 signature : 43332ADA
->Accurately ripped (v1+v2, confidence 8+8/26)
Statistics
Read error : 0
Jitter error (maybe fixed) : 0
Retry sector count : 0
Damaged sector count : 0

Track 09
Filename : /cuntfist/FLAC/VA - The Funk Box (4CD) (2000) [FLAC] {Hip-O}/Disc 2/09 - B.T. Express - Do It (Till Your Satisfied).flac
Pre-gap length : 00:01:15

Track gain : -6.36 dB
Peak : 0.862640
CRC32 hash (test run) : CF34F63A
CRC32 hash : CF34F63A
CRC32 hash (skip zero) : F279696D
AccurateRip v1 signature : 8B8E9B89
AccurateRip v2 signature : 8D6B68FB
->Accurately ripped (v1+v2, confidence 9+10/28)
Statistics
Read error : 0
Jitter error (maybe fixed) : 0
Retry sector count : 0
Damaged sector count : 0

Track 10
Filename : /cuntfist/FLAC/VA - The Funk Box (4CD) (2000) [FLAC] {Hip-O}/Disc 2/10 - The Meters - Just Kissed My Baby.flac
Pre-gap length : 00:02:42

Track gain : -4.03 dB
Peak : 0.999939
CRC32 hash (test run) : 005A4A05
CRC32 hash : 005A4A05
CRC32 hash (skip zero) : 3D4970F0
AccurateRip v1 signature : 03E8347F
AccurateRip v2 signature : 0CC8AC10
->Accurately ripped (v1+v2, confidence 8+8/26)
Statistics
Read error : 0
Jitter error (maybe fixed) : 0
Retry sector count : 0
Damaged sector count : 0

Track 11
Filename : /cuntfist/FLAC/VA - The Funk Box (4CD) (2000) [FLAC] {Hip-O}/Disc 2/11 - Ohio Players - Skin Tight.flac

Track gain : -6.98 dB
Peak : 0.999268
CRC32 hash (test run) : C7671E4C
CRC32 hash : C7671E4C
CRC32 hash (skip zero) : 52CBAEAE
AccurateRip v1 signature : 68707CE0
AccurateRip v2 signature : 16A54C26
->Accurately ripped (v1+v2, confidence 8+8/26)
Statistics
Read error : 0
Jitter error (maybe fixed) : 0
Retry sector count : 0
Damaged sector count : 0

Track 12
Filename : /cuntfist/FLAC/VA - The Funk Box (4CD) (2000) [FLAC] {Hip-O}/Disc 2/12 - George McCrae - I Get Lifted.flac
Pre-gap length : 00:01:22

Track gain : -6.55 dB
Peak : 0.890594
CRC32 hash (test run) : D25F92BB
CRC32 hash : D25F92BB
CRC32 hash (skip zero) : 11ABDB69
AccurateRip v1 signature : 72C1DBBA
AccurateRip v2 signature : 20AC3A94
->Accurately ripped (v1+v2, confidence 8+10/28)
Statistics
Read error : 0
Jitter error (maybe fixed) : 0
Retry sector count : 0
Damaged sector count : 0

Track 13
Filename : /cuntfist/FLAC/VA - The Funk Box (4CD) (2000) [FLAC] {Hip-O}/Disc 2/13 - The Temptations - Shakey Ground.flac
Pre-gap length : 00:01:30

Track gain : -5.87 dB
Peak : 0.928772
CRC32 hash (test run) : B1825292
CRC32 hash : B1825292
CRC32 hash (skip zero) : 8E4DDD66
AccurateRip v1 signature : 024989CC
AccurateRip v2 signature : 30D720CE
->Accurately ripped (v1+v2, confidence 9+9/27)
Statistics
Read error : 0
Jitter error (maybe fixed) : 0
Retry sector count : 0
Damaged sector count : 0

Track 14
Filename : /cuntfist/FLAC/VA - The Funk Box (4CD) (2000) [FLAC] {Hip-O}/Disc 2/14 - Average White Band - School Boy Crush.flac
Pre-gap length : 00:01:48

Track gain : -5.06 dB
Peak : 0.925201
CRC32 hash (test run) : 318A30C4
CRC32 hash : 318A30C4
CRC32 hash (skip zero) : A56CD32E
AccurateRip v1 signature : E2A7536D
AccurateRip v2 signature : 3233422F
->Accurately ripped (v1+v2, confidence 8+9/26)
Statistics
Read error : 0
Jitter error (maybe fixed) : 0
Retry sector count : 0
Damaged sector count : 0

Track 15
Filename : /cuntfist/FLAC/VA - The Funk Box (4CD) (2000) [FLAC] {Hip-O}/Disc 2/15 - Jermaine Jackson - Erucu.flac

Track gain : -5.35 dB
Peak : 0.832275
CRC32 hash (test run) : F94D4C73
CRC32 hash : F94D4C73
CRC32 hash (skip zero) : B49EBFDB
AccurateRip v1 signature : 30FB888C
AccurateRip v2 signature : 1548AB67
->Accurately ripped (v1+v2, confidence 6+9/26)
Statistics
Read error : 0
Jitter error (maybe fixed) : 0
Retry sector count : 0
Damaged sector count : 0

No errors occurred

End of status report

––-BEGIN XLD SIGNATURE––-
11yXidCvgE_QQuMJFRgRsu8SEsBWlMzBhmjH112p7ah5FbPuSkJutPSmpFssGPrglGk_6jvEYB_apXVYYfVVFvqQF6wjgrlvVOtP4Zy
––-END XLD SIGNATURE––-







X Lossless Decoder version 20130407 (143.0)

XLD extraction logfile from 2014-11-04 14:44:09 -0800

Various Artists / The Funk Box (Disc 3)

Used drive : HL-DT-ST DVDRW GA32N (revision KE06)
Media type : Pressed CD

Ripper mode : XLD Secure Ripper
Disable audio cache : OK for the drive with a cache less than 1375KiB
Make use of C2 pointers : NO
Read offset correction : 103
Max retry count : 100
Gap status : Analyzed, Appended (except HTOA)

TOC of the extracted CD
Track | Start | Length | Start sector | End sector
––––––––––––––––––––––––––––-
1 | 00:00:00 | 05:21:40 | 0 | 24114
2 | 05:21:40 | 03:38:17 | 24115 | 40481
3 | 08:59:57 | 05:48:20 | 40482 | 66601
4 | 14:48:02 | 05:59:40 | 66602 | 93566
5 | 20:47:42 | 08:14:13 | 93567 | 130629
6 | 29:01:55 | 05:38:15 | 130630 | 155994
7 | 34:39:70 | 05:44:02 | 155995 | 181796
8 | 40:23:72 | 06:10:00 | 181797 | 209546
9 | 46:33:72 | 06:50:73 | 209547 | 240369
10 | 53:24:70 | 06:08:60 | 240370 | 268029
11 | 59:33:55 | 06:55:62 | 268030 | 299216
12 | 66:29:42 | 06:12:63 | 299217 | 327179
13 | 72:42:30 | 06:02:62 | 327180 | 354391

List of alternate offset correction values
# | Absolute | Relative | Confidence
–––––––––––––––––––––
1 | 93 | -10 | 12

AccurateRip Summary (DiscID: 00247f74-017271b2-b912750d)
Track 01 : OK (v1+v2, confidence 18/30)
Track 02 : OK (v1+v2, confidence 18/30)
Track 03 : OK (v1+v2, confidence 18/30)
Track 04 : OK (v1+v2, confidence 18/30)
Track 05 : OK (v1+v2, confidence 18/30)
Track 06 : OK (v1+v2, confidence 18/30)
Track 07 : OK (v1+v2, confidence 18/30)
Track 08 : OK (v1+v2, confidence 17/29)
Track 09 : OK (v1+v2, confidence 17/29)
Track 10 : OK (v1+v2, confidence 17/29)
Track 11 : OK (v1+v2, confidence 17/28)
Track 12 : OK (v1+v2, confidence 17/28)
Track 13 : OK (v1+v2, confidence 15/27)
->All tracks accurately ripped.

All Tracks
Album gain : -6.79 dB
Peak : 1.000000
Statistics
Read error : 0
Jitter error (maybe fixed) : 0
Retry sector count : 0
Damaged sector count : 0

Track 01
Filename : /cuntfist/FLAC/VA - The Funk Box (4CD) (2000) [FLAC] {Hip-O}/Disc 3/01 - The Isley Brothers - Fight The Power - Pts. 1 & 2.flac
Pre-gap length : 00:02:00

Track gain : -4.60 dB
Peak : 0.968658
CRC32 hash (test run) : 8A9061DD
CRC32 hash : 8A9061DD
CRC32 hash (skip zero) : 289B77DB
AccurateRip v1 signature : 41A97556
AccurateRip v2 signature : 4822E84E
->Accurately ripped (v1+v2, confidence 7+11/30)
Statistics
Read error : 0
Jitter error (maybe fixed) : 0
Retry sector count : 0
Damaged sector count : 0

Track 02
Filename : /cuntfist/FLAC/VA - The Funk Box (4CD) (2000) [FLAC] {Hip-O}/Disc 3/02 - Graham Central Station - The Jam.flac
Pre-gap length : 00:01:15

Track gain : -6.79 dB
Peak : 0.763947
CRC32 hash (test run) : 1F71D80E
CRC32 hash : 1F71D80E
CRC32 hash (skip zero) : A3A1CCBF
AccurateRip v1 signature : 1C9CF32E
AccurateRip v2 signature : 18352477
->Accurately ripped (v1+v2, confidence 7+11/30)
Statistics
Read error : 0
Jitter error (maybe fixed) : 0
Retry sector count : 0
Damaged sector count : 0

Track 03
Filename : /cuntfist/FLAC/VA - The Funk Box (4CD) (2000) [FLAC] {Hip-O}/Disc 3/03 - Parliament - Give Up The Funk (Tear The Roof Off The Sucker).flac

Track gain : -7.51 dB
Peak : 0.920197
CRC32 hash (test run) : B04CBBE2
CRC32 hash : B04CBBE2
CRC32 hash (skip zero) : C1BF80F3
AccurateRip v1 signature : 4B6A7D62
AccurateRip v2 signature : 974A94D5
->Accurately ripped (v1+v2, confidence 7+11/30)
Statistics
Read error : 0
Jitter error (maybe fixed) : 0
Retry sector count : 0
Damaged sector count : 0

Track 04
Filename : /cuntfist/FLAC/VA - The Funk Box (4CD) (2000) [FLAC] {Hip-O}/Disc 3/04 - Brothers Johnson - Get The Funk Out Ma Face.flac
Pre-gap length : 00:01:60

Track gain : -5.52 dB
Peak : 0.951294
CRC32 hash (test run) : 65CA2912
CRC32 hash : 65CA2912
CRC32 hash (skip zero) : A22783E5
AccurateRip v1 signature : 2DCAB1E2
AccurateRip v2 signature : 042767CB
->Accurately ripped (v1+v2, confidence 7+11/30)
Statistics
Read error : 0
Jitter error (maybe fixed) : 0
Retry sector count : 0
Damaged sector count : 0

Track 05
Filename : /cuntfist/FLAC/VA - The Funk Box (4CD) (2000) [FLAC] {Hip-O}/Disc 3/05 - Brass Construction - Changin'.flac
Pre-gap length : 00:01:40

Track gain : -7.01 dB
Peak : 0.968658
CRC32 hash (test run) : FF36F793
CRC32 hash : FF36F793
CRC32 hash (skip zero) : 9A57D0B8
AccurateRip v1 signature : 336FA3BF
AccurateRip v2 signature : 15A774C5
->Accurately ripped (v1+v2, confidence 7+11/30)
Statistics
Read error : 0
Jitter error (maybe fixed) : 0
Retry sector count : 0
Damaged sector count : 0

Track 06
Filename : /cuntfist/FLAC/VA - The Funk Box (4CD) (2000) [FLAC] {Hip-O}/Disc 3/06 - Brick - Dazz.flac
Pre-gap length : 00:01:48

Track gain : -6.69 dB
Peak : 0.944824
CRC32 hash (test run) : 963AE83A
CRC32 hash : 963AE83A
CRC32 hash (skip zero) : 62675FD8
AccurateRip v1 signature : F5C9477D
AccurateRip v2 signature : 1365CA2C
->Accurately ripped (v1+v2, confidence 7+11/30)
Statistics
Read error : 0
Jitter error (maybe fixed) : 0
Retry sector count : 0
Damaged sector count : 0

Track 07
Filename : /cuntfist/FLAC/VA - The Funk Box (4CD) (2000) [FLAC] {Hip-O}/Disc 3/07 - Johnny Guitar Watson - Superman Lover.flac
Pre-gap length : 00:02:20

Track gain : -7.11 dB
Peak : 0.915894
CRC32 hash (test run) : 8F420F97
CRC32 hash : 8F420F97
CRC32 hash (skip zero) : F6F52652
AccurateRip v1 signature : BED5A3AE
AccurateRip v2 signature : 206EF772
->Accurately ripped (v1+v2, confidence 7+11/30)
Statistics
Read error : 0
Jitter error (maybe fixed) : 0
Retry sector count : 0
Damaged sector count : 0

Track 08
Filename : /cuntfist/FLAC/VA - The Funk Box (4CD) (2000) [FLAC] {Hip-O}/Disc 3/08 - Bootsy's Rubber Band - The Pinocchio Theory.flac

Track gain : -6.60 dB
Peak : 1.000000
CRC32 hash (test run) : 2EA2581A
CRC32 hash : 2EA2581A
CRC32 hash (skip zero) : 527354F8
AccurateRip v1 signature : 0A0455D0
AccurateRip v2 signature : 0AB9D1D9
->Accurately ripped (v1+v2, confidence 6+11/29)
Statistics
Read error : 0
Jitter error (maybe fixed) : 0
Retry sector count : 0
Damaged sector count : 0

Track 09
Filename : /cuntfist/FLAC/VA - The Funk Box (4CD) (2000) [FLAC] {Hip-O}/Disc 3/09 - Slave - Slide.flac
Pre-gap length : 00:02:07

Track gain : -8.00 dB
Peak : 0.759857
CRC32 hash (test run) : 761FFF33
CRC32 hash : 761FFF33
CRC32 hash (skip zero) : 8403BF56
AccurateRip v1 signature : 97C08490
AccurateRip v2 signature : B071C542
->Accurately ripped (v1+v2, confidence 6+11/29)
Statistics
Read error : 0
Jitter error (maybe fixed) : 0
Retry sector count : 0
Damaged sector count : 0

Track 10
Filename : /cuntfist/FLAC/VA - The Funk Box (4CD) (2000) [FLAC] {Hip-O}/Disc 3/10 - Patrice Rushen - The Hump.flac

Track gain : -6.03 dB
Peak : 0.873169
CRC32 hash (test run) : E0BEA04C
CRC32 hash : E0BEA04C
CRC32 hash (skip zero) : B5C153BD
AccurateRip v1 signature : 686C22C1
AccurateRip v2 signature : 6398CEE0
->Accurately ripped (v1+v2, confidence 6+11/29)
Statistics
Read error : 0
Jitter error (maybe fixed) : 0
Retry sector count : 0
Damaged sector count : 0

Track 11
Filename : /cuntfist/FLAC/VA - The Funk Box (4CD) (2000) [FLAC] {Hip-O}/Disc 3/11 - Roy Ayers - Running Away (12 inch Mix).flac

Track gain : -6.10 dB
Peak : 0.861542
CRC32 hash (test run) : 8B8A8AAE
CRC32 hash : 8B8A8AAE
CRC32 hash (skip zero) : 8D400182
AccurateRip v1 signature : A78650FE
AccurateRip v2 signature : CCCE0058
->Accurately ripped (v1+v2, confidence 6+11/28)
Statistics
Read error : 0
Jitter error (maybe fixed) : 0
Retry sector count : 0
Damaged sector count : 0

Track 12
Filename : /cuntfist/FLAC/VA - The Funk Box (4CD) (2000) [FLAC] {Hip-O}/Disc 3/12 - Commodores - Brick House (12 inch Mix).flac
Pre-gap length : 00:01:45

Track gain : -6.47 dB
Peak : 0.943939
CRC32 hash (test run) : 5D74F665
CRC32 hash : 5D74F665
CRC32 hash (skip zero) : E6A2183E
AccurateRip v1 signature : 876C32E9
AccurateRip v2 signature : F9615AD5
->Accurately ripped (v1+v2, confidence 7+10/28)
Statistics
Read error : 0
Jitter error (maybe fixed) : 0
Retry sector count : 0
Damaged sector count : 0

Track 13
Filename : /cuntfist/FLAC/VA - The Funk Box (4CD) (2000) [FLAC] {Hip-O}/Disc 3/13 - Bar-Kays - Let's Have Some Fun.flac
Pre-gap length : 00:01:10

Track gain : -6.09 dB
Peak : 0.956268
CRC32 hash (test run) : 6F2C4F43
CRC32 hash : 6F2C4F43
CRC32 hash (skip zero) : 243A7442
AccurateRip v1 signature : ACC749D1
AccurateRip v2 signature : 8E0D0FDF
->Accurately ripped (v1+v2, confidence 5+10/27)
Statistics
Read error : 0
Jitter error (maybe fixed) : 0
Retry sector count : 0
Damaged sector count : 0

No errors occurred

End of status report

––-BEGIN XLD SIGNATURE––-
bWIto8c80vY5_UOX.18av.LIqTkuMTAi6Ljq0Os.Nl0EC8.ESBwwc4tZ54Es_5WKaNpfiBBKzvpt_79l.Yso4C0RFIudHfbZvFD3UJa
––-END XLD SIGNATURE––-







X Lossless Decoder version 20130407 (143.0)

XLD extraction logfile from 2014-11-06 09:08:27 -0800

Various Artists / The Funk Box (Disc 4)

Used drive : HL-DT-ST DVDRW GA32N (revision KE06)
Media type : Pressed CD

Ripper mode : XLD Secure Ripper
Disable audio cache : OK for the drive with a cache less than 1375KiB
Make use of C2 pointers : NO
Read offset correction : 103
Max retry count : 100
Gap status : Analyzed, Appended (except HTOA)

TOC of the extracted CD
Track | Start | Length | Start sector | End sector
––––––––––––––––––––––––––––-
1 | 00:00:00 | 08:07:47 | 0 | 36571
2 | 08:07:47 | 07:39:70 | 36572 | 71066
3 | 15:47:42 | 05:55:48 | 71067 | 97739
4 | 21:43:15 | 07:29:07 | 97740 | 131421
5 | 29:12:22 | 07:43:20 | 131422 | 166166
6 | 36:55:42 | 06:23:58 | 166167 | 194949
7 | 43:19:25 | 06:29:50 | 194950 | 224174
8 | 49:49:00 | 06:04:57 | 224175 | 251531
9 | 55:53:57 | 09:29:10 | 251532 | 294216
10 | 65:22:67 | 05:31:60 | 294217 | 319101
11 | 70:54:52 | 04:45:15 | 319102 | 340491

List of alternate offset correction values
# | Absolute | Relative | Confidence
–––––––––––––––––––––
1 | 93 | -10 | 12

AccurateRip Summary (DiscID: 0020764c-01171afc-a411bb0b)
Track 01 : OK (v1+v2, confidence 17/28)
Track 02 : OK (v1+v2, confidence 17/28)
Track 03 : OK (v1+v2, confidence 17/28)
Track 04 : OK (v1+v2, confidence 16/27)
Track 05 : OK (v1+v2, confidence 17/28)
Track 06 : OK (v1+v2, confidence 17/28)
Track 07 : OK (v1+v2, confidence 16/27)
Track 08 : OK (v1+v2, confidence 16/28)
Track 09 : OK (v1+v2, confidence 17/29)
Track 10 : OK (v1+v2, confidence 18/30)
Track 11 : OK (v1+v2, confidence 15/27)
->All tracks accurately ripped.

All Tracks
Album gain : -7.13 dB
Peak : 1.000000
Statistics
Read error : 0
Jitter error (maybe fixed) : 0
Retry sector count : 0
Damaged sector count : 0

Track 01
Filename : /cuntfist/FLAC/VA - The Funk Box (4CD) (2000) [FLAC] {Hip-O}/Disc 4/01 - Rick James - You And I.flac
Pre-gap length : 00:02:00

Track gain : -7.49 dB
Peak : 1.000000
CRC32 hash (test run) : 61205E47
CRC32 hash : 61205E47
CRC32 hash (skip zero) : B048AC5A
AccurateRip v1 signature : F9EC8FB6
AccurateRip v2 signature : F2609026
->Accurately ripped (v1+v2, confidence 8+9/28)
Statistics
Read error : 0
Jitter error (maybe fixed) : 0
Retry sector count : 0
Damaged sector count : 0

Track 02
Filename : /cuntfist/FLAC/VA - The Funk Box (4CD) (2000) [FLAC] {Hip-O}/Disc 4/02 - Fatback - I Like Girls.flac
Pre-gap length : 00:02:42

Track gain : -6.28 dB
Peak : 0.829071
CRC32 hash (test run) : E1E30639
CRC32 hash : E1E30639
CRC32 hash (skip zero) : AA831DB4
AccurateRip v1 signature : 4342A886
AccurateRip v2 signature : AF1A4510
->Accurately ripped (v1+v2, confidence 8+9/28)
Statistics
Read error : 0
Jitter error (maybe fixed) : 0
Retry sector count : 0
Damaged sector count : 0

Track 03
Filename : /cuntfist/FLAC/VA - The Funk Box (4CD) (2000) [FLAC] {Hip-O}/Disc 4/03 - Bohannon - Let's Start The Dance.flac
Pre-gap length : 00:01:72

Track gain : -7.25 dB
Peak : 0.858459
CRC32 hash (test run) : B8F7D913
CRC32 hash : B8F7D913
CRC32 hash (skip zero) : F98A7394
AccurateRip v1 signature : 0912A3AA
AccurateRip v2 signature : 1854249A
->Accurately ripped (v1+v2, confidence 8+9/28)
Statistics
Read error : 0
Jitter error (maybe fixed) : 0
Retry sector count : 0
Damaged sector count : 0

Track 04
Filename : /cuntfist/FLAC/VA - The Funk Box (4CD) (2000) [FLAC] {Hip-O}/Disc 4/04 - Funkadelic - One Nation Under A Groove.flac
Pre-gap length : 00:01:73

Track gain : -7.78 dB
Peak : 0.830383
CRC32 hash (test run) : ABCB6230
CRC32 hash : ABCB6230
CRC32 hash (skip zero) : 217800C0
AccurateRip v1 signature : C138B0C0
AccurateRip v2 signature : 55550B00
->Accurately ripped (v1+v2, confidence 7+9/27)
Statistics
Read error : 0
Jitter error (maybe fixed) : 0
Retry sector count : 0
Damaged sector count : 0

Track 05
Filename : /cuntfist/FLAC/VA - The Funk Box (4CD) (2000) [FLAC] {Hip-O}/Disc 4/05 - Chuck Brown & The Soul Searchers - Bustin' Loose.flac
Pre-gap length : 00:01:55

Track gain : -7.21 dB
Peak : 1.000000
CRC32 hash (test run) : 04CD83D2
CRC32 hash : 04CD83D2
CRC32 hash (skip zero) : 2F6DEFD1
AccurateRip v1 signature : 1CB28732
AccurateRip v2 signature : 445FFA88
->Accurately ripped (v1+v2, confidence 7+10/28)
Statistics
Read error : 0
Jitter error (maybe fixed) : 0
Retry sector count : 0
Damaged sector count : 0

Track 06
Filename : /cuntfist/FLAC/VA - The Funk Box (4CD) (2000) [FLAC] {Hip-O}/Disc 4/06 - Cameo - I Just Want To Be (12 inch Extended Mix).flac
Pre-gap length : 00:01:37

Track gain : -6.28 dB
Peak : 0.974091
CRC32 hash (test run) : FC19D164
CRC32 hash : FC19D164
CRC32 hash (skip zero) : A7F18D0E
AccurateRip v1 signature : 89D407F2
AccurateRip v2 signature : A0AC32AC
->Accurately ripped (v1+v2, confidence 8+9/28)
Statistics
Read error : 0
Jitter error (maybe fixed) : 0
Retry sector count : 0
Damaged sector count : 0

Track 07
Filename : /cuntfist/FLAC/VA - The Funk Box (4CD) (2000) [FLAC] {Hip-O}/Disc 4/07 - Pleasure - Glide.flac
Pre-gap length : 00:01:68

Track gain : -5.12 dB
Peak : 1.000000
CRC32 hash (test run) : 94FB7880
CRC32 hash : 94FB7880
CRC32 hash (skip zero) : CD6F619F
AccurateRip v1 signature : F74D6D1C
AccurateRip v2 signature : A9369AD4
->Accurately ripped (v1+v2, confidence 7+9/27)
Statistics
Read error : 0
Jitter error (maybe fixed) : 0
Retry sector count : 0
Damaged sector count : 0

Track 08
Filename : /cuntfist/FLAC/VA - The Funk Box (4CD) (2000) [FLAC] {Hip-O}/Disc 4/08 - Teena Marie - Behind The Groove.flac
Pre-gap length : 00:01:05

Track gain : -6.53 dB
Peak : 1.000000
CRC32 hash (test run) : AB0D059F
CRC32 hash : AB0D059F
CRC32 hash (skip zero) : 853E3D4B
AccurateRip v1 signature : 7509555C
AccurateRip v2 signature : C739CD24
->Accurately ripped (v1+v2, confidence 7+9/28)
Statistics
Read error : 0
Jitter error (maybe fixed) : 0
Retry sector count : 0
Damaged sector count : 0

Track 09
Filename : /cuntfist/FLAC/VA - The Funk Box (4CD) (2000) [FLAC] {Hip-O}/Disc 4/09 - Zapp - More Bounce To The Ounce.flac
Pre-gap length : 00:01:35

Track gain : -6.70 dB
Peak : 0.802826
CRC32 hash (test run) : F57FB501
CRC32 hash : F57FB501
CRC32 hash (skip zero) : 4E865A4B
AccurateRip v1 signature : 48C57232
AccurateRip v2 signature : 9286DC89
->Accurately ripped (v1+v2, confidence 8+9/29)
Statistics
Read error : 0
Jitter error (maybe fixed) : 0
Retry sector count : 0
Damaged sector count : 0

Track 10
Filename : /cuntfist/FLAC/VA - The Funk Box (4CD) (2000) [FLAC] {Hip-O}/Disc 4/10 - Gap Band - Burn Rubber (Why You Wanna Hurt Me).flac

Track gain : -8.04 dB
Peak : 0.890900
CRC32 hash (test run) : 9CD5A769
CRC32 hash : 9CD5A769
CRC32 hash (skip zero) : 7D2DA3AA
AccurateRip v1 signature : 606E9771
AccurateRip v2 signature : F0F8851D
->Accurately ripped (v1+v2, confidence 8+10/30)
Statistics
Read error : 0
Jitter error (maybe fixed) : 0
Retry sector count : 0
Damaged sector count : 0

Track 11
Filename : /cuntfist/FLAC/VA - The Funk Box (4CD) (2000) [FLAC] {Hip-O}/Disc 4/11 - George Clinton - Atomic Dog.flac
Pre-gap length : 00:01:27

Track gain : -8.45 dB
Peak : 1.000000
CRC32 hash (test run) : 649C1ABB
CRC32 hash : 649C1ABB
CRC32 hash (skip zero) : 3513B06D
AccurateRip v1 signature : F39C4E87
AccurateRip v2 signature : 3F73B808
->Accurately ripped (v1+v2, confidence 6+9/27)
Statistics
Read error : 0
Jitter error (maybe fixed) : 0
Retry sector count : 0
Damaged sector count : 0

No errors occurred

End of status report

––-BEGIN XLD SIGNATURE––-
hb_zYHbJ.wL_UfG_.W_9n0jgti5kVsFAqOIBVXJNx.5bF0gaDsVRxsj4kjGo8BDjwQfT9lieM8aKZ0n0LjzJexyJhyX2g9U1rqyypwi
––-END XLD SIGNATURE––-


VA - The Funk Box (4CD) (2000) {Hip-O}


Thank you to the original uploader.
Jermaine Jackson MP3 CBR 320 kbps Gil Scott-Heron Commodores Johnny Guitar Watson RnB Brass Construction Brothers Johnson Graham Central Station Chuck Brown & The Soul Searchers Bar-Kays Brick The Meters Billy Preston Roy Ayers 90s Gil Scott-Heron & Brian Jackson Aretha Franklin Box Set Patrice Rushen Funkadelic Brian Jackson Rick James Various artists Lossless R&B The Isley Brothers George McCrae Fatback Barry White Funk Bootsy's Rubber Band Cymande Zapp Lyn Collins 07. Chakachas MP3 320 CBR Soul Chaka Khan VA Parliament War Bohannon The O'Jays Pleasure Tower Of Power Curtis Mayfield B.T. Express Marvin Gaye Gap Band James Brown Cameo 2000s Fatback Band The Temptations Slave Charles Wright & The Watts 103rd Street Rhythm Band Ohio Players Rufus featuring Chaka Khan Average White Band 2000 The J.B.'s Bobby Byrd George Clinton Teena Marie The New Birth Kool & The Gang Compilation The Jimmy Castor Bunch