Subcategories

VA - Ultimate ROCK: 4CDs Of Great Rock Music (2015) [Re-Up]

Posted By: Designol
VA - Ultimate ROCK: 4CDs Of Great Rock Music (2015) [Re-Up]

VA - Ultimate ROCK: 4CDs Of Great Rock Music (2015)
EAC | FLAC | Tracks (Cue&Log) ~ 2 Gb | Mp3 (CBR320) ~ 648 Mb | Scans ~ 42 Mb
Rock (variety of styles) | Label: Sony Music | # 88875085792 | Time: 04:43:44

Ultimate Rock: 72 of the biggest rock anthems and harder to find rarities across 4 CDs, all housed in a fold out cardboard digi-pack sleeve. Alice Cooper, Argent, Blue Oyster Cult, Kansas, Judas Priest, Mott The Hoople, David Bowie, Primal Scream, Meat Loaf, The Stranglers, Santana, Manic Street Preachers, Jeff Buckley, Ted Nugent, Joe Satriani, Al Stewart, Cheap Trick, Spirit, Johnny Winter, The Guess Who, Fleetwood Mac and more, and more…

VA - Ultimate ROCK: 4CDs Of Great Rock Music (2015) [Re-Up]

VA - Ultimate ROCK: 4CDs Of Great Rock Music (2015) [Re-Up]


Tracklist:

CD1:

01. Alice Cooper - Poison (04:31)
02. Judas Priest - Living After Midnight (03:30)
03. Argent - God Gave Rock and Roll to You (06:44)
04. Survivor - Burning Heart (03:51)
05. Boston - More Than A Feeling (03:31)
06. Ram Jam - Black Betty (03:58)
07. Blue Oyster Cult - (Don't Fear) The Reaper (03:50)
08. Kansas - Carry On Wayward Son (03:26)
09. The Hooters - Satellite (04:16)
10. Toto - Hold The Line (03:57)
11. Europe - The Final Countdown (04:01)
12. REO Speedwagon - Can't Fight This Feeling (04:48)
13. Meat Loaf - Bat Out Of Hell (04:51)
14. Electric Light Orchestra - Sweet Talkin' Woman (03:47)
15. Mott The Hoople - All The Young Dudes (03:35)
16. David Bowie - The Stars (Are Out Tonight) (03:57)
17. Deep Purple - Smoke On The Water (Live) (10:11)

CD2:

01. Wheatus - Teenage Dirtbag (04:04)
02. Bowling For Soup - Girl All The Bad Guys Want (03:19)
03. Good Charlotte - Lifestyles Of The Rich & Famous (03:10)
04. System Of A Down - Chop Suey! (03:32)
05. Korn - Word Up! (02:53)
06. 311 - Down (02:54)
07. Screaming Trees - Dollar Bill (04:35)
08. Soul Asylum - Runaway Train (04:27)
09. Manic Street Preachers - Motorcycle Emptiness (03:37)
10. Primal Scream - Rocks (03:36)
11. The Only Ones - Another Girl Another Planet (03:02)
12. The Stranglers - All Day And All Of The Night (02:26)
13. Kasabian - Fire (04:13)
14. The Fray - How To Save A Life (04:24)
15. Jeff Buckley - Last Goodbye (04:35)
16. John Mayer - Heartbreak Warfare (04:29)
17. JJ Cale - Hold On Baby (03:03)
18. Albert Hammond - The Free Electric Band (03:25)

CD3:

01. Patti Smith Group - Because The Night (03:23)
02. Train - Drops Of Jupiter (04:21)
03. The Jeff Healey Band - While My Guitar Gently Weeps (05:10)
04. Living Colour - Love Rears Its Ugly Head (04:20)
05. Kenny Loggins - Danger Zone (03:36)
06. Cheap Trick - Surrender (04:12)
07. Ted Nugent - Cat Scratch Fever (03:39)
08. Motorhead - Hellraiser (04:31)
09. Ian Hunter - Once Bitten, Twice Shy (03:53)
10. Warrant - Cherry Pie (03:18)
11. Quiet Riot - Bang Your Head (Metal Health) (05:18)
12. Bad English - When I See You Smile (04:18)
13. Firehouse - When I Look Into Your Eyes (04:01)
14. Lita Ford - Kiss Me Deadly (04:01)
15. Scorpions - Pictured Life (03:24)
16. The Outfield - Your Love (03:38)
17. Journey - Any Way You Want It (03:24)
18. Al Stewart - Carol (04:25)
19. The Alan Parsons Project - Eye In The Sky (04:37)

CD4:

01. Santana - She's Not There (03:20)
02. Fleetwood Mac - Black Magic Woman (02:52)
03. The Gun - Race With The Devil (03:35)
04. Redbone - The Witch Queen Of New Orleans (02:46)
05. Big Brother & The Holding Company - Piece Of My Heart (04:15)
06. The Guess Who - American Woman (03:52)
07. Mountain - Mississippi Queen (02:32)
08. Flamin' Groovies - Teenage Head (02:52)
09. Heart - Barracuda (03:29)
10. Spirit - I Got A Line On You (02:41)
11. Molly Hatchet - Flirtin' With Disaster (04:59)
12. The Fabulous Thunderbirds - Tuff Enuff (03:22)
13. Stevie Ray Vaughan & Double Trouble - The House Is Rockin' (02:24)
14. Joe Satriani - Satch Boogie (03:13)
15. Jeff Beck - Freeway Jam (05:00)
16. Steve Vai - Tender Surrender (05:02)
17. Johnny Winter - Rock And Roll, Hoochie Koo (03:32)
18. The Edgar Winter Group - Frankenstein (03:27)


Exact Audio Copy V1.0 beta 3 from 29. August 2011

EAC extraction logfile from 21. August 2015, 13:37

Various Artists / Ultimate… Rock - Disc1

Used drive : Optiarc DVD RW AD-7241S Adapter: 5 ID: 1

Read mode : Secure
Utilize accurate stream : Yes
Defeat audio cache : Yes
Make use of C2 pointers : No

Read offset correction : 48
Overread into Lead-In and Lead-Out : No
Fill up missing offset samples with silence : Yes
Delete leading and trailing silent blocks : No
Null samples used in CRC calculations : Yes
Used interface : Native Win32 interface for Win NT & 2000
Gap handling : Appended to previous track

Used output format : User Defined Encoder
Selected bitrate : 1024 kBit/s
Quality : High
Add ID3 tag : No
Command line compressor : C:\Program Files\EAC1.3\Flac\flac.exe
Additional command line options : -8 -V -T "ARTIST=%artist%" -T "TITLE=%title%" -T "ALBUM=%albumtitle%" -T "DATE=%year%" -T "TRACKNUMBER=%tracknr%" -T "TOTALTRACKS=%numtracks%" -T "GENRE=%genre%" -T "ALBUMARTIST=%albumartist%" -T "ALBUM ARTIST=%albumartist%" -T "COMMENT=EAC Secure Mode, Test & Copy, AccurateRip, FLAC -8" %source%


TOC of the extracted CD

Track | Start | Length | Start sector | End sector
––––––––––––––––––––––––––––-
1 | 0:00.00 | 4:31.25 | 0 | 20349
2 | 4:31.25 | 3:30.46 | 20350 | 36145
3 | 8:01.71 | 6:44.65 | 36146 | 66510
4 | 14:46.61 | 3:51.27 | 66511 | 83862
5 | 18:38.13 | 3:31.15 | 83863 | 99702
6 | 22:09.28 | 3:58.43 | 99703 | 117595
7 | 26:07.71 | 3:50.30 | 117596 | 134875
8 | 29:58.26 | 3:26.70 | 134876 | 150395
9 | 33:25.21 | 4:16.15 | 150396 | 169610
10 | 37:41.36 | 3:57.41 | 169611 | 187426
11 | 41:39.02 | 4:01.10 | 187427 | 205511
12 | 45:40.12 | 4:48.04 | 205512 | 227115
13 | 50:28.16 | 4:51.28 | 227116 | 248968
14 | 55:19.44 | 3:47.34 | 248969 | 266027
15 | 59:07.03 | 3:35.23 | 266028 | 282175
16 | 62:42.26 | 3:57.44 | 282176 | 299994
17 | 66:39.70 | 10:11.45 | 299995 | 345864


Track 1

Filename C:\EACcd\01 - Alice Cooper - Poison.wav

Pre-gap length 0:00:02.00

Peak level 99.7 %
Extraction speed 2.6 X
Track quality 100.0 %
Test CRC 543E2399
Copy CRC 543E2399
Track not present in AccurateRip database
Copy OK

Track 2

Filename C:\EACcd\02 - Judas Priest - Living After Midnight.wav

Pre-gap length 0:00:01.58

Peak level 99.7 %
Extraction speed 2.7 X
Track quality 100.0 %
Test CRC 50EDD0E8
Copy CRC 50EDD0E8
Track not present in AccurateRip database
Copy OK

Track 3

Filename C:\EACcd\03 - Argent - God Gave Rock and Roll to You.wav

Pre-gap length 0:00:01.58

Peak level 98.6 %
Extraction speed 3.3 X
Track quality 100.0 %
Test CRC 3539F05C
Copy CRC 3539F05C
Track not present in AccurateRip database
Copy OK

Track 4

Filename C:\EACcd\04 - Survivor - Burning Heart.wav

Pre-gap length 0:00:01.58

Peak level 98.8 %
Extraction speed 3.3 X
Track quality 100.0 %
Test CRC 2DA3067C
Copy CRC 2DA3067C
Track not present in AccurateRip database
Copy OK

Track 5

Filename C:\EACcd\05 - Boston - More Than A Feeling.wav

Pre-gap length 0:00:01.58

Peak level 98.8 %
Extraction speed 3.5 X
Track quality 100.0 %
Test CRC 33721313
Copy CRC 33721313
Track not present in AccurateRip database
Copy OK

Track 6

Filename C:\EACcd\06 - Ram Jam - Black Betty.wav

Pre-gap length 0:00:01.58

Peak level 98.8 %
Extraction speed 3.7 X
Track quality 100.0 %
Test CRC 62D3D4FF
Copy CRC 62D3D4FF
Track not present in AccurateRip database
Copy OK

Track 7

Filename C:\EACcd\07 - Blue Oyster Cult - (Don't Fear) The Reaper.wav

Pre-gap length 0:00:01.58

Peak level 98.5 %
Extraction speed 3.3 X
Track quality 99.9 %
Test CRC 0C0F2291
Copy CRC 0C0F2291
Track not present in AccurateRip database
Copy OK

Track 8

Filename C:\EACcd\08 - Kansas - Carry On Wayward Son.wav

Pre-gap length 0:00:01.58

Peak level 88.0 %
Extraction speed 3.9 X
Track quality 100.0 %
Test CRC 6C151C67
Copy CRC 6C151C67
Track not present in AccurateRip database
Copy OK

Track 9

Filename C:\EACcd\09 - The Hooters - Satellite.wav

Pre-gap length 0:00:01.58

Peak level 98.8 %
Extraction speed 4.1 X
Track quality 100.0 %
Test CRC EC87A8B8
Copy CRC EC87A8B8
Track not present in AccurateRip database
Copy OK

Track 10

Filename C:\EACcd\10 - Toto - Hold The Line.wav

Pre-gap length 0:00:01.58

Peak level 99.7 %
Extraction speed 4.3 X
Track quality 100.0 %
Test CRC 5E3FC208
Copy CRC 5E3FC208
Track not present in AccurateRip database
Copy OK

Track 11

Filename C:\EACcd\11 - Europe - The Final Countdown.wav

Pre-gap length 0:00:01.58

Peak level 90.7 %
Extraction speed 4.4 X
Track quality 100.0 %
Test CRC D5F5E101
Copy CRC D5F5E101
Track not present in AccurateRip database
Copy OK

Track 12

Filename C:\EACcd\12 - REO Speedwagon - Can't Fight This Feeling.wav

Pre-gap length 0:00:01.58

Peak level 98.7 %
Extraction speed 4.6 X
Track quality 100.0 %
Test CRC 0C2911E1
Copy CRC 0C2911E1
Track not present in AccurateRip database
Copy OK

Track 13

Filename C:\EACcd\13 - Meat Loaf - Bat Out Of Hell.wav

Pre-gap length 0:00:01.58

Peak level 99.7 %
Extraction speed 4.8 X
Track quality 100.0 %
Test CRC F34D8843
Copy CRC F34D8843
Track not present in AccurateRip database
Copy OK

Track 14

Filename C:\EACcd\14 - Electric Light Orchestra - Sweet Talkin' Woman.wav

Pre-gap length 0:00:01.58

Peak level 99.7 %
Extraction speed 4.8 X
Track quality 100.0 %
Test CRC 5C40DFA4
Copy CRC 5C40DFA4
Track not present in AccurateRip database
Copy OK

Track 15

Filename C:\EACcd\15 - Mott The Hoople - All The Young Dudes.wav

Pre-gap length 0:00:01.58

Peak level 98.5 %
Extraction speed 4.9 X
Track quality 100.0 %
Test CRC D1E9DD42
Copy CRC D1E9DD42
Track not present in AccurateRip database
Copy OK

Track 16

Filename C:\EACcd\16 - David Bowie - The Stars (Are Out Tonight).wav

Pre-gap length 0:00:01.58

Peak level 99.7 %
Extraction speed 5.1 X
Track quality 100.0 %
Test CRC 2B36A3E3
Copy CRC 2B36A3E3
Track not present in AccurateRip database
Copy OK

Track 17

Filename C:\EACcd\17 - Deep Purple - Smoke On The Water (Live).wav

Pre-gap length 0:00:01.58

Peak level 95.5 %
Extraction speed 5.8 X
Track quality 100.0 %
Test CRC EAAD5CF2
Copy CRC EAAD5CF2
Track not present in AccurateRip database
Copy OK


None of the tracks are present in the AccurateRip database

No errors occurred

End of status report

–– CUETools DB Plugin V2.1.3

[CTDB TOCID: KEzFutixDkh_B5QFLhPeYEei8co-] found, Submit result: KEzFutixDkh_B5QFLhPeYEei8co- has been confirmed
[4dd94e8d] (2/2) Accurately ripped


==== Log checksum ED7EB5D1ED48CED76D4FF96CD181DC0C5475060F3C7118F15392E596947AB34B ====

foobar2000 1.2 / Dynamic Range Meter 1.1.1
log date: 2015-08-27 19:16:50

––––––––––––––––––––––––––––––––––––––––
Analyzed: Alice Cooper / Ultimate… Rock - Disc1 (1)
Argent / Ultimate… Rock - Disc1 (2)
Blue Oyster Cult / Ultimate… Rock - Disc1 (3)
Boston / Ultimate… Rock - Disc1 (4)
David Bowie / Ultimate… Rock - Disc1 (5)
Deep Purple / Ultimate… Rock - Disc1 (6)
Electric Light Orchestra / Ultimate… Rock - Disc1 (7)
Europe / Ultimate… Rock - Disc1 (8)
Judas Priest / Ultimate… Rock - Disc1 (9)
Kansas / Ultimate… Rock - Disc1 (10)
Meat Loaf / Ultimate… Rock - Disc1 (11)
Mott The Hoople / Ultimate… Rock - Disc1 (12)
Ram Jam / Ultimate… Rock - Disc1 (13)
REO Speedwagon / Ultimate… Rock - Disc1 (14)
Survivor / Ultimate… Rock - Disc1 (15)
The Hooters / Ultimate… Rock - Disc1 (16)
Toto / Ultimate… Rock - Disc1 (17)
––––––––––––––––––––––––––––––––––––––––

DR Peak RMS Duration Track
––––––––––––––––––––––––––––––––––––––––
DR7 -0.02 dB -8.98 dB 4:31 01-Poison
DR9 -0.12 dB -11.39 dB 6:45 03-God Gave Rock and Roll to You
DR9 -0.13 dB -11.27 dB 3:50 07-(Don't Fear) The Reaper
DR7 -0.11 dB -9.53 dB 3:31 05-More Than A Feeling
DR6 -0.02 dB -7.50 dB 3:58 16-The Stars (Are Out Tonight)
DR9 -0.40 dB -12.54 dB 10:12 17-Smoke On The Water (Live)
DR9 -0.02 dB -10.21 dB 3:47 14-Sweet Talkin' Woman
DR6 -0.85 dB -7.59 dB 4:01 11-The Final Countdown
DR7 -0.02 dB -8.89 dB 3:31 02-Living After Midnight
DR7 -1.10 dB -9.51 dB 3:27 08-Carry On Wayward Son
DR8 -0.02 dB -9.66 dB 4:51 13-Bat Out Of Hell
DR9 -0.13 dB -11.88 dB 3:35 15-All The Young Dudes
DR9 -0.10 dB -11.38 dB 3:59 06-Black Betty
DR8 -0.11 dB -9.68 dB 4:48 12-Can't Fight This Feeling
DR9 -0.10 dB -10.86 dB 3:51 04-Burning Heart
DR8 -0.10 dB -8.91 dB 4:16 09-Satellite
DR7 -0.02 dB -9.04 dB 3:58 10-Hold The Line
––––––––––––––––––––––––––––––––––––––––

Number of tracks: 17
Official DR value: DR8

Samplerate: 44100 Hz
Channels: 2
Bits per sample: 16
Bitrate: 1042 kbps
Codec: FLAC
================================================================================


Exact Audio Copy V1.0 beta 3 from 29. August 2011

EAC extraction logfile from 24. August 2015, 17:54

Various Artists / Ultimate… Rock - Disc2

Used drive : Optiarc DVD RW AD-7241S Adapter: 5 ID: 1

Read mode : Secure
Utilize accurate stream : Yes
Defeat audio cache : Yes
Make use of C2 pointers : No

Read offset correction : 48
Overread into Lead-In and Lead-Out : No
Fill up missing offset samples with silence : Yes
Delete leading and trailing silent blocks : No
Null samples used in CRC calculations : Yes
Used interface : Native Win32 interface for Win NT & 2000
Gap handling : Appended to previous track

Used output format : User Defined Encoder
Selected bitrate : 1024 kBit/s
Quality : High
Add ID3 tag : No
Command line compressor : C:\Program Files\EAC1.3\Flac\flac.exe
Additional command line options : -8 -V -T "ARTIST=%artist%" -T "TITLE=%title%" -T "ALBUM=%albumtitle%" -T "DATE=%year%" -T "TRACKNUMBER=%tracknr%" -T "TOTALTRACKS=%numtracks%" -T "GENRE=%genre%" -T "ALBUMARTIST=%albumartist%" -T "ALBUM ARTIST=%albumartist%" -T "COMMENT=EAC Secure Mode, Test & Copy, AccurateRip, FLAC -8" %source%


TOC of the extracted CD

Track | Start | Length | Start sector | End sector
––––––––––––––––––––––––––––-
1 | 0:00.00 | 4:04.15 | 0 | 18314
2 | 4:04.15 | 3:19.16 | 18315 | 33255
3 | 7:23.31 | 3:10.65 | 33256 | 47570
4 | 10:34.21 | 3:32.12 | 47571 | 63482
5 | 14:06.33 | 2:53.39 | 63483 | 76496
6 | 16:59.72 | 2:54.02 | 76497 | 89548
7 | 19:53.74 | 4:35.17 | 89549 | 110190
8 | 24:29.16 | 4:27.71 | 110191 | 130286
9 | 28:57.12 | 3:37.13 | 130287 | 146574
10 | 32:34.25 | 3:36.21 | 146575 | 162795
11 | 36:10.46 | 3:02.06 | 162796 | 176451
12 | 39:12.52 | 2:26.04 | 176452 | 187405
13 | 41:38.56 | 4:13.39 | 187406 | 206419
14 | 45:52.20 | 4:24.08 | 206420 | 226227
15 | 50:16.28 | 4:35.54 | 226228 | 246906
16 | 54:52.07 | 4:29.52 | 246907 | 267133
17 | 59:21.59 | 3:03.06 | 267134 | 280864
18 | 62:24.65 | 3:25.29 | 280865 | 296268


Track 1

Filename C:\EACcd\01 - Wheatus - Teenage Dirtbag.wav

Pre-gap length 0:00:02.00

Peak level 98.8 %
Extraction speed 2.4 X
Track quality 100.0 %
Test CRC 0862C5CB
Copy CRC 0862C5CB
Track not present in AccurateRip database
Copy OK

Track 2

Filename C:\EACcd\02 - Bowling For Soup - Girl All The Bad Guys Want.wav

Pre-gap length 0:00:01.58

Peak level 99.7 %
Extraction speed 2.2 X
Track quality 99.9 %
Test CRC 33C705A6
Copy CRC 33C705A6
Track not present in AccurateRip database
Copy OK

Track 3

Filename C:\EACcd\03 - Good Charlotte - Lifestyles Of The Rich & Famous.wav

Pre-gap length 0:00:01.58

Peak level 96.6 %
Extraction speed 2.4 X
Track quality 99.9 %
Test CRC 314E21B0
Copy CRC 314E21B0
Track not present in AccurateRip database
Copy OK

Track 4

Filename C:\EACcd\04 - System Of A Down - Chop Suey!.wav

Pre-gap length 0:00:01.58

Peak level 99.7 %
Extraction speed 2.6 X
Track quality 99.9 %
Test CRC 557E424F
Copy CRC 557E424F
Track not present in AccurateRip database
Copy OK

Track 5

Filename C:\EACcd\05 - Korn - Word Up!.wav

Pre-gap length 0:00:01.58

Peak level 99.7 %
Extraction speed 3.0 X
Track quality 100.0 %
Test CRC CE1F29F7
Copy CRC CE1F29F7
Track not present in AccurateRip database
Copy OK

Track 6

Filename C:\EACcd\06 - 311 - Down.wav

Pre-gap length 0:00:01.58

Peak level 96.6 %
Extraction speed 3.2 X
Track quality 100.0 %
Test CRC 49163943
Copy CRC 49163943
Track not present in AccurateRip database
Copy OK

Track 7

Filename C:\EACcd\07 - Screaming Trees - Dollar Bill.wav

Pre-gap length 0:00:01.58

Peak level 96.6 %
Extraction speed 3.2 X
Track quality 99.9 %
Test CRC 5FBD28D5
Copy CRC 5FBD28D5
Track not present in AccurateRip database
Copy OK

Track 8

Filename C:\EACcd\08 - Soul Asylum - Runaway Train.wav

Pre-gap length 0:00:01.58

Peak level 98.8 %
Extraction speed 3.7 X
Track quality 100.0 %
Test CRC C3289616
Copy CRC C3289616
Track not present in AccurateRip database
Copy OK

Track 9

Filename C:\EACcd\09 - Manic Street Preachers - Motorcycle Emptiness.wav

Pre-gap length 0:00:01.58

Peak level 98.8 %
Extraction speed 3.8 X
Track quality 100.0 %
Test CRC 6E710CF1
Copy CRC 6E710CF1
Track not present in AccurateRip database
Copy OK

Track 10

Filename C:\EACcd\10 - Primal Scream - Rocks.wav

Pre-gap length 0:00:01.58

Peak level 97.7 %
Extraction speed 4.0 X
Track quality 100.0 %
Test CRC 42339C9E
Copy CRC 42339C9E
Track not present in AccurateRip database
Copy OK

Track 11

Filename C:\EACcd\11 - The Only Ones - Another Girl Another Planet.wav

Pre-gap length 0:00:01.58

Peak level 99.7 %
Extraction speed 4.0 X
Track quality 100.0 %
Test CRC E49EE3C7
Copy CRC E49EE3C7
Track not present in AccurateRip database
Copy OK

Track 12

Filename C:\EACcd\12 - The Stranglers - All Day And All Of The Night.wav

Pre-gap length 0:00:01.58

Peak level 87.9 %
Extraction speed 3.3 X
Track quality 99.9 %
Test CRC 0A7D6DBC
Copy CRC 0A7D6DBC
Track not present in AccurateRip database
Copy OK

Track 13

Filename C:\EACcd\13 - Kasabian - Fire.wav

Pre-gap length 0:00:01.34

Peak level 98.8 %
Extraction speed 4.4 X
Track quality 100.0 %
Test CRC CC7EC531
Copy CRC CC7EC531
Track not present in AccurateRip database
Copy OK

Track 14

Filename C:\EACcd\14 - The Fray - How To Save A Life.wav

Pre-gap length 0:00:01.58

Peak level 99.7 %
Extraction speed 4.6 X
Track quality 100.0 %
Test CRC 26697588
Copy CRC 26697588
Track not present in AccurateRip database
Copy OK

Track 15

Filename C:\EACcd\15 - Jeff Buckley - Last Goodbye.wav

Pre-gap length 0:00:01.58

Peak level 98.8 %
Extraction speed 4.8 X
Track quality 100.0 %
Test CRC A2A9EF75
Copy CRC A2A9EF75
Track not present in AccurateRip database
Copy OK

Track 16

Filename C:\EACcd\16 - John Mayer - Heartbreak Warfare.wav

Pre-gap length 0:00:01.58

Peak level 99.7 %
Extraction speed 4.9 X
Track quality 100.0 %
Test CRC A9EC8D67
Copy CRC A9EC8D67
Track not present in AccurateRip database
Copy OK

Track 17

Filename C:\EACcd\17 - JJ Cale - Hold On Baby.wav

Pre-gap length 0:00:01.58

Peak level 98.5 %
Extraction speed 4.7 X
Track quality 100.0 %
Test CRC 91A83F2A
Copy CRC 91A83F2A
Track not present in AccurateRip database
Copy OK

Track 18

Filename C:\EACcd\18 - Albert Hammond - The Free Electric Band.wav

Pre-gap length 0:00:01.58

Peak level 99.7 %
Extraction speed 5.0 X
Track quality 100.0 %
Test CRC B17C8FCB
Copy CRC B17C8FCB
Track not present in AccurateRip database
Copy OK


None of the tracks are present in the AccurateRip database

No errors occurred

End of status report

–– CUETools DB Plugin V2.1.3

[CTDB TOCID: k7Dbm_HZTU2I2otRAE060eIjxnM-] found, Submit result: k7Dbm_HZTU2I2otRAE060eIjxnM- has been confirmed
[05c68fcf] (2/2) Accurately ripped


==== Log checksum 3982737209FAAD2744CD553EA6BE225E69DC4838AF2B41184836E261B2792878 ====

foobar2000 1.2 / Dynamic Range Meter 1.1.1
log date: 2015-08-27 19:17:14

––––––––––––––––––––––––––––––––––––––––
Analyzed: 311 / Ultimate… Rock - Disc2 (1)
Albert Hammond / Ultimate… Rock - Disc2 (2)
Bowling For Soup / Ultimate… Rock - Disc2 (3)
Good Charlotte / Ultimate… Rock - Disc2 (4)
Jeff Buckley / Ultimate… Rock - Disc2 (5)
JJ Cale / Ultimate… Rock - Disc2 (6)
John Mayer / Ultimate… Rock - Disc2 (7)
Kasabian / Ultimate… Rock - Disc2 (8)
Korn / Ultimate… Rock - Disc2 (9)
Manic Street Preachers / Ultimate… Rock - Disc2 (10)
Primal Scream / Ultimate… Rock - Disc2 (11)
Screaming Trees / Ultimate… Rock - Disc2 (12)
Soul Asylum / Ultimate… Rock - Disc2 (13)
System Of A Down / Ultimate… Rock - Disc2 (14)
The Fray / Ultimate… Rock - Disc2 (15)
The Only Ones / Ultimate… Rock - Disc2 (16)
The Stranglers / Ultimate… Rock - Disc2 (17)
Wheatus / Ultimate… Rock - Disc2 (18)
––––––––––––––––––––––––––––––––––––––––

DR Peak RMS Duration Track
––––––––––––––––––––––––––––––––––––––––
DR8 -0.30 dB -9.52 dB 2:54 06-Down
DR10 -0.02 dB -11.02 dB 3:25 18-The Free Electric Band
DR6 -0.02 dB -7.16 dB 3:19 02-Girl All The Bad Guys Want
DR6 -0.30 dB -8.46 dB 3:11 03-Lifestyles Of The Rich & Famous
DR8 -0.10 dB -10.13 dB 4:36 15-Last Goodbye
DR9 -0.12 dB -10.75 dB 3:03 17-Hold On Baby
DR6 -0.02 dB -7.66 dB 4:30 16-Heartbreak Warfare
DR5 -0.10 dB -8.04 dB 4:14 13-Fire
DR6 -0.02 dB -7.60 dB 2:54 05-Word Up!
DR8 -0.10 dB -8.97 dB 3:37 09-Motorcycle Emptiness
DR7 -0.20 dB -8.47 dB 3:36 10-Rocks
DR6 -0.30 dB -8.52 dB 4:35 07-Dollar Bill
DR8 -0.10 dB -9.34 dB 4:28 08-Runaway Train
DR7 -0.02 dB -8.95 dB 3:32 04-Chop Suey!
DR5 -0.02 dB -7.20 dB 4:24 14-How To Save A Life
DR7 -0.02 dB -8.93 dB 3:02 11-Another Girl Another Planet
DR7 -1.11 dB -9.79 dB 2:26 12-All Day And All Of The Night
DR6 -0.10 dB -9.10 dB 4:04 01-Teenage Dirtbag
––––––––––––––––––––––––––––––––––––––––

Number of tracks: 18
Official DR value: DR7

Samplerate: 44100 Hz
Channels: 2
Bits per sample: 16
Bitrate: 1016 kbps
Codec: FLAC
================================================================================


Exact Audio Copy V1.0 beta 3 from 29. August 2011

EAC extraction logfile from 24. August 2015, 18:38

Various Artists / Ultimate… Rock - Disc3

Used drive : Optiarc DVD RW AD-7241S Adapter: 5 ID: 1

Read mode : Secure
Utilize accurate stream : Yes
Defeat audio cache : Yes
Make use of C2 pointers : No

Read offset correction : 48
Overread into Lead-In and Lead-Out : No
Fill up missing offset samples with silence : Yes
Delete leading and trailing silent blocks : No
Null samples used in CRC calculations : Yes
Used interface : Native Win32 interface for Win NT & 2000
Gap handling : Appended to previous track

Used output format : User Defined Encoder
Selected bitrate : 1024 kBit/s
Quality : High
Add ID3 tag : No
Command line compressor : C:\Program Files\EAC1.3\Flac\flac.exe
Additional command line options : -8 -V -T "ARTIST=%artist%" -T "TITLE=%title%" -T "ALBUM=%albumtitle%" -T "DATE=%year%" -T "TRACKNUMBER=%tracknr%" -T "TOTALTRACKS=%numtracks%" -T "GENRE=%genre%" -T "ALBUMARTIST=%albumartist%" -T "ALBUM ARTIST=%albumartist%" -T "COMMENT=EAC Secure Mode, Test & Copy, AccurateRip, FLAC -8" %source%


TOC of the extracted CD

Track | Start | Length | Start sector | End sector
––––––––––––––––––––––––––––-
1 | 0:00.00 | 3:23.09 | 0 | 15233
2 | 3:23.09 | 4:21.17 | 15234 | 34825
3 | 7:44.26 | 5:10.04 | 34826 | 58079
4 | 12:54.30 | 4:20.65 | 58080 | 77644
5 | 17:15.20 | 3:36.68 | 77645 | 93912
6 | 20:52.13 | 4:12.27 | 93913 | 112839
7 | 25:04.40 | 3:39.51 | 112840 | 129315
8 | 28:44.16 | 4:31.50 | 129316 | 149690
9 | 33:15.66 | 3:53.09 | 149691 | 167174
10 | 37:09.00 | 3:18.52 | 167175 | 182076
11 | 40:27.52 | 5:18.26 | 182077 | 205952
12 | 45:46.03 | 4:18.24 | 205953 | 225326
13 | 50:04.27 | 4:01.73 | 225327 | 243474
14 | 54:06.25 | 4:01.61 | 243475 | 261610
15 | 58:08.11 | 3:24.34 | 261611 | 276944
16 | 61:32.45 | 3:38.28 | 276945 | 293322
17 | 65:10.73 | 3:24.06 | 293323 | 308628
18 | 68:35.04 | 4:25.40 | 308629 | 328543
19 | 73:00.44 | 4:37.49 | 328544 | 349367


Track 1

Filename C:\EACcd\01 - Patti Smith Group - Because The Night.wav

Pre-gap length 0:00:02.00

Peak level 98.5 %
Extraction speed 2.4 X
Track quality 100.0 %
Test CRC C5FF65DE
Copy CRC C5FF65DE
Track not present in AccurateRip database
Copy OK

Track 2

Filename C:\EACcd\02 - Train - Drops Of Jupiter.wav

Pre-gap length 0:00:01.58

Peak level 99.7 %
Extraction speed 2.8 X
Track quality 100.0 %
Test CRC A5369C18
Copy CRC A5369C18
Track not present in AccurateRip database
Copy OK

Track 3

Filename C:\EACcd\03 - The Jeff Healey Band - While My Guitar Gently Weeps.wav

Pre-gap length 0:00:01.58

Peak level 96.4 %
Extraction speed 2.8 X
Track quality 99.9 %
Test CRC C89B1958
Copy CRC C89B1958
Track not present in AccurateRip database
Copy OK

Track 4

Filename C:\EACcd\04 - Living Colour - Love Rears Its Ugly Head.wav

Pre-gap length 0:00:01.58

Peak level 90.9 %
Extraction speed 3.3 X
Track quality 100.0 %
Test CRC D0E71CC2
Copy CRC D0E71CC2
Track not present in AccurateRip database
Copy OK

Track 5

Filename C:\EACcd\05 - Kenny Loggins - Danger Zone.wav

Pre-gap length 0:00:01.58

Peak level 99.7 %
Extraction speed 3.4 X
Track quality 100.0 %
Test CRC BD0AC68D
Copy CRC BD0AC68D
Track not present in AccurateRip database
Copy OK

Track 6

Filename C:\EACcd\06 - Cheap Trick - Surrender.wav

Pre-gap length 0:00:01.58

Peak level 99.7 %
Extraction speed 3.7 X
Track quality 100.0 %
Test CRC 5E7C6FA7
Copy CRC 5E7C6FA7
Track not present in AccurateRip database
Copy OK

Track 7

Filename C:\EACcd\07 - Ted Nugent - Cat Scratch Fever.wav

Pre-gap length 0:00:01.58

Peak level 90.7 %
Extraction speed 3.7 X
Track quality 100.0 %
Test CRC CE99A449
Copy CRC CE99A449
Track not present in AccurateRip database
Copy OK

Track 8

Filename C:\EACcd\08 - Motorhead - Hellraiser.wav

Pre-gap length 0:00:01.58

Peak level 98.5 %
Extraction speed 4.0 X
Track quality 100.0 %
Test CRC 486C5277
Copy CRC 486C5277
Track not present in AccurateRip database
Copy OK

Track 9

Filename C:\EACcd\09 - Ian Hunter - Once Bitten, Twice Shy.wav

Pre-gap length 0:00:01.58

Peak level 91.2 %
Extraction speed 4.1 X
Track quality 100.0 %
Test CRC 4782DAF2
Copy CRC 4782DAF2
Track not present in AccurateRip database
Copy OK

Track 10

Filename C:\EACcd\10 - Warrant - Cherry Pie.wav

Pre-gap length 0:00:01.58

Peak level 82.9 %
Extraction speed 4.2 X
Track quality 100.0 %
Test CRC 97CB58C6
Copy CRC 97CB58C6
Track not present in AccurateRip database
Copy OK

Track 11

Filename C:\EACcd\11 - Quiet Riot - Bang Your Head (Metal Health).wav

Pre-gap length 0:00:01.58

Peak level 98.4 %
Extraction speed 4.5 X
Track quality 100.0 %
Test CRC 9A10EA46
Copy CRC 9A10EA46
Track not present in AccurateRip database
Copy OK

Track 12

Filename C:\EACcd\12 - Bad English - When I See You Smile.wav

Pre-gap length 0:00:01.58

Peak level 99.7 %
Extraction speed 4.1 X
Track quality 99.9 %
Test CRC A6539F70
Copy CRC A6539F70
Track not present in AccurateRip database
Copy OK

Track 13

Filename C:\EACcd\13 - Firehouse - When I Look Into Your Eyes.wav

Pre-gap length 0:00:01.58

Peak level 99.7 %
Extraction speed 4.7 X
Track quality 100.0 %
Test CRC AEB54429
Copy CRC AEB54429
Track not present in AccurateRip database
Copy OK

Track 14

Filename C:\EACcd\14 - Lita Ford - Kiss Me Deadly.wav

Pre-gap length 0:00:01.58

Peak level 79.4 %
Extraction speed 4.8 X
Track quality 100.0 %
Test CRC CE5E3DD6
Copy CRC CE5E3DD6
Track not present in AccurateRip database
Copy OK

Track 15

Filename C:\EACcd\15 - Scorpions - Pictured Life.wav

Pre-gap length 0:00:01.58

Peak level 99.7 %
Extraction speed 4.8 X
Track quality 100.0 %
Test CRC D92BA873
Copy CRC D92BA873
Track not present in AccurateRip database
Copy OK

Track 16

Filename C:\EACcd\16 - The Outfield - Your Love.wav

Pre-gap length 0:00:01.58

Peak level 99.2 %
Extraction speed 5.0 X
Track quality 100.0 %
Test CRC 8D1EEDEB
Copy CRC 8D1EEDEB
Track not present in AccurateRip database
Copy OK

Track 17

Filename C:\EACcd\17 - Journey - Any Way You Want It.wav

Pre-gap length 0:00:01.58

Peak level 98.8 %
Extraction speed 5.0 X
Track quality 100.0 %
Test CRC 449AA3C6
Copy CRC 449AA3C6
Track not present in AccurateRip database
Copy OK

Track 18

Filename C:\EACcd\18 - Al Stewart - Carol.wav

Pre-gap length 0:00:01.58

Peak level 98.6 %
Extraction speed 5.3 X
Track quality 100.0 %
Test CRC 99897FDD
Copy CRC 99897FDD
Track not present in AccurateRip database
Copy OK

Track 19

Filename C:\EACcd\19 - The Alan Parsons Project - Eye In The Sky.wav

Pre-gap length 0:00:01.58

Peak level 99.7 %
Extraction speed 5.3 X
Track quality 100.0 %
Test CRC 861C51CC
Copy CRC 861C51CC
Track not present in AccurateRip database
Copy OK


None of the tracks are present in the AccurateRip database

No errors occurred

End of status report

–– CUETools DB Plugin V2.1.3

[CTDB TOCID: .vRl4V5EWf2.XWdHHVeihm5gjGg-] found, Submit result: .vRl4V5EWf2.XWdHHVeihm5gjGg- has been confirmed
[3b7386b9] (2/2) Accurately ripped


==== Log checksum 05FC2DFAEF4A9510216B51D218133FF519B9EEC5CADBC465A09F19625FA0A587 ====

foobar2000 1.2 / Dynamic Range Meter 1.1.1
log date: 2015-08-27 19:18:11

––––––––––––––––––––––––––––––––––––––––
Analyzed: Al Stewart / Ultimate… Rock - Disc3 (1)
Bad English / Ultimate… Rock - Disc3 (2)
Cheap Trick / Ultimate… Rock - Disc3 (3)
Firehouse / Ultimate… Rock - Disc3 (4)
Ian Hunter / Ultimate… Rock - Disc3 (5)
Journey / Ultimate… Rock - Disc3 (6)
Kenny Loggins / Ultimate… Rock - Disc3 (7)
Lita Ford / Ultimate… Rock - Disc3 (8)
Living Colour / Ultimate… Rock - Disc3 (9)
Motorhead / Ultimate… Rock - Disc3 (10)
Patti Smith Group / Ultimate… Rock - Disc3 (11)
Quiet Riot / Ultimate… Rock - Disc3 (12)
Scorpions / Ultimate… Rock - Disc3 (13)
Ted Nugent / Ultimate… Rock - Disc3 (14)
The Alan Parsons Project / Ultimate… Rock - Disc3 (15)
The Jeff Healey Band / Ultimate… Rock - Disc3 (16)
The Outfield / Ultimate… Rock - Disc3 (17)
Train / Ultimate… Rock - Disc3 (18)
Warrant / Ultimate… Rock - Disc3 (19)
––––––––––––––––––––––––––––––––––––––––

DR Peak RMS Duration Track
––––––––––––––––––––––––––––––––––––––––
DR9 -0.12 dB -10.78 dB 4:26 18-Carol
DR10 -0.02 dB -11.22 dB 4:18 12-When I See You Smile
DR8 -0.02 dB -8.97 dB 4:12 06-Surrender
DR8 -0.02 dB -10.02 dB 4:02 13-When I Look Into Your Eyes
DR7 -0.80 dB -10.38 dB 3:53 09-Once Bitten, Twice Shy
DR8 -0.10 dB -9.63 dB 3:24 17-Any Way You Want It
DR6 -0.02 dB -7.93 dB 3:37 05-Danger Zone
DR7 -2.00 dB -9.91 dB 4:02 14-Kiss Me Deadly
DR8 -0.83 dB -11.70 dB 4:21 04-Love Rears Its Ugly Head
DR9 -0.13 dB -10.02 dB 4:32 08-Hellraiser
DR9 -0.13 dB -10.74 dB 3:23 01-Because The Night
DR7 -0.14 dB -8.53 dB 5:18 11-Bang Your Head (Metal Health)
DR7 -0.02 dB -8.23 dB 3:24 15-Pictured Life
DR7 -0.84 dB -9.31 dB 3:40 07-Cat Scratch Fever
DR9 -0.02 dB -11.35 dB 4:38 19-Eye In The Sky
DR8 -0.31 dB -9.73 dB 5:10 03-While My Guitar Gently Weeps
DR7 -0.07 dB -9.29 dB 3:38 16-Your Love
DR7 -0.02 dB -9.31 dB 4:21 02-Drops Of Jupiter
DR6 -1.62 dB -9.46 dB 3:19 10-Cherry Pie
––––––––––––––––––––––––––––––––––––––––

Number of tracks: 19
Official DR value: DR8

Samplerate: 44100 Hz
Channels: 2
Bits per sample: 16
Bitrate: 1072 kbps
Codec: FLAC
================================================================================


Exact Audio Copy V1.0 beta 3 from 29. August 2011

EAC extraction logfile from 24. August 2015, 19:21

Various Artists / Ultimate… Rock - Disc4

Used drive : Optiarc DVD RW AD-7241S Adapter: 5 ID: 1

Read mode : Secure
Utilize accurate stream : Yes
Defeat audio cache : Yes
Make use of C2 pointers : No

Read offset correction : 48
Overread into Lead-In and Lead-Out : No
Fill up missing offset samples with silence : Yes
Delete leading and trailing silent blocks : No
Null samples used in CRC calculations : Yes
Used interface : Native Win32 interface for Win NT & 2000
Gap handling : Appended to previous track

Used output format : User Defined Encoder
Selected bitrate : 1024 kBit/s
Quality : High
Add ID3 tag : No
Command line compressor : C:\Program Files\EAC1.3\Flac\flac.exe
Additional command line options : -8 -V -T "ARTIST=%artist%" -T "TITLE=%title%" -T "ALBUM=%albumtitle%" -T "DATE=%year%" -T "TRACKNUMBER=%tracknr%" -T "TOTALTRACKS=%numtracks%" -T "GENRE=%genre%" -T "ALBUMARTIST=%albumartist%" -T "ALBUM ARTIST=%albumartist%" -T "COMMENT=EAC Secure Mode, Test & Copy, AccurateRip, FLAC -8" %source%


TOC of the extracted CD

Track | Start | Length | Start sector | End sector
––––––––––––––––––––––––––––-
1 | 0:00.00 | 3:20.67 | 0 | 15066
2 | 3:20.67 | 2:52.42 | 15067 | 28008
3 | 6:13.34 | 3:35.13 | 28009 | 44146
4 | 9:48.47 | 2:46.51 | 44147 | 56647
5 | 12:35.23 | 4:15.60 | 56648 | 75832
6 | 16:51.08 | 3:52.45 | 75833 | 93277
7 | 20:43.53 | 2:32.51 | 93278 | 104728
8 | 23:16.29 | 2:52.73 | 104729 | 117701
9 | 26:09.27 | 3:29.04 | 117702 | 133380
10 | 29:38.31 | 2:41.46 | 133381 | 145501
11 | 32:20.02 | 4:59.49 | 145502 | 167975
12 | 37:19.51 | 3:22.64 | 167976 | 183189
13 | 40:42.40 | 2:24.74 | 183190 | 194063
14 | 43:07.39 | 3:13.49 | 194064 | 208587
15 | 46:21.13 | 5:00.35 | 208588 | 231122
16 | 51:21.48 | 5:02.13 | 231123 | 253785
17 | 56:23.61 | 3:32.60 | 253786 | 269745
18 | 59:56.46 | 3:27.37 | 269746 | 285307


Track 1

Filename C:\EACcd\01 - Santana - She's Not There.wav

Pre-gap length 0:00:02.00

Peak level 99.7 %
Extraction speed 2.3 X
Track quality 100.0 %
Test CRC 0DC0F943
Copy CRC 0DC0F943
Track not present in AccurateRip database
Copy OK

Track 2

Filename C:\EACcd\02 - Fleetwood Mac - Black Magic Woman.wav

Pre-gap length 0:00:01.58

Peak level 98.7 %
Extraction speed 2.4 X
Track quality 100.0 %
Test CRC 26D05EA9
Copy CRC 26D05EA9
Track not present in AccurateRip database
Copy OK

Track 3

Filename C:\EACcd\03 - The Gun - Race With The Devil.wav

Pre-gap length 0:00:01.58

Peak level 99.7 %
Extraction speed 2.7 X
Track quality 100.0 %
Test CRC 15552686
Copy CRC 15552686
Track not present in AccurateRip database
Copy OK

Track 4

Filename C:\EACcd\04 - Redbone - The Witch Queen Of New Orleans.wav

Pre-gap length 0:00:01.58

Peak level 98.7 %
Extraction speed 2.7 X
Track quality 100.0 %
Test CRC 47D512C2
Copy CRC 47D512C2
Track not present in AccurateRip database
Copy OK

Track 5

Filename C:\EACcd\05 - Big Brother & The Holding Company - Piece Of My Heart.wav

Peak level 99.7 %
Extraction speed 3.1 X
Track quality 100.0 %
Test CRC C26F9B9F
Copy CRC C26F9B9F
Track not present in AccurateRip database
Copy OK

Track 6

Filename C:\EACcd\06 - The Guess Who - American Woman.wav

Pre-gap length 0:00:01.58

Peak level 98.8 %
Extraction speed 3.3 X
Track quality 100.0 %
Test CRC 32437A0F
Copy CRC 32437A0F
Track not present in AccurateRip database
Copy OK

Track 7

Filename C:\EACcd\07 - Mountain - Mississippi Queen.wav

Pre-gap length 0:00:01.58

Peak level 98.5 %
Extraction speed 3.2 X
Track quality 100.0 %
Test CRC 52291642
Copy CRC 52291642
Track not present in AccurateRip database
Copy OK

Track 8

Filename C:\EACcd\08 - Flamin' Groovies - Teenage Head.wav

Pre-gap length 0:00:01.58

Peak level 87.0 %
Extraction speed 2.9 X
Track quality 99.9 %
Test CRC DB2A5B5C
Copy CRC DB2A5B5C
Track not present in AccurateRip database
Copy OK

Track 9

Filename C:\EACcd\09 - Heart - Barracuda.wav

Pre-gap length 0:00:01.58

Peak level 99.7 %
Extraction speed 3.7 X
Track quality 100.0 %
Test CRC AAA1F623
Copy CRC AAA1F623
Track not present in AccurateRip database
Copy OK

Track 10

Filename C:\EACcd\10 - Spirit - I Got A Line On You.wav

Pre-gap length 0:00:01.58

Peak level 99.7 %
Extraction speed 3.6 X
Track quality 100.0 %
Test CRC A768D8D2
Copy CRC A768D8D2
Track not present in AccurateRip database
Copy OK

Track 11

Filename C:\EACcd\11 - Molly Hatchet - Flirtin' With Disaster.wav

Pre-gap length 0:00:01.58

Peak level 99.7 %
Extraction speed 4.0 X
Track quality 100.0 %
Test CRC 26DCB17A
Copy CRC 26DCB17A
Track not present in AccurateRip database
Copy OK

Track 12

Filename C:\EACcd\12 - The Fabulous Thunderbirds - Tuff Enuff.wav

Pre-gap length 0:00:01.58

Peak level 98.8 %
Extraction speed 3.5 X
Track quality 99.9 %
Test CRC C6B2323A
Copy CRC C6B2323A
Track not present in AccurateRip database
Copy OK

Track 13

Filename C:\EACcd\13 - Stevie Ray Vaughan & Double Trouble - The House Is Rockin'.wav

Pre-gap length 0:00:01.58

Peak level 93.3 %
Extraction speed 3.9 X
Track quality 100.0 %
Test CRC B1386A55
Copy CRC B1386A55
Track not present in AccurateRip database
Copy OK

Track 14

Filename C:\EACcd\14 - Joe Satriani - Satch Boogie.wav

Pre-gap length 0:00:01.58

Peak level 98.5 %
Extraction speed 4.3 X
Track quality 100.0 %
Test CRC 0721B388
Copy CRC 0721B388
Track not present in AccurateRip database
Copy OK

Track 15

Filename C:\EACcd\15 - Jeff Beck - Freeway Jam.wav

Pre-gap length 0:00:01.58

Peak level 99.7 %
Extraction speed 4.2 X
Track quality 99.9 %
Test CRC 1919405B
Copy CRC 1919405B
Track not present in AccurateRip database
Copy OK

Track 16

Filename C:\EACcd\16 - Steve Vai - Tender Surrender.wav

Pre-gap length 0:00:01.51

Peak level 98.6 %
Extraction speed 4.9 X
Track quality 100.0 %
Test CRC 7C168969
Copy CRC 7C168969
Track not present in AccurateRip database
Copy OK

Track 17

Filename C:\EACcd\17 - Johnny Winter - Rock And Roll, Hoochie Koo.wav

Pre-gap length 0:00:00.71

Peak level 99.7 %
Extraction speed 4.1 X
Track quality 99.9 %
Test CRC D189C805
Copy CRC D189C805
Track not present in AccurateRip database
Copy OK

Track 18

Filename C:\EACcd\18 - The Edgar Winter Group - Frankenstein.wav

Pre-gap length 0:00:01.58

Peak level 99.1 %
Extraction speed 4.2 X
Track quality 99.9 %
Test CRC A0C60EB1
Copy CRC A0C60EB1
Track not present in AccurateRip database
Copy OK


None of the tracks are present in the AccurateRip database

No errors occurred

End of status report

–– CUETools DB Plugin V2.1.3

[CTDB TOCID: 55CMWlZVIU3BVQ2II84otV3k4iE-] found, Submit result: 55CMWlZVIU3BVQ2II84otV3k4iE- has been confirmed
[73f14ff6] (2/2) Accurately ripped


==== Log checksum 96828400484E9E3DDF8DBA073AFF5735497CD47F924AF743AA405C68EBCB56F0 ====

foobar2000 1.2 / Dynamic Range Meter 1.1.1
log date: 2015-08-27 19:19:03

––––––––––––––––––––––––––––––––––––––––
Analyzed: Big Brother & The Holding Company / Ultimate… Rock - Disc4 (1)
Flamin' Groovies / Ultimate… Rock - Disc4 (2)
Fleetwood Mac / Ultimate… Rock - Disc4 (3)
Heart / Ultimate… Rock - Disc4 (4)
Jeff Beck / Ultimate… Rock - Disc4 (5)
Joe Satriani / Ultimate… Rock - Disc4 (6)
Johnny Winter / Ultimate… Rock - Disc4 (7)
Molly Hatchet / Ultimate… Rock - Disc4 (8)
Mountain / Ultimate… Rock - Disc4 (9)
Redbone / Ultimate… Rock - Disc4 (10)
Santana / Ultimate… Rock - Disc4 (11)
Spirit / Ultimate… Rock - Disc4 (12)
Steve Vai / Ultimate… Rock - Disc4 (13)
Stevie Ray Vaughan & Double Trouble / Ultimate… Rock - Disc4 (14)
The Edgar Winter Group / Ultimate… Rock - Disc4 (15)
The Fabulous Thunderbirds / Ultimate… Rock - Disc4 (16)
The Guess Who / Ultimate… Rock - Disc4 (17)
The Gun / Ultimate… Rock - Disc4 (18)
––––––––––––––––––––––––––––––––––––––––

DR Peak RMS Duration Track
––––––––––––––––––––––––––––––––––––––––
DR10 -0.02 dB -11.62 dB 4:16 05-Piece Of My Heart
DR5 -1.20 dB -7.01 dB 2:53 08-Teenage Head
DR9 -0.11 dB -11.02 dB 2:53 02-Black Magic Woman
DR7 -0.02 dB -7.67 dB 3:29 09-Barracuda
DR8 -0.02 dB -9.90 dB 5:00 15-Freeway Jam
DR8 -0.12 dB -10.02 dB 3:14 14-Satch Boogie
DR9 -0.02 dB -10.05 dB 3:33 17-Rock And Roll, Hoochie Koo
DR6 -0.02 dB -7.52 dB 5:00 11-Flirtin' With Disaster
DR8 -0.13 dB -9.68 dB 2:33 07-Mississippi Queen
DR10 -0.11 dB -11.35 dB 2:47 04-The Witch Queen Of New Orleans
DR7 -0.02 dB -9.85 dB 3:21 01-She's Not There
DR8 -0.02 dB -9.90 dB 2:42 10-I Got A Line On You
DR9 -0.12 dB -11.29 dB 5:02 16-Tender Surrender
DR7 -0.59 dB -8.81 dB 2:25 13-The House Is Rockin'
DR8 -0.07 dB -9.93 dB 3:27 18-Frankenstein
DR8 -0.10 dB -9.67 dB 3:23 12-Tuff Enuff
DR8 -0.10 dB -8.72 dB 3:53 06-American Woman
DR7 -0.02 dB -8.83 dB 3:35 03-Race With The Devil
––––––––––––––––––––––––––––––––––––––––

Number of tracks: 18
Official DR value: DR8

Samplerate: 44100 Hz
Channels: 2
Bits per sample: 16
Bitrate: 959 kbps
Codec: FLAC
================================================================================

VA - Ultimate ROCK: 4CDs Of Great Rock Music (2015) [Re-Up]

All thanks to original releaser

More interesting music in My Blog