Subcategories
Tags
Language
Tags

Banco De Gaia - 10 Years (2002)

Posted By: gribovar
Banco De Gaia - 10 Years (2002)

Banco De Gaia - 10 Years (2002)
EAC Rip | FLAC (tracks+.cue+log) - 1,01 GB | MP3 CBR 320 kbps (LAME 3.93) - 371 MB | Covers (4 MB) included
Genre: Downtempo, World, Dub, Ambient, Techno | RAR 3% Rec. | Label: Disco Gecko (GKOCD004)

This compilation of work from the decade by Banco de Gaia (aka Toby Marks) not only shows off his best work in a setting that's a continuous mix, but also makes one of the strongest cases yet for electronica as the new prog rock. It might not have the complex time signatures or rampant instrumental virtuosity of an earlier era, but it does offer far more than most rock music, with depth, ingenuity, and a tune that - generally - progress from A to B, and in the best cases, to C and beyond. And Marks frequently offers the very best cases, not just on pieces like the excellent "Last Train to Lsaha" or "887," but also on "Gizeh" and "Mafich Arabi." You can trace the development in his work, from the early post-rave material to the more thoughtful, ethnic-influenced work, which is ultimately more satisfying. An interesting selection of tracks, not only from his own albums, but single remixes and other compilations, making for a more complete portrait of the artist as a young man.
CD 1 Tracklist:
01. Heliopolis (Redwood Mix)
02. Kincajou
03. Drippy
04. Last Train To Lhasa
05. How Much Reality Can You Take? (Jack Dangers Mix)
06. I Love Baby Cheesy (Skippy Mix)
07. Obsidian
08. Mafich Arabi
09. Sakarya
10. Drunk As A Monk
11. Data Inadequate

Total time: 01:17:57

CD 2 Tracklist:
01. Desert Wind
02. Celestine
03. Shanti (Black Mountain Mix)
04. Sinhala
05. 887 (Structure)
06. Gizeh
07. Touching The Void
08. Amber (Insect Intelligence)

Total time: 01:17:57

Exact Audio Copy V1.1 from 23. June 2015

EAC extraction logfile from 14. December 2016, 0:11

Banco de Gaia / 10 Years (CD1)

Used drive : SONY CD-RW CRX195E1 Adapter: 1 ID: 1

Read mode : Secure
Utilize accurate stream : Yes
Defeat audio cache : Yes
Make use of C2 pointers : No

Read offset correction : 12
Overread into Lead-In and Lead-Out : No
Fill up missing offset samples with silence : Yes
Delete leading and trailing silent blocks : No
Null samples used in CRC calculations : Yes
Used interface : Native Win32 interface for Win NT & 2000
Gap handling : Appended to previous track

Used output format : User Defined Encoder
Selected bitrate : 1024 kBit/s
Quality : High
Add ID3 tag : No
Command line compressor : C:\Program Files (x86)\Exact Audio Copy\Flac\flac.exe
Additional command line options : -8 -V -T "ARTIST=%artist%" -T "TITLE=%title%" -T "ALBUM=%albumtitle%" -T "DATE=%year%" -T "TRACKNUMBER=%tracknr%" -T "GENRE=%genre%" -T "PERFORMER=%albuminterpret%" -T "COMPOSER=%composer%" %haslyrics%–tag-from-file=LYRICS="%lyricsfile%"%haslyrics% -T "ALBUMARTIST=%albumartist%" -T "DISCNUMBER=%cdnumber%" -T "TOTALDISCS=%totalcds%" -T "TOTALTRACKS=%numtracks%" -T "COMMENT=%comment%" %source% -o %dest%


TOC of the extracted CD

Track | Start | Length | Start sector | End sector
––––––––––––––––––––––––––––-
1 | 0:00.00 | 6:15.01 | 0 | 28125
2 | 6:15.01 | 6:13.34 | 28126 | 56134
3 | 12:28.35 | 6:49.22 | 56135 | 86831
4 | 19:17.57 | 11:13.55 | 86832 | 137361
5 | 30:31.37 | 5:33.32 | 137362 | 162368
6 | 36:04.69 | 5:33.58 | 162369 | 187401
7 | 41:38.52 | 7:04.06 | 187402 | 219207
8 | 48:42.58 | 7:41.65 | 219208 | 253847
9 | 56:24.48 | 5:39.07 | 253848 | 279279
10 | 62:03.55 | 8:22.27 | 279280 | 316956
11 | 70:26.07 | 7:31.03 | 316957 | 350784


Track 1

Filename C:\EAC Rips\Banco de Gaia - 10 Years (CD1) (2002) [FLAC]\01 - Heliopolis (Redwood Mix).wav

Pre-gap length 0:00:02.00

Peak level 99.9 %
Extraction speed 5.1 X
Track quality 100.0 %
Test CRC 7E577779
Copy CRC 7E577779
Accurately ripped (confidence 17) [6B8A2878] (AR v2)
Copy OK

Track 2

Filename C:\EAC Rips\Banco de Gaia - 10 Years (CD1) (2002) [FLAC]\02 - Kincajou.wav

Peak level 99.9 %
Extraction speed 5.6 X
Track quality 99.9 %
Test CRC FB4A92C9
Copy CRC FB4A92C9
Accurately ripped (confidence 17) [177D8B3B] (AR v2)
Copy OK

Track 3

Filename C:\EAC Rips\Banco de Gaia - 10 Years (CD1) (2002) [FLAC]\03 - Drippy.wav

Peak level 99.9 %
Extraction speed 5.9 X
Track quality 100.0 %
Test CRC 4521CC16
Copy CRC 4521CC16
Accurately ripped (confidence 17) [A2853B08] (AR v2)
Copy OK

Track 4

Filename C:\EAC Rips\Banco de Gaia - 10 Years (CD1) (2002) [FLAC]\04 - Last Train To Lhasa.wav

Peak level 99.9 %
Extraction speed 6.0 X
Track quality 100.0 %
Test CRC 1F38C0AB
Copy CRC 1F38C0AB
Accurately ripped (confidence 17) [6D789162] (AR v2)
Copy OK

Track 5

Filename C:\EAC Rips\Banco de Gaia - 10 Years (CD1) (2002) [FLAC]\05 - How Much Reality Can You Take (Jack Dangers Mix).wav

Peak level 99.9 %
Extraction speed 6.0 X
Track quality 100.0 %
Test CRC 61B66F82
Copy CRC 61B66F82
Accurately ripped (confidence 17) [45EEB265] (AR v2)
Copy OK

Track 6

Filename C:\EAC Rips\Banco de Gaia - 10 Years (CD1) (2002) [FLAC]\06 - I Love Baby Cheesy (Skippy Mix).wav

Peak level 99.9 %
Extraction speed 6.0 X
Track quality 100.0 %
Test CRC 925C5114
Copy CRC 925C5114
Accurately ripped (confidence 17) [23E0FF14] (AR v2)
Copy OK

Track 7

Filename C:\EAC Rips\Banco de Gaia - 10 Years (CD1) (2002) [FLAC]\07 - Obsidian.wav

Peak level 99.6 %
Extraction speed 5.9 X
Track quality 100.0 %
Test CRC 98F9E381
Copy CRC 98F9E381
Accurately ripped (confidence 16) [B4584789] (AR v2)
Copy OK

Track 8

Filename C:\EAC Rips\Banco de Gaia - 10 Years (CD1) (2002) [FLAC]\08 - Mafich Arabi.wav

Peak level 99.9 %
Extraction speed 5.7 X
Track quality 100.0 %
Test CRC 6FEA8BF6
Copy CRC 6FEA8BF6
Accurately ripped (confidence 17) [40F3A23B] (AR v2)
Copy OK

Track 9

Filename C:\EAC Rips\Banco de Gaia - 10 Years (CD1) (2002) [FLAC]\09 - Sakarya.wav

Peak level 99.9 %
Extraction speed 6.0 X
Track quality 100.0 %
Test CRC 11F200C5
Copy CRC 11F200C5
Accurately ripped (confidence 17) [ED6CC151] (AR v2)
Copy OK

Track 10

Filename C:\EAC Rips\Banco de Gaia - 10 Years (CD1) (2002) [FLAC]\10 - Drunk As A Monk.wav

Peak level 99.9 %
Extraction speed 6.0 X
Track quality 100.0 %
Test CRC BE8E7E3D
Copy CRC BE8E7E3D
Accurately ripped (confidence 16) [3E813294] (AR v2)
Copy OK

Track 11

Filename C:\EAC Rips\Banco de Gaia - 10 Years (CD1) (2002) [FLAC]\11 - Data Inadequate.wav

Peak level 99.9 %
Extraction speed 5.1 X
Track quality 100.0 %
Test CRC AB420BDB
Copy CRC AB420BDB
Accurately ripped (confidence 16) [1B295DFF] (AR v2)
Copy OK


All tracks accurately ripped

No errors occurred

End of status report

–– CUETools DB Plugin V2.1.6

[CTDB TOCID: XMCkCPoQnnW6qTiPifstCdbrie8-] found
Submit result: XMCkCPoQnnW6qTiPifstCdbrie8- has been confirmed
Track | CTDB Status
1 | (15/18) Accurately ripped
2 | (15/18) Accurately ripped
3 | (15/18) Accurately ripped
4 | (14/18) Accurately ripped
5 | (15/18) Accurately ripped
6 | (14/18) Accurately ripped
7 | (15/18) Accurately ripped
8 | (15/18) Accurately ripped
9 | (15/18) Accurately ripped
10 | (15/18) Accurately ripped
11 | (13/18) Accurately ripped, or (1/18) differs in 214 samples @07:22:54-07:22:55,07:23:01-07:23:02,07:23:24,07:25:09,07:29:74-07:30:00


==== Log checksum AAC8D13DE8DB5D8C7648DC3F7673F0E8FFF5EE6D636163C5991C39B863C51204 ====

[CUETools log; Date: 17.05.2021 12:17:16; Version: 2.1.4]
[CTDB TOCID: XMCkCPoQnnW6qTiPifstCdbrie8-] found.
Track | CTDB Status
1 | (38/48) Accurately ripped
2 | (38/48) Accurately ripped
3 | (38/48) Accurately ripped
4 | (37/48) Accurately ripped
5 | (38/48) Accurately ripped
6 | (37/48) Accurately ripped
7 | (38/48) Accurately ripped
8 | (38/48) Accurately ripped
9 | (38/48) Accurately ripped
10 | (38/48) Accurately ripped
11 | (36/48) Accurately ripped
[AccurateRip ID: 001fb660-0113c13b-9a12450b] found.
Track [ CRC | V2 ] Status
01 [ee39a39e|6b8a2878] (12+25/58) Accurately ripped
02 [a4215444|177d8b3b] (13+25/60) Accurately ripped
03 [65d25d1a|a2853b08] (13+25/61) Accurately ripped
04 [a6235a06|6d789162] (13+24/56) Accurately ripped
05 [5d02f475|45eeb265] (12+25/59) Accurately ripped
06 [92890420|23e0ff14] (12+25/59) Accurately ripped
07 [5091edd1|b4584789] (12+24/59) Accurately ripped
08 [c299b322|40f3a23b] (12+25/60) Accurately ripped
09 [a72732e1|ed6cc151] (12+25/59) Accurately ripped
10 [4e0353ae|3e813294] (13+24/58) Accurately ripped
11 [4f2878df|1b295dff] (12+23/54) Accurately ripped
Offsetted by -1322:
01 [754a2470] (04/58) Accurately ripped
02 [cacb86fa] (04/60) Accurately ripped
03 [32170ac5] (04/61) Accurately ripped
04 [d6d4ece0] (03/56) Accurately ripped
05 [f07c681e] (04/59) Accurately ripped
06 [335d506b] (04/59) Accurately ripped
07 [df24f063] (04/59) Accurately ripped
08 [aaff01fc] (04/60) Accurately ripped
09 [346b3f0d] (03/59) Accurately ripped
10 [1500f8fa] (03/58) Accurately ripped
11 [c5a6425c] (02/54) Accurately ripped
Offsetted by -664:
01 [fc29cb0b] (02/58) Accurately ripped
02 [b38933b1] (03/60) Accurately ripped
03 [681d52e2] (04/61) Accurately ripped
04 [033a9dc6] (00/56) No match (V2 was not tested)
05 [ecd1bc49] (02/59) Accurately ripped
06 [2f5c69f9] (02/59) Accurately ripped
07 [8ab30331] (03/59) Accurately ripped
08 [44d43dde] (03/60) Accurately ripped
09 [28380bae] (03/59) Accurately ripped
10 [e8fc3edf] (03/58) Accurately ripped
11 [d1a3fd95] (02/54) Accurately ripped

Track Peak [ CRC32 ] [W/O NULL] [ LOG ]
– 99,9 [6578CD12] [1BD9E02A]
01 99,9 [7E577779] [14FE9E0A] CRC32
02 99,9 [FB4A92C9] [7AAC6719] CRC32
03 99,9 [4521CC16] [43710AF2] CRC32
04 99,9 [1F38C0AB] [1CC48B39] CRC32
05 99,9 [61B66F82] [808AD49A] CRC32
06 99,9 [925C5114] [FF969C7E] CRC32
07 99,6 [98F9E381] [30F8AB6F] CRC32
08 99,9 [6FEA8BF6] [EACEF553] CRC32
09 99,9 [11F200C5] [14D7910C] CRC32
10 99,9 [BE8E7E3D] [7A215445] CRC32
11 99,9 [AB420BDB] [3AEC7C1D] CRC32

Exact Audio Copy V1.1 from 23. June 2015

EAC extraction logfile from 14. December 2016, 1:54

Banco de Gaia / 10 Years (CD2)

Used drive : HL-DT-STDVD-ROM DTA0N Adapter: 1 ID: 0

Read mode : Secure
Utilize accurate stream : Yes
Defeat audio cache : Yes
Make use of C2 pointers : No

Read offset correction : 102
Overread into Lead-In and Lead-Out : No
Fill up missing offset samples with silence : Yes
Delete leading and trailing silent blocks : No
Null samples used in CRC calculations : Yes
Used interface : Native Win32 interface for Win NT & 2000
Gap handling : Appended to previous track

Used output format : User Defined Encoder
Selected bitrate : 1024 kBit/s
Quality : High
Add ID3 tag : No
Command line compressor : C:\Program Files (x86)\Exact Audio Copy\Flac\flac.exe
Additional command line options : -8 -V -T "ARTIST=%artist%" -T "TITLE=%title%" -T "ALBUM=%albumtitle%" -T "DATE=%year%" -T "TRACKNUMBER=%tracknr%" -T "GENRE=%genre%" -T "PERFORMER=%albuminterpret%" -T "COMPOSER=%composer%" %haslyrics%–tag-from-file=LYRICS="%lyricsfile%"%haslyrics% -T "ALBUMARTIST=%albumartist%" -T "DISCNUMBER=%cdnumber%" -T "TOTALDISCS=%totalcds%" -T "TOTALTRACKS=%numtracks%" -T "COMMENT=%comment%" %source% -o %dest%


TOC of the extracted CD

Track | Start | Length | Start sector | End sector
––––––––––––––––––––––––––––-
1 | 0:00.00 | 7:46.15 | 0 | 34964
2 | 7:46.15 | 12:12.71 | 34965 | 89935
3 | 19:59.11 | 7:15.45 | 89936 | 122605
4 | 27:14.56 | 8:55.58 | 122606 | 162788
5 | 36:10.39 | 14:01.59 | 162789 | 225922
6 | 50:12.23 | 9:36.23 | 225923 | 269145
7 | 59:48.46 | 9:16.14 | 269146 | 310859
8 | 69:04.60 | 8:52.25 | 310860 | 350784


Track 1

Filename C:\EAC Rips\Banco de Gaia - 10 Years (CD2) (2002) [FLAC]\01 - Desert Wind.wav

Pre-gap length 0:00:02.00

Peak level 98.2 %
Extraction speed 1.4 X
Track quality 100.0 %
Test CRC 628ABF3F
Copy CRC 628ABF3F
Accurately ripped (confidence 17) [B7AD5CDC] (AR v2)
Copy OK

Track 2

Filename C:\EAC Rips\Banco de Gaia - 10 Years (CD2) (2002) [FLAC]\02 - Celestine.wav

Peak level 99.9 %
Extraction speed 1.7 X
Track quality 100.0 %
Test CRC 801FB25D
Copy CRC 801FB25D
Accurately ripped (confidence 16) [184C1986] (AR v2)
Copy OK

Track 3

Filename C:\EAC Rips\Banco de Gaia - 10 Years (CD2) (2002) [FLAC]\03 - Shanti (Black Mountain Mix).wav

Peak level 99.9 %
Extraction speed 1.8 X
Track quality 99.9 %
Test CRC D1CF6F99
Copy CRC D1CF6F99
Accurately ripped (confidence 17) [F7ACEA9E] (AR v2)
Copy OK

Track 4

Filename C:\EAC Rips\Banco de Gaia - 10 Years (CD2) (2002) [FLAC]\04 - Sinhala.wav

Peak level 99.9 %
Extraction speed 2.1 X
Track quality 100.0 %
Test CRC 895BDD6C
Copy CRC 895BDD6C
Accurately ripped (confidence 17) [7FCBCCC4] (AR v2)
Copy OK

Track 5

Filename C:\EAC Rips\Banco de Gaia - 10 Years (CD2) (2002) [FLAC]\05 - 887 (Structure).wav

Peak level 99.9 %
Extraction speed 2.4 X
Track quality 100.0 %
Test CRC A00F0B55
Copy CRC A00F0B55
Accurately ripped (confidence 16) [E0DE9C39] (AR v2)
Copy OK

Track 6

Filename C:\EAC Rips\Banco de Gaia - 10 Years (CD2) (2002) [FLAC]\06 - Gizeh.wav

Peak level 99.9 %
Extraction speed 2.6 X
Track quality 100.0 %
Test CRC 579071E1
Copy CRC 579071E1
Accurately ripped (confidence 17) [984EB932] (AR v2)
Copy OK

Track 7

Filename C:\EAC Rips\Banco de Gaia - 10 Years (CD2) (2002) [FLAC]\07 - Touching the Void.wav

Peak level 98.1 %
Extraction speed 2.7 X
Track quality 100.0 %
Test CRC 669AEDB5
Copy CRC 669AEDB5
Accurately ripped (confidence 16) [820E45E4] (AR v2)
Copy OK

Track 8

Filename C:\EAC Rips\Banco de Gaia - 10 Years (CD2) (2002) [FLAC]\08 - Amber (Insect Intelligence).wav

Peak level 99.9 %
Extraction speed 2.9 X
Track quality 100.0 %
Test CRC AA6B1CE4
Copy CRC AA6B1CE4
Accurately ripped (confidence 14) [1F806D50] (AR v2)
Copy OK


All tracks accurately ripped

No errors occurred

End of status report

–– CUETools DB Plugin V2.1.6

[CTDB TOCID: AE_8925q2Ch_8LcALucKVvtbwMI-] found
Submit result: AE_8925q2Ch_8LcALucKVvtbwMI- has been confirmed
Track | CTDB Status
1 | (16/16) Accurately ripped
2 | (16/16) Accurately ripped
3 | (16/16) Accurately ripped
4 | (16/16) Accurately ripped
5 | (16/16) Accurately ripped
6 | (16/16) Accurately ripped
7 | (16/16) Accurately ripped
8 | (12/16) Accurately ripped, or (2/16) differs in 154 samples @08:41:69,08:48:03-08:48:04,08:49:38,08:49:59-08:49:60


==== Log checksum E294DF9981B31AE098A6266929D1C8E20D635A6F6BE10084B4713CF0264EF943 ====

[CUETools log; Date: 17.05.2021 12:18:06; Version: 2.1.4]
[CTDB TOCID: AE_8925q2Ch_8LcALucKVvtbwMI-] found.
Track | CTDB Status
1 | (51/51) Accurately ripped
2 | (51/51) Accurately ripped
3 | (50/51) Accurately ripped
4 | (51/51) Accurately ripped
5 | (50/51) Accurately ripped
6 | (51/51) Accurately ripped
7 | (50/51) Accurately ripped
8 | (43/51) Accurately ripped, or (3/51) differs in 154 samples @08:41:69,08:48:03-08:48:04,08:49:38,08:49:59-08:49:60
[AccurateRip ID: 0017e922-00a0a37d-5c124508] found.
Track [ CRC | V2 ] Status
01 [0f9c7b6c|b7ad5cdc] (12+26/56) Accurately ripped
02 [a738e305|184c1986] (12+25/57) Accurately ripped
03 [75ba7196|f7acea9e] (12+26/58) Accurately ripped
04 [a4ea4282|7fcbccc4] (12+26/58) Accurately ripped
05 [d277b172|e0de9c39] (12+25/55) Accurately ripped
06 [01008b15|984eb932] (12+27/59) Accurately ripped
07 [ed58ea69|820e45e4] (11+26/55) Accurately ripped
08 [d9683b6f|1f806d50] (11+24/47) Accurately ripped
Offsetted by -22:
01 [5aaf7401] (08/56) Accurately ripped
02 [3625d5a8] (08/57) Accurately ripped
03 [b3187c61] (08/58) Accurately ripped
04 [ce85c165] (08/58) Accurately ripped
05 [6203609b] (08/55) Accurately ripped
06 [24d1e0c4] (08/59) Accurately ripped
07 [9c138a16] (08/55) Accurately ripped
08 [576107e0] (06/47) Accurately ripped
Offsetted by -744:
01 [aef137b8] (02/56) Accurately ripped
02 [ccd57fea] (02/57) Accurately ripped
03 [3f0c92d3] (02/58) Accurately ripped
04 [89125081] (02/58) Accurately ripped
05 [ad43bcbd] (02/55) Accurately ripped
06 [352e026a] (02/59) Accurately ripped
07 [cb061eb8] (02/55) Accurately ripped
08 [454103e4] (00/47) No match (V2 was not tested)
Offsetted by -664:
01 [c1187463] (00/56) No match (V2 was not tested)
02 [b3233f7f] (02/57) Accurately ripped
03 [91961c79] (02/58) Accurately ripped
04 [a6401c81] (02/58) Accurately ripped
05 [4a3c065c] (00/55) No match (V2 was not tested)
06 [52605ed2] (02/59) Accurately ripped
07 [23783e95] (00/55) No match (V2 was not tested)
08 [ea940062] (00/47) No match (V2 was not tested)

Track Peak [ CRC32 ] [W/O NULL] [ LOG ]
– 99,9 [DE9FD734] [048ACCF8]
01 98,2 [628ABF3F] [DF4CA605] CRC32
02 99,9 [801FB25D] [F132F705] CRC32
03 99,9 [D1CF6F99] [55F05517] CRC32
04 99,9 [895BDD6C] [6B5474C8] CRC32
05 99,9 [A00F0B55] [BABD4218] CRC32
06 99,9 [579071E1] [1174280C] CRC32
07 98,1 [669AEDB5] [C33704C7] CRC32
08 99,9 [AA6B1CE4] [4916C37A] CRC32

Thanks to the original releaser

See also: