Subcategories
Tags
Language
Tags

E.L.O. & Olivia Newton-John - Xanadu (Original Motion Picture Soundtrack) (1980) [1990, Japan] *Re-Up* *New Rip*

Posted By: BlondStyle
E.L.O. & Olivia Newton-John - Xanadu (Original Motion Picture Soundtrack) (1980) [1990, Japan] *Re-Up* *New Rip*

E.L.O. & Olivia Newton-John - Xanadu (Original Motion Picture Soundtrack) (1980) [1990, Japan]
Pop/Rock, Stage & Screen, Electronic | EAC Rip | FLAC, Img+CUE+LOG+Scans (PNG) | 41:51 | 423,71 Mb
Label: CBS/Sony Records (Japan) | Cat.# CSCS 6034 | Released: 1990-11-01 (1980-06-27)
E.L.O. & Olivia Newton-John - Xanadu (Original Motion Picture Soundtrack) (1980) [1990, Japan] *Re-Up* *New Rip*

"Xanadu" is the soundtrack of the 1980 musical film of the same name, featuring the Australian singer Olivia Newton-John and the British group Electric Light Orchestra (ELO). It was released in June 1980 on MCA Records in the United States and July 1980 by Jet Records in the United Kingdom. The original LP release featured on side one the songs of Newton-John, and on side two the songs of ELO. The Newton-John side also featured Cliff Richard, the Tubes and Gene Kelly. Although the film was a critical and commercial disappointment, the soundtrack was a worldwide success and received positive reviews from music critics going double Platinum in the US and Canada. The hit singles "Magic" and "Xanadu", peaked at #1 in the United States and United Kingdom, respectively. Both singles also went to #1 in the Netherlands and Italy, respectively. It was the 5th most popular US soundtrack in 1981.
~Wikipedia

E.L.O. & Olivia Newton-John - Xanadu (Original Motion Picture Soundtrack) (1980) [1990, Japan] *Re-Up* *New Rip*

Hollywood never learns. Hot on the heels of box-office failures Sgt. Pepper's Lonely Hearts Club Band and Can't Stop the Music, comes the roller-skating Olivia Newton John in Xanadu. This soundtrack is fluff stuff to be sure, but some pearls float amongst the mire. Lead-off "Magic" remains a fine single. "Suddenly," a duet ONJ ekes out with British luminary Cliff Richard, seems better than most love themes. The sudden appearance of the Tubes almost saves the doomed swing/rock hybrid "Dancin," but the two styles should never meet. The second half glows from the Electric Light Orchestra, soaring at its commercial height, escaping this crippling fairy tale fairly untarnished with three more hit bits: "I'm Alive," "All Over the World," and the Olivia Neutron Bomb showcase title track. "Don't Walk Away" and "The Fall" stand as two of Jeff Lynne's finest, thus the flip nukes the front which should stay stuck to the theater floor. Listening to this soundtrack may beat watching the actual film, but know that if you didn't dig Xanadu when it came out, the platter gains nothing through time.
~Review by Doug Stone

E.L.O. & Olivia Newton-John - Xanadu (Original Motion Picture Soundtrack) (1980) [1990, Japan] *Re-Up* *New Rip*

E.L.O. & Olivia Newton-John - Xanadu (Original Motion Picture Soundtrack) (1980) [1990, Japan] *Re-Up* *New Rip*

E.L.O. & Olivia Newton-John - Xanadu (Original Motion Picture Soundtrack) (1980) [1990, Japan] *Re-Up* *New Rip*




Release of the album: 1980, June, 27 [LP MCA Records, Cat.# MCA-6100, USA]
Release of this CD: 1990, November, 1 [CD CBS/Sony Records (Japan), Cat.# CSCS 6034 / UPC: 4988009603421]
CBS/Sony Records, a Division of CBS/Sony Group Inc.
℗ 1980 Jet Inc. MCA Records Inc. © 1980 by Universal city Studios.
Tracks 1~5 ℗ 1980 Jet Inc./MCA Records Inc.
Tracks 6~10 ℗ 1980 MCA Records Inc.
Manufactured by CBS/Song Group Inc. (Tokyo Japan).
Made in Japan


Note: Reissue. A part of the 'CBS Nice Price Line 3' Series

E.L.O. & Olivia Newton-John - Xanadu (Original Motion Picture Soundtrack) (1980) [1990, Japan] *Re-Up* *New Rip*

Credits:

Backing Vocals, Electric Guitar [Electric Guitars], Acoustic Guitar [Acoustic Guitars], Synthesizer [Synthesizers] – Jeff Lynne (tracks: 1 to 5)
Bass Guitar, Backing Vocals – Kelly Groucutt (tracks: 1 to 5)
Drums, Percussion, Timpani [Tympani] – Bev Bevan (tracks: 1 to 5)
Engineer – Reinhold Mack (tracks: 1 to 5)
Engineer, Mixed By – David J. Holman (tracks: 6 to 10)
Lead Vocals – Jeff Lynne (tracks: 1 to 4)
Liner Notes – 村上太一
Liner Notes [対訳] – 山本沙由理
Mastered By – Bernie Grundoman (tracks: 6 to 10)
Music By, Lyrics By – Jeff Lynne (tracks: 1 to 5), John Farrar (tracks: 6 to 10)
Piano [Pianos], Synthesizer [Synthesizers], Keyboards [All Other] – Richard Tandy (tracks: 1 to 5)
Producer – Jeff Lynne (tracks: 1 to 5), John Farrar (tracks: 6 to 10)
Strings – Luis Clark (tracks: 1 to 5)


Tracklist:

01. Electric Light Orchestra - I'm Alive (03:48)
(Jeff Lynne)
02. Electric Light Orchestra - The Fall (03:37)
(Jeff Lynne)
03. Electric Light Orchestra - Don't Walk Away (04:48)
(Jeff Lynne)
04. Electric Light Orchestra - All Over The World (04:06)
(Jeff Lynne)
05. Electric Light Orchestra - Xanadu (03:30)
(Jeff Lynne)
06. Olivia Newton-John - Magic (04:30)
(John Farrar)
07. Olivia Newton-John & Cliff Richard - Suddenly (04:02)
(John Farrar)
08. Olivia Newton-John & The Tubes - Dancin' (05:17)
(John Farrar)
09. Olivia Newton-John - Suspended In Time (03:54)
(John Farrar)
10. Olivia Newton-John & Gene Kelly - Whenever You're Away From Me (04:19)
(John Farrar)

Exact Audio Copy V1.3 from 2. September 2016

EAC extraction logfile from 12. April 2021, 19:27

E.L.O. & Olivia Newton-John / Xanadu (From The Original Motion Picture Soundtrack)

Used drive : PIONEER BD-RW BDR-208D Adapter: 1 ID: 0

Read mode : Secure
Utilize accurate stream : Yes
Defeat audio cache : Yes
Make use of C2 pointers : No

Read offset correction : 667
Overread into Lead-In and Lead-Out : No
Fill up missing offset samples with silence : Yes
Delete leading and trailing silent blocks : No
Null samples used in CRC calculations : Yes
Used interface : Native Win32 interface for Win NT & 2000

Used output format : Internal WAV Routines
Sample format : 44.100 Hz; 16 Bit; Stereo


TOC of the extracted CD

Track | Start | Length | Start sector | End sector
––––––––––––––––––––––––––––-
1 | 0:00.00 | 3:48.12 | 0 | 17111
2 | 3:48.12 | 3:37.13 | 17112 | 33399
3 | 7:25.25 | 4:47.62 | 33400 | 54986
4 | 12:13.12 | 4:06.13 | 54987 | 73449
5 | 16:19.25 | 3:30.25 | 73450 | 89224
6 | 19:49.50 | 4:30.37 | 89225 | 109511
7 | 24:20.12 | 4:01.38 | 109512 | 127624
8 | 28:21.50 | 5:16.62 | 127625 | 151386
9 | 33:38.37 | 3:53.63 | 151387 | 168924
10 | 37:32.25 | 4:18.62 | 168925 | 188336


Range status and errors

Selected range

Filename D:\BlondStyle\E.L.O. & Olivia Newton-John - Xanadu.wav

Peak level 100.0 %
Extraction speed 6.4 X
Range quality 100.0 %
Test CRC 760CDA99
Copy CRC 760CDA99
Copy OK

No errors occurred


AccurateRip summary

Track 1 accurately ripped (confidence 43) [6AB459A8] (AR v2)
Track 2 accurately ripped (confidence 43) [87A403AC] (AR v2)
Track 3 accurately ripped (confidence 43) [61B3399A] (AR v2)
Track 4 accurately ripped (confidence 43) [57323436] (AR v2)
Track 5 accurately ripped (confidence 42) [0B4C386C] (AR v2)
Track 6 accurately ripped (confidence 43) [810DDE89] (AR v2)
Track 7 accurately ripped (confidence 43) [597D010C] (AR v2)
Track 8 accurately ripped (confidence 43) [7C6D49B0] (AR v2)
Track 9 accurately ripped (confidence 43) [A0A266D5] (AR v2)
Track 10 accurately ripped (confidence 43) [1BBA9F7F] (AR v2)

All tracks accurately ripped

End of status report

–– CUETools DB Plugin V2.1.6

[CTDB TOCID: A_m6h8yTzRSZxmK6kpy2.sqJcLk-] found
Submit result: A_m6h8yTzRSZxmK6kpy2.sqJcLk- has been confirmed
Track | CTDB Status
1 | (124/125) Accurately ripped
2 | (124/125) Accurately ripped
3 | (124/125) Accurately ripped
4 | (122/125) Accurately ripped
5 | (122/125) Accurately ripped
6 | (122/125) Accurately ripped
7 | (122/125) Accurately ripped
8 | (121/125) Accurately ripped
9 | (124/125) Accurately ripped
10 | (122/125) Accurately ripped


==== Log checksum 1100021DCFE66C6D3FFFCB608750CBCCA3A5B809708712E7DC508BE4E68271D8 ====

[Disc ID: 000f78c8-007ca23d-6c09cf0a]
Track [ CRC ] Status
01 [fdff53fb] (20/63) Accurately ripped as in pressing(s) #2
02 [ebc79c2c] (19/62) Accurately ripped as in pressing(s) #2
03 [bf60d107] (19/62) Accurately ripped as in pressing(s) #2
04 [cf531f8b] (20/63) Accurately ripped as in pressing(s) #2
05 [329187b0] (23/65) Accurately ripped as in pressing(s) #2
06 [2af22e71] (19/62) Accurately ripped as in pressing(s) #2
07 [2e0bc400] (20/63) Accurately ripped as in pressing(s) #2
08 [20291e4e] (19/62) Accurately ripped as in pressing(s) #2
09 [dee31065] (19/62) Accurately ripped as in pressing(s) #2
10 [70c51c8d] (19/62) Accurately ripped as in pressing(s) #2

––––––––––––––––––––––––––––––––––––––––
Analyzed: Electric Light Orchestra / Xanadu (From The Original Motion Picture Soundtrack) (1-4)
Olivia Newton-John & Cliff Richard / Xanadu (From The Original Motion Picture Soundtrack) (5)
Olivia Newton-John & Gene Kelly / Xanadu (From The Original Motion Picture Soundtrack) (6)
––––––––––––––––––––––––––––––––––––––––

DR Peak RMS Duration Track
––––––––––––––––––––––––––––––––––––––––
DR11 -0.20 dB -12.93 dB 3:48 01-I'm Alive
DR12 0.00 dB -15.43 dB 3:37 02-The Fall
DR11 -0.20 dB -13.97 dB 4:48 03-Don't Walk Away
DR11 0.00 dB -12.83 dB 4:06 04-All Over The World
DR14 -2.46 dB -19.22 dB 4:02 07-Suddenly
DR13 -1.60 dB -17.85 dB 4:19 10-Whenever You're Away From Me
––––––––––––––––––––––––––––––––––––––––

Number of tracks: 6
Official DR value: DR12

Samplerate: 44100 Hz
Channels: 2
Bits per sample: 16
Bitrate: 850 kbps
Codec: FLAC
================================================================================
––––––––––––––––––––––––––––––––––––––––
Statistics for: 05-Xanadu
Number of samples: 9275700
Duration: 3:30
––––––––––––––––––––––––––––––––––––––––

Left Right

Peak Value: -0.20 dB –- -0.20 dB
Avg RMS: -14.43 dB –- -15.32 dB
DR channel: 11.40 dB –- 11.93 dB
––––––––––––––––––––––––––––––––––––––––

Official DR Value: DR12

Samplerate: 44100 Hz
Channels: 2
Bits per sample: 16
Bitrate: 850 kbps
Codec: FLAC
================================================================================
––––––––––––––––––––––––––––––––––––––––
Statistics for: 08-Dancin'
Number of samples: 13972056
Duration: 5:17
––––––––––––––––––––––––––––––––––––––––

Left Right

Peak Value: -1.58 dB –- -1.17 dB
Avg RMS: -17.67 dB –- -17.83 dB
DR channel: 14.11 dB –- 14.31 dB
––––––––––––––––––––––––––––––––––––––––

Official DR Value: DR14

Samplerate: 44100 Hz
Channels: 2
Bits per sample: 16
Bitrate: 850 kbps
Codec: FLAC
================================================================================
––––––––––––––––––––––––––––––––––––––––
Analyzed: Olivia Newton-John / Xanadu (From The Original Motion Picture Soundtrack)
––––––––––––––––––––––––––––––––––––––––

DR Peak RMS Duration Track
––––––––––––––––––––––––––––––––––––––––
DR14 0.00 dB -17.02 dB 4:30 06-Magic
DR14 -2.20 dB -18.80 dB 3:54 09-Suspended In Time
––––––––––––––––––––––––––––––––––––––––

Number of tracks: 2
Official DR value: DR14

Samplerate: 44100 Hz
Channels: 2
Bits per sample: 16
Bitrate: 850 kbps
Codec: FLAC
================================================================================

See also:


♫~Welcome To My Blog~♫

password: BlondStyle