Tags
Language
Tags

Aretha Franklin - A Deeper Love: The Best Of Aretha Franklin [2CD] (2009)

Posted By: BlondStyle
Aretha Franklin - A Deeper Love: The Best Of Aretha Franklin [2CD] (2009)

Aretha Franklin - A Deeper Love: The Best Of Aretha Franklin [2CD] (2009)
R&B, Soul/Funk, Electronic, House | EAC Rip | FLAC, Tracks+CUE+LOG+Scans (PNG) | 02:30:59 | 1,19 Gb
Label: Sony Music/Camden Deluxe (EU) | Cat.# 88697536552 | Released: 2009-06-15
Aretha Franklin - A Deeper Love: The Best Of Aretha Franklin [2CD] (2009)

Aretha Franklin is the Queen of Soul because, well, that's exactly what she is, and her legacy is built on the amazing late-'60s hits she had with Atlantic Records, a run of undisputed classics like "Respect," "I Never Loved a Man," "Chain of Fools," "Baby I Love You," and "Think." She had a few chart hits here and there most notably "Who's Zoomin' Who" and "Jump to It" after her contract with Atlantic ended in the late '70s, and she's never been less than a simply astounding singer, but her 1960s sides are easily the high-water mark of her long career, so it's disappointing to find none of those classic tracks here in this two-disc set, and one could therefore argue convincingly that this package isn't at all "the best of Aretha Franklin." What it is, actually, is a nice survey of the key tracks from her post-Atlantic years, and it's impressive, sure, but one still wants to hear those amazing Atlantic sides. They're that good, and truth be known, they eclipse most of what's presented here.
~Review by Steve Leggett

Aretha Franklin - A Deeper Love: The Best Of Aretha Franklin [2CD] (2009)

Aretha Franklin - A Deeper Love: The Best Of Aretha Franklin [2CD] (2009)

Aretha Franklin - A Deeper Love: The Best Of Aretha Franklin [2CD] (2009)


Release of this 2CD-Set: 2009, June, 15 [CDs Sony Music/Camden Deluxe (EU), Cat.# 88697536552 / UPC: 886975365524]
© 2009 Sony Music Entertainment. ℗ Compilation 2009 Sony Music Entertainment.
Distributed by Sony Music Entertainment.
Made in the E.U.


Tracklist:

Disc 1

01. Freeway Of Love (05:54)
02. Who's Zoomin' Who (04:44)
03. Willing To Forgive (04:11)
04. Love All The Hurt Away (with George Benson) (04:10)
05. Another Night (04:30)
06. Here We Go Again (03:32)
07. Everyday People (03:50)
08. Get It Right (04:15)
09. Gimme Your Love (with James Brown) (05:20)
10. Rock-A-Lott (06:22)
11. Sweet Bitter Love (02:58)
12. If She Don't Want Your Lovin' (05:37)
13. Jimmy Lee (05:47)
14. It's Your Thing (04:16)
15. It's My Turn (05:32)
16. Love Me Right (04:09)

Disc 2

01. A Deeper Love (feat. Lisa Fischer) (04:38)
02. A Rose Is Still A Rose (04:28)
03. Jump To It (04:16)
04. Through The Storm (with Elton John) (04:22)
05. What A Fool Believes (05:14)
06. Come To Me (03:42)
07. United Together (05:03)
08. If Ever A Love There Was (with The Four Tops) (04:47)
09. Honey (04:11)
10. Jumpin' Jack Flash (05:07)
11. Never Leave You Again (04:29)
12. This Is For Real (04:47)
13. Ever Changing Times (with Michael McDonald) (05:12)
14. Every Girl Wants My Guy (06:27)
15. Doctor's Orders (with Luther Vandross) (04:34)
16. I Dreamed A Dream (04:19)

Exact Audio Copy V1.0 beta 6 from 9. April 2015

EAC extraction logfile from 28. September 2018, 21:53

Aretha Franklin / A Deeper Love - The Best Of Aretha Franklin [Disc 1]

Used drive : HL-DT-STDVD-RAM GSA-H22L Adapter: 1 ID: 0

Read mode : Secure
Utilize accurate stream : Yes
Defeat audio cache : Yes
Make use of C2 pointers : No

Read offset correction : 102
Overread into Lead-In and Lead-Out : No
Fill up missing offset samples with silence : Yes
Delete leading and trailing silent blocks : No
Null samples used in CRC calculations : Yes
Used interface : Native Win32 interface for Win NT & 2000
Gap handling : Appended to previous track

Used output format : User Defined Encoder
Selected bitrate : 768 kBit/s
Quality : High
Add ID3 tag : No
Command line compressor : C:\Program Files\Exact Audio Copy\FLAC\FLAC.EXE
Additional command line options : -6 -V -T "ARTIST=%artist%" -T "TITLE=%title%" -T "ALBUM=%albumtitle%" -T "DATE=%year%" -T "TRACKNUMBER=%tracknr%" -T "GENRE=%genre%" -T "COMMENT=%comment%" -T "BAND=%albuminterpret%" -T "ALBUMARTIST=%albuminterpret%" -T "COMPOSER=%composer%" %haslyrics%–tag-from-file=LYRICS="%lyricsfile%"%haslyrics% -T "DISCNUMBER=%cdnumber%" -T "TOTALDISCS=%totalcds%" -T "TOTALTRACKS=%numtracks%" %hascover%–picture="%coverfile%"%hascover% %source% -o %dest%


TOC of the extracted CD

Track | Start | Length | Start sector | End sector
––––––––––––––––––––––––––––-
1 | 0:00.00 | 5:54.67 | 0 | 26616
2 | 5:54.67 | 4:44.19 | 26617 | 47935
3 | 10:39.11 | 4:11.45 | 47936 | 66805
4 | 14:50.56 | 4:10.27 | 66806 | 85582
5 | 19:01.08 | 4:30.61 | 85583 | 105893
6 | 23:31.69 | 3:32.03 | 105894 | 121796
7 | 27:03.72 | 3:50.25 | 121797 | 139071
8 | 30:54.22 | 4:15.33 | 139072 | 158229
9 | 35:09.55 | 5:20.40 | 158230 | 182269
10 | 40:30.20 | 6:22.73 | 182270 | 210992
11 | 46:53.18 | 2:58.11 | 210993 | 224353
12 | 49:51.29 | 5:37.70 | 224354 | 249698
13 | 55:29.24 | 5:47.70 | 249699 | 275793
14 | 61:17.19 | 4:16.41 | 275794 | 295034
15 | 65:33.60 | 5:32.74 | 295035 | 320008
16 | 71:06.59 | 4:09.12 | 320009 | 338695


Track 1

Filename G:\EAC\2018 - EAC - [FLAC] - [TFM]\01. Freeway Of Love.wav

Pre-gap length 0:00:02.00

Peak level 99.8 %
Extraction speed 1.8 X
Track quality 99.9 %
Test CRC C96F1462
Copy CRC C96F1462
Accurately ripped (confidence 7) [7A76DC6A] (AR v2)
Copy OK

Track 2

Filename G:\EAC\2018 - EAC - [FLAC] - [TFM]\02. Who's Zoomin' Who.wav

Pre-gap length 0:00:01.68

Peak level 99.8 %
Extraction speed 2.1 X
Track quality 100.0 %
Test CRC 674B5B28
Copy CRC 674B5B28
Accurately ripped (confidence 7) [376E0ED5] (AR v2)
Copy OK

Track 3

Filename G:\EAC\2018 - EAC - [FLAC] - [TFM]\03. Willing To Forgive.wav

Pre-gap length 0:00:01.68

Peak level 99.9 %
Extraction speed 2.2 X
Track quality 100.0 %
Test CRC 0361A046
Copy CRC 0361A046
Accurately ripped (confidence 7) [A35795A5] (AR v2)
Copy OK

Track 4

Filename G:\EAC\2018 - EAC - [FLAC] - [TFM]\04. Love All The Hurt Away (with George Benson).wav

Pre-gap length 0:00:01.68

Peak level 99.8 %
Extraction speed 2.4 X
Track quality 100.0 %
Test CRC B3AEE38C
Copy CRC B3AEE38C
Accurately ripped (confidence 8) [059ADF67] (AR v2)
Copy OK

Track 5

Filename G:\EAC\2018 - EAC - [FLAC] - [TFM]\05. Another Night.wav

Pre-gap length 0:00:01.68

Peak level 99.8 %
Extraction speed 2.5 X
Track quality 100.0 %
Test CRC 56D0E9ED
Copy CRC 56D0E9ED
Accurately ripped (confidence 7) [41EEB7A7] (AR v2)
Copy OK

Track 6

Filename G:\EAC\2018 - EAC - [FLAC] - [TFM]\06. Here We Go Again.wav

Pre-gap length 0:00:01.68

Peak level 99.8 %
Extraction speed 2.6 X
Track quality 100.0 %
Test CRC 90A18226
Copy CRC 90A18226
Accurately ripped (confidence 7) [DDF42711] (AR v2)
Copy OK

Track 7

Filename G:\EAC\2018 - EAC - [FLAC] - [TFM]\07. Everyday People.wav

Pre-gap length 0:00:01.68

Peak level 99.8 %
Extraction speed 2.7 X
Track quality 100.0 %
Test CRC DA84D26D
Copy CRC DA84D26D
Accurately ripped (confidence 8) [2D43286E] (AR v2)
Copy OK

Track 8

Filename G:\EAC\2018 - EAC - [FLAC] - [TFM]\08. Get It Right.wav

Pre-gap length 0:00:01.68

Peak level 99.8 %
Extraction speed 2.9 X
Track quality 100.0 %
Test CRC B3C1AA51
Copy CRC B3C1AA51
Accurately ripped (confidence 8) [59DAB352] (AR v2)
Copy OK

Track 9

Filename G:\EAC\2018 - EAC - [FLAC] - [TFM]\09. Gimme Your Love (with James Brown).wav

Pre-gap length 0:00:01.68

Peak level 99.8 %
Extraction speed 3.1 X
Track quality 100.0 %
Test CRC C6914B34
Copy CRC C6914B34
Accurately ripped (confidence 7) [C15F9826] (AR v2)
Copy OK

Track 10

Filename G:\EAC\2018 - EAC - [FLAC] - [TFM]\10. Rock-A-Lott.wav

Pre-gap length 0:00:01.68

Peak level 99.8 %
Extraction speed 3.3 X
Track quality 100.0 %
Test CRC EA16AF04
Copy CRC EA16AF04
Accurately ripped (confidence 8) [7AC40EE5] (AR v2)
Copy OK

Track 11

Filename G:\EAC\2018 - EAC - [FLAC] - [TFM]\11. Sweet Bitter Love.wav

Pre-gap length 0:00:01.68

Peak level 99.8 %
Extraction speed 3.1 X
Track quality 100.0 %
Test CRC B0A98757
Copy CRC B0A98757
Accurately ripped (confidence 7) [A6548803] (AR v2)
Copy OK

Track 12

Filename G:\EAC\2018 - EAC - [FLAC] - [TFM]\12. If She Don't Want Your Lovin'.wav

Pre-gap length 0:00:01.68

Peak level 99.8 %
Extraction speed 3.5 X
Track quality 100.0 %
Test CRC 22A67D87
Copy CRC 22A67D87
Accurately ripped (confidence 8) [3C7DF861] (AR v2)
Copy OK

Track 13

Filename G:\EAC\2018 - EAC - [FLAC] - [TFM]\13. Jimmy Lee.wav

Pre-gap length 0:00:01.68

Peak level 99.8 %
Extraction speed 3.3 X
Track quality 99.9 %
Test CRC E27CC237
Copy CRC E27CC237
Accurately ripped (confidence 7) [3DB3C06E] (AR v2)
Copy OK

Track 14

Filename G:\EAC\2018 - EAC - [FLAC] - [TFM]\14. It's Your Thing.wav

Pre-gap length 0:00:01.68

Peak level 99.8 %
Extraction speed 3.6 X
Track quality 100.0 %
Test CRC 1F8ED42D
Copy CRC 1F8ED42D
Accurately ripped (confidence 8) [B89010D7] (AR v2)
Copy OK

Track 15

Filename G:\EAC\2018 - EAC - [FLAC] - [TFM]\15. It's My Turn.wav

Pre-gap length 0:00:01.68

Peak level 99.8 %
Extraction speed 3.5 X
Track quality 99.9 %
Test CRC EAC430A1
Copy CRC EAC430A1
Accurately ripped (confidence 7) [4DFAA662] (AR v2)
Copy OK

Track 16

Filename G:\EAC\2018 - EAC - [FLAC] - [TFM]\16. Love Me Right.wav

Pre-gap length 0:00:01.68

Peak level 99.8 %
Extraction speed 3.8 X
Track quality 100.0 %
Test CRC 087293CE
Copy CRC 087293CE
Accurately ripped (confidence 8) [755DA0C3] (AR v2)
Copy OK


All tracks accurately ripped

No errors occurred

End of status report

==== Log checksum 9DCDD3D642F855505BCD5C725BB45DFAE6A4912015CC1AAF0BDAF314BCEB31C8 ====

––––––––––––––––––––––––––––––––––––––––
Analyzed: Aretha Franklin / A Deeper Love - The Best Of Aretha Franklin [Disc 1]
––––––––––––––––––––––––––––––––––––––––

DR Peak RMS Duration Track
––––––––––––––––––––––––––––––––––––––––
DR8 -0.01 dB -9.39 dB 5:55 01-Freeway Of Love
DR8 -0.01 dB -10.38 dB 4:44 02-Who's Zoomin' Who
DR9 -0.01 dB -10.40 dB 4:12 03-Willing To Forgive
DR9 -0.01 dB -11.06 dB 4:10 04-Love All The Hurt Away (with George Benson)
DR8 -0.01 dB -9.70 dB 4:31 05-Another Night
DR8 -0.01 dB -9.58 dB 3:32 06-Here We Go Again
DR8 -0.01 dB -9.62 dB 3:50 07-Everyday People
DR9 -0.01 dB -10.84 dB 4:15 08-Get It Right
DR9 -0.01 dB -10.84 dB 5:21 09-Gimme Your Love (with James Brown)
DR9 -0.01 dB -10.29 dB 6:23 10-Rock-A-Lott
DR9 -0.01 dB -12.13 dB 2:58 11-Sweet Bitter Love
DR8 -0.01 dB -10.56 dB 5:38 12-If She Don't Want Your Lovin'
DR9 -0.01 dB -10.63 dB 5:48 13-Jimmy Lee
DR10 -0.01 dB -11.44 dB 4:17 14-It's Your Thing
DR8 -0.01 dB -11.10 dB 5:33 15-It's My Turn
DR10 -0.01 dB -12.57 dB 4:09 16-Love Me Right
––––––––––––––––––––––––––––––––––––––––

Number of tracks: 16
Official DR value: DR9

Samplerate: 44100 Hz
Channels: 2
Bits per sample: 16
Bitrate: 922 kbps
Codec: FLAC
================================================================================

Exact Audio Copy V1.0 beta 6 from 9. April 2015

EAC extraction logfile from 29. September 2018, 8:33

Aretha Franklin / A Deeper Love - The Best Of Aretha Franklin (Disc 2)

Used drive : HL-DT-STDVD-RAM GSA-H22L Adapter: 1 ID: 0

Read mode : Secure
Utilize accurate stream : Yes
Defeat audio cache : Yes
Make use of C2 pointers : No

Read offset correction : 102
Overread into Lead-In and Lead-Out : No
Fill up missing offset samples with silence : Yes
Delete leading and trailing silent blocks : No
Null samples used in CRC calculations : Yes
Used interface : Native Win32 interface for Win NT & 2000
Gap handling : Appended to previous track

Used output format : User Defined Encoder
Selected bitrate : 768 kBit/s
Quality : High
Add ID3 tag : No
Command line compressor : C:\Program Files\Exact Audio Copy\FLAC\FLAC.EXE
Additional command line options : -6 -V -T "ARTIST=%artist%" -T "TITLE=%title%" -T "ALBUM=%albumtitle%" -T "DATE=%year%" -T "TRACKNUMBER=%tracknr%" -T "GENRE=%genre%" -T "COMMENT=%comment%" -T "BAND=%albuminterpret%" -T "ALBUMARTIST=%albuminterpret%" -T "COMPOSER=%composer%" %haslyrics%–tag-from-file=LYRICS="%lyricsfile%"%haslyrics% -T "DISCNUMBER=%cdnumber%" -T "TOTALDISCS=%totalcds%" -T "TOTALTRACKS=%numtracks%" %hascover%–picture="%coverfile%"%hascover% %source% -o %dest%


TOC of the extracted CD

Track | Start | Length | Start sector | End sector
––––––––––––––––––––––––––––-
1 | 0:00.00 | 4:38.26 | 0 | 20875
2 | 4:38.26 | 4:28.10 | 20876 | 40985
3 | 9:06.36 | 4:16.60 | 40986 | 60245
4 | 13:23.21 | 4:22.12 | 60246 | 79907
5 | 17:45.33 | 5:14.25 | 79908 | 103482
6 | 22:59.58 | 3:42.40 | 103483 | 120172
7 | 26:42.23 | 5:03.64 | 120173 | 142961
8 | 31:46.12 | 4:47.22 | 142962 | 164508
9 | 36:33.34 | 4:11.36 | 164509 | 183369
10 | 40:44.70 | 5:07.67 | 183370 | 206461
11 | 45:52.62 | 4:29.19 | 206462 | 226655
12 | 50:22.06 | 4:47.74 | 226656 | 248254
13 | 55:10.05 | 5:12.23 | 248255 | 271677
14 | 60:22.28 | 6:27.51 | 271678 | 300753
15 | 66:50.04 | 4:34.56 | 300754 | 321359
16 | 71:24.60 | 4:19.06 | 321360 | 340790


Track 1

Filename G:\EAC\2018 - EAC - [FLAC] - [TFM]\01. A Deeper Love (Ft. Lisa Fischer).wav

Pre-gap length 0:00:02.00

Peak level 99.8 %
Extraction speed 0.9 X
Track quality 100.0 %
Test CRC 37ACB1FE
Copy CRC 37ACB1FE
Accurately ripped (confidence 6) [A2D57EAE] (AR v2)
Copy OK

Track 2

Filename G:\EAC\2018 - EAC - [FLAC] - [TFM]\02. A Rose Is Still A Rose.wav

Pre-gap length 0:00:01.68

Peak level 99.8 %
Extraction speed 2.0 X
Track quality 100.0 %
Test CRC 7F0F5519
Copy CRC 7F0F5519
Accurately ripped (confidence 6) [5DB90E4F] (AR v2)
Copy OK

Track 3

Filename G:\EAC\2018 - EAC - [FLAC] - [TFM]\03. Jump To It.wav

Pre-gap length 0:00:01.68

Peak level 99.8 %
Extraction speed 2.2 X
Track quality 100.0 %
Test CRC 2B533686
Copy CRC 2B533686
Accurately ripped (confidence 7) [B0341C02] (AR v2)
Copy OK

Track 4

Filename G:\EAC\2018 - EAC - [FLAC] - [TFM]\04. Through The Storm (With Elton John).wav

Pre-gap length 0:00:01.68

Peak level 99.8 %
Extraction speed 2.3 X
Track quality 100.0 %
Test CRC F76D70FC
Copy CRC F76D70FC
Accurately ripped (confidence 6) [167ECB26] (AR v2)
Copy OK

Track 5

Filename G:\EAC\2018 - EAC - [FLAC] - [TFM]\05. What A Fool Believes.wav

Pre-gap length 0:00:01.68

Peak level 99.8 %
Extraction speed 2.5 X
Track quality 100.0 %
Test CRC 83E39173
Copy CRC 83E39173
Accurately ripped (confidence 7) [FA6D0D68] (AR v2)
Copy OK

Track 6

Filename G:\EAC\2018 - EAC - [FLAC] - [TFM]\06. Come To Me.wav

Pre-gap length 0:00:01.68

Peak level 99.8 %
Extraction speed 2.6 X
Track quality 100.0 %
Test CRC 39F7C11C
Copy CRC 39F7C11C
Accurately ripped (confidence 6) [BCF0B83B] (AR v2)
Copy OK

Track 7

Filename G:\EAC\2018 - EAC - [FLAC] - [TFM]\07. United Together.wav

Pre-gap length 0:00:01.68

Peak level 99.8 %
Extraction speed 2.8 X
Track quality 100.0 %
Test CRC 0AC3C39B
Copy CRC 0AC3C39B
Accurately ripped (confidence 6) [8D58DFFD] (AR v2)
Copy OK

Track 8

Filename G:\EAC\2018 - EAC - [FLAC] - [TFM]\08. If Ever A Love There Was (With The Four Tops).wav

Pre-gap length 0:00:01.68

Peak level 99.8 %
Extraction speed 2.9 X
Track quality 100.0 %
Test CRC 4A25C1BC
Copy CRC 4A25C1BC
Accurately ripped (confidence 6) [C05786EA] (AR v2)
Copy OK

Track 9

Filename G:\EAC\2018 - EAC - [FLAC] - [TFM]\09. Honey.wav

Pre-gap length 0:00:01.68

Peak level 99.8 %
Extraction speed 3.0 X
Track quality 100.0 %
Test CRC F4196E61
Copy CRC F4196E61
Accurately ripped (confidence 6) [B84F34C7] (AR v2)
Copy OK

Track 10

Filename G:\EAC\2018 - EAC - [FLAC] - [TFM]\10. Jumpin' Jack Flash.wav

Pre-gap length 0:00:01.68

Peak level 99.8 %
Extraction speed 3.2 X
Track quality 100.0 %
Test CRC 0B4FFE7D
Copy CRC 0B4FFE7D
Accurately ripped (confidence 6) [B7681C37] (AR v2)
Copy OK

Track 11

Filename G:\EAC\2018 - EAC - [FLAC] - [TFM]\11. Never Leave You Again.wav

Pre-gap length 0:00:01.68

Peak level 99.8 %
Extraction speed 2.9 X
Track quality 99.9 %
Test CRC 3261B326
Copy CRC 3261B326
Accurately ripped (confidence 6) [889A514E] (AR v2)
Copy OK

Track 12

Filename G:\EAC\2018 - EAC - [FLAC] - [TFM]\12. This Is For Real.wav

Pre-gap length 0:00:01.68

Peak level 99.8 %
Extraction speed 3.4 X
Track quality 100.0 %
Test CRC E9AAF9B0
Copy CRC E9AAF9B0
Accurately ripped (confidence 6) [EC0AC524] (AR v2)
Copy OK

Track 13

Filename G:\EAC\2018 - EAC - [FLAC] - [TFM]\13. Ever Changing Times (With Michael McDonald).wav

Pre-gap length 0:00:01.68

Peak level 99.8 %
Extraction speed 3.6 X
Track quality 100.0 %
Test CRC D2CFCA0D
Copy CRC D2CFCA0D
Accurately ripped (confidence 6) [ED555478] (AR v2)
Copy OK

Track 14

Filename G:\EAC\2018 - EAC - [FLAC] - [TFM]\14. Every Girl Wants My Guy.wav

Pre-gap length 0:00:01.68

Peak level 99.8 %
Extraction speed 3.8 X
Track quality 100.0 %
Test CRC 7013151A
Copy CRC 7013151A
Accurately ripped (confidence 7) [C50B4195] (AR v2)
Copy OK

Track 15

Filename G:\EAC\2018 - EAC - [FLAC] - [TFM]\15. Doctor's Orders (With Luther Vandross).wav

Pre-gap length 0:00:01.68

Peak level 99.8 %
Extraction speed 3.7 X
Track quality 100.0 %
Test CRC D42070AB
Copy CRC D42070AB
Accurately ripped (confidence 6) [A19F0768] (AR v2)
Copy OK

Track 16

Filename G:\EAC\2018 - EAC - [FLAC] - [TFM]\16. I Dreamed A Dream.wav

Pre-gap length 0:00:01.68

Peak level 99.8 %
Extraction speed 3.8 X
Track quality 100.0 %
Test CRC 409A51E9
Copy CRC 409A51E9
Accurately ripped (confidence 6) [C83AC4EB] (AR v2)
Copy OK


All tracks accurately ripped

No errors occurred

End of status report

==== Log checksum 68D0D3E8F8143B87BC9ABEBBEF0A96FC4D6C9093976A71C6900A41CBB7A5F4BE ====

––––––––––––––––––––––––––––––––––––––––
Analyzed: Aretha Franklin / A Deeper Love - The Best Of Aretha Franklin (Disc 2)
––––––––––––––––––––––––––––––––––––––––

DR Peak RMS Duration Track
––––––––––––––––––––––––––––––––––––––––
DR7 -0.01 dB -8.73 dB 4:38 01-A Deeper Love (Ft. Lisa Fischer)
DR10 -0.01 dB -11.85 dB 4:28 02-A Rose Is Still A Rose
DR9 -0.01 dB -11.34 dB 4:17 03-Jump To It
DR8 -0.01 dB -10.20 dB 4:22 04-Through The Storm (With Elton John)
DR7 -0.01 dB -9.03 dB 5:14 05-What A Fool Believes
DR8 -0.01 dB -11.21 dB 3:43 06-Come To Me
DR8 -0.01 dB -11.17 dB 5:04 07-United Together
DR9 -0.01 dB -11.51 dB 4:47 08-If Ever A Love There Was (With The Four Tops)
DR9 -0.01 dB -11.09 dB 4:11 09-Honey
DR7 -0.01 dB -9.55 dB 5:08 10-Jumpin' Jack Flash
DR10 -0.01 dB -11.64 dB 4:29 11-Never Leave You Again
DR11 -0.01 dB -13.70 dB 4:48 12-This Is For Real
DR8 -0.01 dB -10.34 dB 5:12 13-Ever Changing Times (With Michael McDonald)
DR9 -0.01 dB -10.77 dB 6:28 14-Every Girl Wants My Guy
DR10 -0.01 dB -10.88 dB 4:35 15-Doctor's Orders (With Luther Vandross)
DR7 -0.01 dB -10.06 dB 4:19 16-I Dreamed A Dream
––––––––––––––––––––––––––––––––––––––––

Number of tracks: 16
Official DR value: DR9

Samplerate: 44100 Hz
Channels: 2
Bits per sample: 16
Bitrate: 854 kbps
Codec: FLAC
================================================================================

Thanks to tifon

See also:

♫~Welcome To My Blog~♫

password: BlondStyle