Tags
Language
Tags

Various Artists - Rock And New Wave: The Ultimate Collection [5CD] (2021)

Posted By: BlondStyle
Various Artists - Rock And New Wave: The Ultimate Collection [5CD] (2021)

Various Artists - Rock And New Wave: The Ultimate Collection [5CD] (2021)
Rock, Punk, New Wave, Electronic | EAC Rip | FLAC, Tracks+CUE+LOG+Scans (JPEG) | 05:47:34 | 2,54 Gb
Label: Rhino/Union Square Music (UK) | Cat.# ULTIM5CDW34 | Released: 2021-05-28

Weighing in at a hefty 100 tracks across five CDs, "Rock And New Wave: The Ultimate Collection" surveys four decades of hits. The album runs from the beginnings of hard rock in the late 60s (Deep Purple, Iron Butterfly) through the mid-70s (Dr Feelgood, Hawkwind) via punk from the UK (The Damned, The Stranglers) and the US (Ramones, Richard Hell & The Voidoids) to new wave (Ian Dury & The Blockheads, Television). There's also space for eighties US metal (Faith No More, Skid Row), UK alternative rock (Echo & The Bunnymen, The Jesus & Mary Chain) and tracks from the new romantic artists that were inspired by New Wave (A Flock Of Seagulls, The Associates) alongside British rockers from the 90s and 00s (The Darkness, Terrorvision). "Rock And New Wave: The Ultimate Collection" features 100 anthems to appeal to any fan of guitar music.
~Amazon

Various Artists - Rock And New Wave: The Ultimate Collection [5CD] (2021)

Various Artists - Rock And New Wave: The Ultimate Collection [5CD] (2021)


Release of this 5CD Set: 2021, May, 28 [CDs Rhino/Union Square Music (UK), Cat.# ULTIM5CDW34 / UPC: 4050538661194]
This compilation ℗&© 2021 Union Square Music Ltd., a BMG Company.
Made in Austria

Tracklist:

Disc 1

01. The Cars - My Best Friend's Girl (03:44)
02. ZZ Top - Gimme All Your Lovin' (03:26)
03. Faith No More - Epic (04:52)
04. Joy Division - Love Will Tear Us Apart (03:24)
05. Dexys Midnight Runners - Geno (03:26)
06. The Undertones - It's Going To Happen (03:37)
07. The Pretenders - Talk Of The Town (03:13)
08. Echo & The Bunnymen - The Cutter (03:51)
09. Jesus & Mary Chain - April Skies (03:10)
10. The Stooges - I Wanna Be Your Dog (03:07)
11. Ramones - Sheena Is A Punk Rocker (02:47)
12. The Rezillos - Top Of The Pops (02:54)
13. Foreigner - Hot Blooded (03:01)
14. The Darkness - Growing On Me (03:29)
15. Terrorvision - Perseverance (03:10)
16. After The Fire - Der Kommissar (04:07)
17. Classix Nouveaux - Is It A Dream (03:38)
18. Spandau Ballet - To Cut A Long Story Short (03:19)
19. Thompson Twins - In The Name Of Love (03:50)
20. Thomas Dolby - She Blinded Me With Science (03:41)

Disc 2

01. Duran Duran - Planet Earth (03:59)
02. Talk Talk - It's My Life (03:52)
03. Japan - Quiet Life (03:34)
04. A Flock Of Seagulls - I Ran (So Far Away) (03:39)
05. Blue Zoo - Cry Boy Cry (04:24)
06. Belouis Some - Imagination (03:32)
07. A-Ha - Manhattan Skyline (04:16)
08. New Order - Thieves Like Us (03:54)
09. Thomas Dolby - Windpower (03:50)
10. The Associates - Party Fears Two (04:06)
11. Toyah - Thunder In The Mountains (03:48)
12. Mobiles - Drowning In Berlin (03:25)
13. Pinkees - Danger Games (02:55)
14. The Korgis - If I Had You (03:59)
15. The Regents - 7teen (03:22)
16. Madness - My Girl (02:40)
17. The Planets - Lines (03:22)
18. Flash And The Pan - Waiting For A Train (03:43)
19. M - Pop Musik (04:53)
20. Sigue Sigue Sputnik - Love Missile F1-11 (03:42)

Disc 3

01. Dr. Feelgood - Milk And Alcohol (02:48)
02. Chris Spedding - Motor Bikin' (02:35)
03. Deep Purple - Hush (04:25)
04. The Ides Of March - Vehicle (02:52)
05. City Boy - 5.7.0.5 (03:13)
06. Todd Rundgren - I Saw The Light (02:57)
07. Faces - Stay With Me (04:36)
08. Nazareth - This Flight Tonight (03:22)
09. Scorpions - Rock You Like A Hurricane (04:11)
10. Television - See No Evil (03:55)
11. Gary Moore - You (04:07)
12. Foghat - I Just Want To Make Love To You (04:18)
13. Brownsville Station - Smokin' In The Boys Room (02:56)
14. The Georgia Satellites - Keep Your Hands To Yourself (03:22)
15. Lindisfarne - Juke Box Gypsy (02:21)
16. Climax Blues Band - Couldn't Get It Right (03:16)
17. Flamin' Groovies - Shake Some Action (04:32)
18. Iron Butterfly - In-A-Gadda-Da-Vida (02:53)
19. Jethro Tull - Cross Eyed Mary (04:08)
20. Hawkwind - Silver Machine (04:38)

Disc 4

01. Broken English - Comin' On Strong (03:34)
02. David Lee Roth - A Lil' Ain't Enough (04:42)
03. Twisted Sister - We're Not Gonna Take It (03:34)
04. Skid Row - Youth Gone Wild (03:19)
05. L7 - Everglade (03:16)
06. Mudhoney - Suck You Dry (02:32)
07. Jane's Addiction - Mountain Song (03:59)
08. Dinosaur Jr. - The Wagon (03:23)
09. The Donnas - Dancing With Myself (03:26)
10. Caesars - Jerk It Out (03:15)
11. Jonathan Richman & The Modern Lovers - Roadrunner (04:03)
12. Idlewild - No Emotion (03:03)
13. The Enemy - Had Enough (02:35)
14. The Cooper Temple Clause - Homo Sapiens (03:22)
15. The Stands - Do It Like You Like (03:34)
16. I Am Kloot - Life In A Day (02:46)
17. Super Furry Animals - Something 4 The Weekend (02:49)
18. John Paul Young - Yesterday’s Hero (03:45)
19. Graham Bonnet - Liar (03:00)
20. Marillion - Punch And Judy (03:17)

Disc 5

01. The Stranglers - No More Heroes (02:55)
02. Ian Dury & The Blockheads - What A Waste (03:22)
03. The Damned - Neat Neat Neat (02:40)
04. Motorhead - Overkill (05:09)
05. Dead Boys - Sonic Reducer (03:05)
06. X-Ray Spex - The Day The World Turned Day-Glo (02:51)
07. Tom Robinson Band - Up Against The Wall (03:34)
08. Sham 69 - Hersham Boys (03:23)
09. Rich Kids - Rich Kids (02:56)
10. Anti-Nowhere League - Woman (02:57)
11. Girlschool - Hit And Run (03:02)
12. Angelic Upstarts - Last Night Another Soldier (02:44)
13. The Fall - It's The New Thing (03:25)
14. Richard Hell & The Voidoids - Blank Generation (02:42)
15. Gang Of Four - Damaged Goods (03:26)
16. New Model Army - No Rest (03:50)
17. Bow Wow Wow - C30 C60 C90 Go (03:00)
18. GBH - Sick Boy (02:31)
19. Jilted John - Jilted John (02:55)
20. Toy Dolls - Nellie The Elephant (02:58)

Exact Audio Copy V1.6 from 23. October 2020

EAC extraction logfile from 12. October 2021, 22:47

Various / Rock And New Wave - The Ultimate Collection - CD1

Used drive : HL-DT-STDVDRAM GE20NU10 Adapter: 1 ID: 0

Read mode : Secure
Utilize accurate stream : Yes
Defeat audio cache : No
Make use of C2 pointers : Yes

Read offset correction : 667
Overread into Lead-In and Lead-Out : No
Fill up missing offset samples with silence : Yes
Delete leading and trailing silent blocks : No
Null samples used in CRC calculations : Yes
Used interface : Native Win32 interface for Win NT & 2000
Gap handling : Not detected, thus appended to previous track

Used output format : User Defined Encoder
Selected bitrate : 896 kBit/s
Quality : High
Add ID3 tag : No
Command line compressor : C:\Program Files (x86)\Exact Audio Copy\FLAC\FLAC.EXE
Additional command line options : -6 -V -T "ARTIST=%artist%" -T "TITLE=%title%" -T "ALBUM=%albumtitle%" -T "DATE=%year%" -T "TRACKNUMBER=%tracknr%" -T "GENRE=%genre%" -T "COMMENT=%comment%" -T "BAND=%albuminterpret%" -T "ALBUMARTIST=%albuminterpret%" -T "COMPOSER=%composer%" %haslyrics%–tag-from-file=LYRICS="%lyricsfile%"%haslyrics% -T "DISCNUMBER=%cdnumber%" -T "TOTALDISCS=%totalcds%" -T "TOTALTRACKS=%numtracks%" %hascover%–picture="%coverfile%"%hascover% %source% -o %dest%


TOC of the extracted CD

Track | Start | Length | Start sector | End sector
––––––––––––––––––––––––––––-
1 | 0:00.00 | 3:44.22 | 0 | 16821
2 | 3:44.22 | 3:26.71 | 16822 | 32342
3 | 7:11.18 | 4:52.28 | 32343 | 54270
4 | 12:03.46 | 3:24.56 | 54271 | 69626
5 | 15:28.27 | 3:26.35 | 69627 | 85111
6 | 18:54.62 | 3:37.30 | 85112 | 101416
7 | 22:32.17 | 3:13.68 | 101417 | 115959
8 | 25:46.10 | 3:51.68 | 115960 | 133352
9 | 29:38.03 | 3:10.29 | 133353 | 147631
10 | 32:48.32 | 3:07.55 | 147632 | 161711
11 | 35:56.12 | 2:47.03 | 161712 | 174239
12 | 38:43.15 | 2:54.74 | 174240 | 187363
13 | 41:38.14 | 3:01.03 | 187364 | 200941
14 | 44:39.17 | 3:29.20 | 200942 | 216636
15 | 48:08.37 | 3:10.42 | 216637 | 230928
16 | 51:19.04 | 4:07.41 | 230929 | 249494
17 | 55:26.45 | 3:38.32 | 249495 | 265876
18 | 59:05.02 | 3:19.56 | 265877 | 280857
19 | 62:24.58 | 3:50.63 | 280858 | 298170
20 | 66:15.46 | 3:41.16 | 298171 | 314761


Track 1

Filename A:\PsPBuRnOuT's MUSIC\ROCK\ROCK AND NEW WAVE\ROCK AND NEW WAVE - CD1\01.The Cars - My Best Friend's Girl.wav

Peak level 82.1 %
Extraction speed 10.5 X
Track quality 100.0 %
Copy CRC 8DF61D3C
Track not present in AccurateRip database
Copy OK

Track 2

Filename A:\PsPBuRnOuT's MUSIC\ROCK\ROCK AND NEW WAVE\ROCK AND NEW WAVE - CD1\02.ZZ Top - Gimme All Your Lovin'.wav

Peak level 100.0 %
Extraction speed 20.4 X
Track quality 100.0 %
Copy CRC 9DC05AFB
Track not present in AccurateRip database
Copy OK

Track 3

Filename A:\PsPBuRnOuT's MUSIC\ROCK\ROCK AND NEW WAVE\ROCK AND NEW WAVE - CD1\03.Faith No More - Epic.wav

Peak level 94.6 %
Extraction speed 19.8 X
Track quality 100.0 %
Copy CRC 50DE49EC
Track not present in AccurateRip database
Copy OK

Track 4

Filename A:\PsPBuRnOuT's MUSIC\ROCK\ROCK AND NEW WAVE\ROCK AND NEW WAVE - CD1\04.Joy Division - Love Will Tear Us Apart.wav

Peak level 100.0 %
Extraction speed 17.3 X
Track quality 100.0 %
Copy CRC 875DD58B
Track not present in AccurateRip database
Copy OK

Track 5

Filename A:\PsPBuRnOuT's MUSIC\ROCK\ROCK AND NEW WAVE\ROCK AND NEW WAVE - CD1\05.Dexys Midnight Runners - Geno.wav

Peak level 100.0 %
Extraction speed 18.3 X
Track quality 99.8 %
Copy CRC 3A107BE9
Track not present in AccurateRip database
Copy OK

Track 6

Filename A:\PsPBuRnOuT's MUSIC\ROCK\ROCK AND NEW WAVE\ROCK AND NEW WAVE - CD1\06.The Undertones - It's Going To Happen.wav

Peak level 97.7 %
Extraction speed 19.3 X
Track quality 100.0 %
Copy CRC F01769F9
Track not present in AccurateRip database
Copy OK

Track 7

Filename A:\PsPBuRnOuT's MUSIC\ROCK\ROCK AND NEW WAVE\ROCK AND NEW WAVE - CD1\07.The Pretenders - Talk Of The Town.wav

Peak level 100.0 %
Extraction speed 17.7 X
Track quality 100.0 %
Copy CRC 6E4C77EF
Track not present in AccurateRip database
Copy OK

Track 8

Filename A:\PsPBuRnOuT's MUSIC\ROCK\ROCK AND NEW WAVE\ROCK AND NEW WAVE - CD1\08.Echo & The Bunnymen - The Cutter.wav

Peak level 65.5 %
Extraction speed 22.5 X
Track quality 100.0 %
Copy CRC A801A0F0
Track not present in AccurateRip database
Copy OK

Track 9

Filename A:\PsPBuRnOuT's MUSIC\ROCK\ROCK AND NEW WAVE\ROCK AND NEW WAVE - CD1\09.Jesus & Mary Chain - April Skies.wav

Peak level 89.1 %
Extraction speed 24.1 X
Track quality 100.0 %
Copy CRC 9E2D3737
Track not present in AccurateRip database
Copy OK

Track 10

Filename A:\PsPBuRnOuT's MUSIC\ROCK\ROCK AND NEW WAVE\ROCK AND NEW WAVE - CD1\10.The Stooges - I Wanna Be Your Dog.wav

Peak level 100.0 %
Extraction speed 28.6 X
Track quality 100.0 %
Copy CRC F70DEEFC
Track not present in AccurateRip database
Copy OK

Track 11

Filename A:\PsPBuRnOuT's MUSIC\ROCK\ROCK AND NEW WAVE\ROCK AND NEW WAVE - CD1\11.Ramones - Sheena Is A Punk Rocker.wav

Peak level 100.0 %
Extraction speed 26.7 X
Track quality 100.0 %
Copy CRC E85AC643
Track not present in AccurateRip database
Copy OK

Track 12

Filename A:\PsPBuRnOuT's MUSIC\ROCK\ROCK AND NEW WAVE\ROCK AND NEW WAVE - CD1\12.The Rezillos - Top Of The Pops.wav

Peak level 82.2 %
Extraction speed 28.5 X
Track quality 100.0 %
Copy CRC 1B30DAA6
Track not present in AccurateRip database
Copy OK

Track 13

Filename A:\PsPBuRnOuT's MUSIC\ROCK\ROCK AND NEW WAVE\ROCK AND NEW WAVE - CD1\13.Foreigner - Hot Blooded.wav

Peak level 100.0 %
Extraction speed 31.6 X
Track quality 100.0 %
Copy CRC 3CF977D8
Track not present in AccurateRip database
Copy OK

Track 14

Filename A:\PsPBuRnOuT's MUSIC\ROCK\ROCK AND NEW WAVE\ROCK AND NEW WAVE - CD1\14.The Darkness - Growing On Me.wav

Peak level 64.7 %
Extraction speed 26.1 X
Track quality 100.0 %
Copy CRC 459A0D9F
Track not present in AccurateRip database
Copy OK

Track 15

Filename A:\PsPBuRnOuT's MUSIC\ROCK\ROCK AND NEW WAVE\ROCK AND NEW WAVE - CD1\15.Terrorvision - Perseverance.wav

Peak level 84.1 %
Extraction speed 26.9 X
Track quality 99.8 %
Copy CRC FB170D61
Track not present in AccurateRip database
Copy OK

Track 16

Filename A:\PsPBuRnOuT's MUSIC\ROCK\ROCK AND NEW WAVE\ROCK AND NEW WAVE - CD1\16.After The Fire - Der Kommissar.wav

Peak level 100.0 %
Extraction speed 28.5 X
Track quality 100.0 %
Copy CRC 9986E310
Track not present in AccurateRip database
Copy OK

Track 17

Filename A:\PsPBuRnOuT's MUSIC\ROCK\ROCK AND NEW WAVE\ROCK AND NEW WAVE - CD1\17.Classix Nouveaux - Is It A Dream.wav

Peak level 74.4 %
Extraction speed 27.2 X
Track quality 100.0 %
Copy CRC E4FD774A
Track not present in AccurateRip database
Copy OK

Track 18

Filename A:\PsPBuRnOuT's MUSIC\ROCK\ROCK AND NEW WAVE\ROCK AND NEW WAVE - CD1\18.Spandau Ballet - To Cut A Long Story Short.wav

Peak level 95.1 %
Extraction speed 27.7 X
Track quality 100.0 %
Copy CRC 6027F91B
Track not present in AccurateRip database
Copy OK

Track 19

Filename A:\PsPBuRnOuT's MUSIC\ROCK\ROCK AND NEW WAVE\ROCK AND NEW WAVE - CD1\19.Thompson Twins - In The Name Of Love.wav

Peak level 99.4 %
Extraction speed 18.7 X
Track quality 100.0 %
Copy CRC BBC242ED
Track not present in AccurateRip database
Copy OK

Track 20

Filename A:\PsPBuRnOuT's MUSIC\ROCK\ROCK AND NEW WAVE\ROCK AND NEW WAVE - CD1\20.Thomas Dolby - She Blinded Me With Science.wav

Peak level 100.0 %
Extraction speed 23.1 X
Track quality 100.0 %
Copy CRC 54DBF54A
Track not present in AccurateRip database
Copy OK


None of the tracks are present in the AccurateRip database

No errors occurred

End of status report

–– CUETools DB Plugin V2.1.6

[CTDB TOCID: vcv3SnjuysTZfyM25aUoKjvbqP0-] found
Submit result: vcv3SnjuysTZfyM25aUoKjvbqP0- has been confirmed
Track | CTDB Status
1 | (9/9) Accurately ripped
2 | (9/9) Accurately ripped
3 | (9/9) Accurately ripped
4 | (9/9) Accurately ripped
5 | (9/9) Accurately ripped
6 | (9/9) Accurately ripped
7 | (9/9) Accurately ripped
8 | (9/9) Accurately ripped
9 | (9/9) Accurately ripped
10 | (9/9) Accurately ripped
11 | (9/9) Accurately ripped
12 | (9/9) Accurately ripped
13 | (9/9) Accurately ripped
14 | (9/9) Accurately ripped
15 | (9/9) Accurately ripped
16 | (9/9) Accurately ripped
17 | (9/9) Accurately ripped
18 | (9/9) Accurately ripped
19 | (9/9) Accurately ripped
20 | (9/9) Accurately ripped

––––––––––––––––––––––––––––––––––––––––
Analyzed: After The Fire / Rock And New Wave - The Ultimate Collection - CD1 (1)
Classix Nouveaux / Rock And New Wave - The Ultimate Collection - CD1 (2)
Dexys Midnight Runners / Rock And New Wave - The Ultimate Collection - CD1 (3)
Echo & The Bunnymen / Rock And New Wave - The Ultimate Collection - CD1 (4)
Faith No More / Rock And New Wave - The Ultimate Collection - CD1 (5)
Foreigner / Rock And New Wave - The Ultimate Collection - CD1 (6)
Jesus & Mary Chain / Rock And New Wave - The Ultimate Collection - CD1 (7)
Joy Division / Rock And New Wave - The Ultimate Collection - CD1 (8)
Ramones / Rock And New Wave - The Ultimate Collection - CD1 (9)
Spandau Ballet / Rock And New Wave - The Ultimate Collection - CD1 (10)
Terrorvision / Rock And New Wave - The Ultimate Collection - CD1 (11)
The Cars / Rock And New Wave - The Ultimate Collection - CD1 (12)
The Darkness / Rock And New Wave - The Ultimate Collection - CD1 (13)
The Pretenders / Rock And New Wave - The Ultimate Collection - CD1 (14)
The Rezillos / Rock And New Wave - The Ultimate Collection - CD1 (15)
The Stooges / Rock And New Wave - The Ultimate Collection - CD1 (16)
The Undertones / Rock And New Wave - The Ultimate Collection - CD1 (17)
Thomas Dolby / Rock And New Wave - The Ultimate Collection - CD1 (18)
Thompson Twins / Rock And New Wave - The Ultimate Collection - CD1 (19)
ZZ Top / Rock And New Wave - The Ultimate Collection - CD1 (20)
––––––––––––––––––––––––––––––––––––––––

DR Peak RMS Duration Track
––––––––––––––––––––––––––––––––––––––––
DR9 0.00 dB -10.97 dB 4:08 16-Der Kommissar
DR9 -2.56 dB -12.57 dB 3:38 17-Is It A Dream
DR9 0.00 dB -10.66 dB 3:26 05-Geno
DR5 -3.66 dB -10.16 dB 3:52 08-The Cutter
DR9 -0.48 dB -10.83 dB 4:52 03-Epic
DR9 0.00 dB -10.51 dB 3:01 13-Hot Blooded
DR9 -1.00 dB -11.26 dB 3:10 09-April Skies
DR10 0.00 dB -11.50 dB 3:25 04-Love Will Tear Us Apart
DR10 0.00 dB -10.55 dB 2:47 11-Sheena Is A Punk Rocker
DR8 -0.43 dB -11.05 dB 3:20 18-To Cut A Long Story Short
DR7 -1.50 dB -9.96 dB 3:11 15-Perseverance
DR8 -1.71 dB -11.27 dB 3:44 01-My Best Friend's Girl
DR5 -3.77 dB -9.72 dB 3:29 14-Growing On Me
DR8 0.00 dB -9.57 dB 3:14 07-Talk Of The Town
DR8 -1.70 dB -10.83 dB 2:55 12-Top Of The Pops
DR10 0.00 dB -11.37 dB 3:08 10-I Wanna Be Your Dog
DR9 -0.20 dB -11.46 dB 3:37 06-It's Going To Happen
DR11 0.00 dB -12.48 dB 3:41 20-She Blinded Me With Science
DR8 -0.05 dB -10.59 dB 3:51 19-In The Name Of Love
DR9 0.00 dB -10.62 dB 3:27 02-Gimme All Your Lovin'
––––––––––––––––––––––––––––––––––––––––

Number of tracks: 20
Official DR value: DR9

Samplerate: 44100 Hz
Channels: 2
Bits per sample: 16
Bitrate: 950 kbps
Codec: FLAC
================================================================================

Exact Audio Copy V1.6 from 23. October 2020

EAC extraction logfile from 12. October 2021, 23:08

Various / Rock And New Wave - The Ultimate Collection - CD2

Used drive : HL-DT-STDVDRAM GE20NU10 Adapter: 1 ID: 0

Read mode : Secure
Utilize accurate stream : Yes
Defeat audio cache : No
Make use of C2 pointers : Yes

Read offset correction : 667
Overread into Lead-In and Lead-Out : No
Fill up missing offset samples with silence : Yes
Delete leading and trailing silent blocks : No
Null samples used in CRC calculations : Yes
Used interface : Native Win32 interface for Win NT & 2000
Gap handling : Not detected, thus appended to previous track

Used output format : User Defined Encoder
Selected bitrate : 896 kBit/s
Quality : High
Add ID3 tag : No
Command line compressor : C:\Program Files (x86)\Exact Audio Copy\FLAC\FLAC.EXE
Additional command line options : -6 -V -T "ARTIST=%artist%" -T "TITLE=%title%" -T "ALBUM=%albumtitle%" -T "DATE=%year%" -T "TRACKNUMBER=%tracknr%" -T "GENRE=%genre%" -T "COMMENT=%comment%" -T "BAND=%albuminterpret%" -T "ALBUMARTIST=%albuminterpret%" -T "COMPOSER=%composer%" %haslyrics%–tag-from-file=LYRICS="%lyricsfile%"%haslyrics% -T "DISCNUMBER=%cdnumber%" -T "TOTALDISCS=%totalcds%" -T "TOTALTRACKS=%numtracks%" %hascover%–picture="%coverfile%"%hascover% %source% -o %dest%


TOC of the extracted CD

Track | Start | Length | Start sector | End sector
––––––––––––––––––––––––––––-
1 | 0:00.00 | 3:59.15 | 0 | 17939
2 | 3:59.15 | 3:52.40 | 17940 | 35379
3 | 7:51.55 | 3:34.72 | 35380 | 51501
4 | 11:26.52 | 3:39.09 | 51502 | 67935
5 | 15:05.61 | 4:24.61 | 67936 | 87796
6 | 19:30.47 | 3:32.04 | 87797 | 103700
7 | 23:02.51 | 4:16.70 | 103701 | 122970
8 | 27:19.46 | 3:54.69 | 122971 | 140589
9 | 31:14.40 | 3:50.05 | 140590 | 157844
10 | 35:04.45 | 4:06.64 | 157845 | 176358
11 | 39:11.34 | 3:48.53 | 176359 | 193511
12 | 43:00.12 | 3:25.36 | 193512 | 208922
13 | 46:25.48 | 2:55.06 | 208923 | 222053
14 | 49:20.54 | 3:59.71 | 222054 | 240049
15 | 53:20.50 | 3:22.06 | 240050 | 255205
16 | 56:42.56 | 2:40.12 | 255206 | 267217
17 | 59:22.68 | 3:22.35 | 267218 | 282402
18 | 62:45.28 | 3:43.27 | 282403 | 299154
19 | 66:28.55 | 4:53.74 | 299155 | 321203
20 | 71:22.54 | 3:42.72 | 321204 | 337925


Track 1

Filename A:\PsPBuRnOuT's MUSIC\ROCK\ROCK AND NEW WAVE\ROCK AND NEW WAVE - CD2\01.Duran Duran - Planet Earth.wav

Peak level 91.3 %
Extraction speed 9.1 X
Track quality 100.0 %
Copy CRC 416DDC95
Track not present in AccurateRip database
Copy OK

Track 2

Filename A:\PsPBuRnOuT's MUSIC\ROCK\ROCK AND NEW WAVE\ROCK AND NEW WAVE - CD2\02.Talk Talk - It's My Life.wav

Peak level 97.7 %
Extraction speed 11.3 X
Track quality 100.0 %
Copy CRC 75F71DF4
Track not present in AccurateRip database
Copy OK

Track 3

Filename A:\PsPBuRnOuT's MUSIC\ROCK\ROCK AND NEW WAVE\ROCK AND NEW WAVE - CD2\03.Japan - Quiet Life.wav

Peak level 100.0 %
Extraction speed 12.0 X
Track quality 100.0 %
Copy CRC 1351F930
Track not present in AccurateRip database
Copy OK

Track 4

Filename A:\PsPBuRnOuT's MUSIC\ROCK\ROCK AND NEW WAVE\ROCK AND NEW WAVE - CD2\04.A Flock Of Seagulls - I Ran (So Far Away).wav

Peak level 83.1 %
Extraction speed 12.5 X
Track quality 100.0 %
Copy CRC 0171E8CA
Track not present in AccurateRip database
Copy OK

Track 5

Filename A:\PsPBuRnOuT's MUSIC\ROCK\ROCK AND NEW WAVE\ROCK AND NEW WAVE - CD2\05.Blue Zoo - Cry Boy Cry.wav

Peak level 79.4 %
Extraction speed 13.8 X
Track quality 99.9 %
Copy CRC 0107B28F
Track not present in AccurateRip database
Copy OK

Track 6

Filename A:\PsPBuRnOuT's MUSIC\ROCK\ROCK AND NEW WAVE\ROCK AND NEW WAVE - CD2\06.Belouis Some - Imagination.wav

Peak level 100.0 %
Extraction speed 14.1 X
Track quality 100.0 %
Copy CRC 0D674588
Track not present in AccurateRip database
Copy OK

Track 7

Filename A:\PsPBuRnOuT's MUSIC\ROCK\ROCK AND NEW WAVE\ROCK AND NEW WAVE - CD2\07.A‐Ha - Manhattan Skyline.wav

Peak level 95.6 %
Extraction speed 16.7 X
Track quality 100.0 %
Copy CRC 526F8767
Track not present in AccurateRip database
Copy OK

Track 8

Filename A:\PsPBuRnOuT's MUSIC\ROCK\ROCK AND NEW WAVE\ROCK AND NEW WAVE - CD2\08.New Order - Thieves Like Us.wav

Peak level 73.2 %
Extraction speed 17.4 X
Track quality 100.0 %
Copy CRC 7C3ED679
Track not present in AccurateRip database
Copy OK

Track 9

Filename A:\PsPBuRnOuT's MUSIC\ROCK\ROCK AND NEW WAVE\ROCK AND NEW WAVE - CD2\09.Thomas Dolby - Windpower.wav

Peak level 100.0 %
Extraction speed 16.2 X
Track quality 99.9 %
Copy CRC D00DB25C
Track not present in AccurateRip database
Copy OK

Track 10

Filename A:\PsPBuRnOuT's MUSIC\ROCK\ROCK AND NEW WAVE\ROCK AND NEW WAVE - CD2\10.The Associates - Party Fears Two.wav

Peak level 100.0 %
Extraction speed 17.0 X
Track quality 100.0 %
Copy CRC 890AA016
Track not present in AccurateRip database
Copy OK

Track 11

Filename A:\PsPBuRnOuT's MUSIC\ROCK\ROCK AND NEW WAVE\ROCK AND NEW WAVE - CD2\11.Toyah - Thunder In The Mountains.wav

Peak level 79.4 %
Extraction speed 17.7 X
Track quality 100.0 %
Copy CRC CFEBA018
Track not present in AccurateRip database
Copy OK

Track 12

Filename A:\PsPBuRnOuT's MUSIC\ROCK\ROCK AND NEW WAVE\ROCK AND NEW WAVE - CD2\12.Mobiles - Drowning In Berlin.wav

Peak level 97.0 %
Extraction speed 18.0 X
Track quality 100.0 %
Copy CRC BDA674D8
Track not present in AccurateRip database
Copy OK

Track 13

Filename A:\PsPBuRnOuT's MUSIC\ROCK\ROCK AND NEW WAVE\ROCK AND NEW WAVE - CD2\13.Pinkees - Danger Games.wav

Peak level 92.1 %
Extraction speed 13.0 X
Track quality 100.0 %
Copy CRC C2F935AA
Track not present in AccurateRip database
Copy OK

Track 14

Filename A:\PsPBuRnOuT's MUSIC\ROCK\ROCK AND NEW WAVE\ROCK AND NEW WAVE - CD2\14.The Korgis - If I Had You.wav

Peak level 100.0 %
Extraction speed 18.7 X
Track quality 99.9 %
Copy CRC 0C847733
Track not present in AccurateRip database
Copy OK

Track 15

Filename A:\PsPBuRnOuT's MUSIC\ROCK\ROCK AND NEW WAVE\ROCK AND NEW WAVE - CD2\15.The Regents - 7teen.wav

Peak level 91.2 %
Extraction speed 21.3 X
Track quality 100.0 %
Copy CRC 679AF920
Track not present in AccurateRip database
Copy OK

Track 16

Filename A:\PsPBuRnOuT's MUSIC\ROCK\ROCK AND NEW WAVE\ROCK AND NEW WAVE - CD2\16.Madness - My Girl.wav

Peak level 100.0 %
Extraction speed 18.6 X
Track quality 100.0 %
Copy CRC E76AA7DF
Track not present in AccurateRip database
Copy OK

Track 17

Filename A:\PsPBuRnOuT's MUSIC\ROCK\ROCK AND NEW WAVE\ROCK AND NEW WAVE - CD2\17.The Planets - Lines.wav

Peak level 100.0 %
Extraction speed 22.0 X
Track quality 100.0 %
Copy CRC FE0AC35F
Track not present in AccurateRip database
Copy OK

Track 18

Filename A:\PsPBuRnOuT's MUSIC\ROCK\ROCK AND NEW WAVE\ROCK AND NEW WAVE - CD2\18.Flash And The Pan - Waiting For A Train.wav

Peak level 98.4 %
Extraction speed 20.2 X
Track quality 100.0 %
Copy CRC F08E1838
Track not present in AccurateRip database
Copy OK

Track 19

Filename A:\PsPBuRnOuT's MUSIC\ROCK\ROCK AND NEW WAVE\ROCK AND NEW WAVE - CD2\19.M - Pop Musik.wav

Peak level 90.6 %
Extraction speed 21.6 X
Track quality 100.0 %
Copy CRC 5819FF37
Track not present in AccurateRip database
Copy OK

Track 20

Filename A:\PsPBuRnOuT's MUSIC\ROCK\ROCK AND NEW WAVE\ROCK AND NEW WAVE - CD2\20.Sigue Sigue Sputnik - Love Missile F1-11.wav

Peak level 100.0 %
Extraction speed 22.0 X
Track quality 100.0 %
Copy CRC 3A97A8E6
Track not present in AccurateRip database
Copy OK


None of the tracks are present in the AccurateRip database

No errors occurred

End of status report

–– CUETools DB Plugin V2.1.6

[CTDB TOCID: FxjJiz3xVXok.ErnYiAbFTNqFRM-] found
Submit result: FxjJiz3xVXok.ErnYiAbFTNqFRM- has been confirmed
Track | CTDB Status
1 | (8/8) Accurately ripped
2 | (8/8) Accurately ripped
3 | (8/8) Accurately ripped
4 | (8/8) Accurately ripped
5 | (8/8) Accurately ripped
6 | (8/8) Accurately ripped
7 | (8/8) Accurately ripped
8 | (8/8) Accurately ripped
9 | (8/8) Accurately ripped
10 | (8/8) Accurately ripped
11 | (8/8) Accurately ripped
12 | (8/8) Accurately ripped
13 | (8/8) Accurately ripped
14 | (8/8) Accurately ripped
15 | (8/8) Accurately ripped
16 | (8/8) Accurately ripped
17 | (8/8) Accurately ripped
18 | (8/8) Accurately ripped
19 | (8/8) Accurately ripped
20 | (8/8) Accurately ripped

––––––––––––––––––––––––––––––––––––––––
Analyzed: A Flock Of Seagulls / Rock And New Wave - The Ultimate Collection - CD2 (1)
A‐Ha / Rock And New Wave - The Ultimate Collection - CD2 (2)
Belouis Some / Rock And New Wave - The Ultimate Collection - CD2 (3)
Blue Zoo / Rock And New Wave - The Ultimate Collection - CD2 (4)
Duran Duran / Rock And New Wave - The Ultimate Collection - CD2 (5)
Flash And The Pan / Rock And New Wave - The Ultimate Collection - CD2 (6)
Japan / Rock And New Wave - The Ultimate Collection - CD2 (7)
Madness / Rock And New Wave - The Ultimate Collection - CD2 (8)
Mobiles / Rock And New Wave - The Ultimate Collection - CD2 (9)
M / Rock And New Wave - The Ultimate Collection - CD2 (10)
New Order / Rock And New Wave - The Ultimate Collection - CD2 (11)
Pinkees / Rock And New Wave - The Ultimate Collection - CD2 (12)
Sigue Sigue Sputnik / Rock And New Wave - The Ultimate Collection - CD2 (13)
Talk Talk / Rock And New Wave - The Ultimate Collection - CD2 (14)
The Associates / Rock And New Wave - The Ultimate Collection - CD2 (15)
The Korgis / Rock And New Wave - The Ultimate Collection - CD2 (16)
The Planets / Rock And New Wave - The Ultimate Collection - CD2 (17)
The Regents / Rock And New Wave - The Ultimate Collection - CD2 (18)
Thomas Dolby / Rock And New Wave - The Ultimate Collection - CD2 (19)
Toyah / Rock And New Wave - The Ultimate Collection - CD2 (20)
––––––––––––––––––––––––––––––––––––––––

DR Peak RMS Duration Track
––––––––––––––––––––––––––––––––––––––––
DR7 -1.60 dB -9.98 dB 3:39 04-I Ran (So Far Away)
DR9 -0.38 dB -12.49 dB 4:17 07-Manhattan Skyline
DR9 0.00 dB -10.29 dB 3:32 06-Imagination
DR5 -2.00 dB -9.38 dB 4:25 05-Cry Boy Cry
DR9 -0.79 dB -10.93 dB 3:59 01-Planet Earth
DR11 -0.14 dB -12.92 dB 3:43 18-Waiting For A Train
DR9 0.00 dB -10.63 dB 3:35 03-Quiet Life
DR9 0.00 dB -11.09 dB 2:40 16-My Girl
DR9 -0.26 dB -10.69 dB 3:25 12-Drowning In Berlin
DR9 -0.85 dB -11.12 dB 4:54 19-Pop Musik
DR6 -2.71 dB -10.09 dB 3:55 08-Thieves Like Us
DR9 -0.71 dB -10.38 dB 2:55 13-Danger Games
DR9 0.00 dB -10.63 dB 3:43 20-Love Missile F1-11
DR9 -0.20 dB -11.88 dB 3:53 02-It's My Life
DR8 0.00 dB -9.76 dB 4:07 10-Party Fears Two
DR8 0.00 dB -10.01 dB 4:00 14-If I Had You
DR10 0.00 dB -11.79 dB 3:22 17-Lines
DR7 -0.80 dB -9.69 dB 3:22 15-7teen
DR10 0.00 dB -12.06 dB 3:50 09-Windpower
DR5 -2.00 dB -8.69 dB 3:49 11-Thunder In The Mountains
––––––––––––––––––––––––––––––––––––––––

Number of tracks: 20
Official DR value: DR8

Samplerate: 44100 Hz
Channels: 2
Bits per sample: 16
Bitrate: 1066 kbps
Codec: FLAC
================================================================================

Exact Audio Copy V1.6 from 23. October 2020

EAC extraction logfile from 12. October 2021, 23:31

Various / Rock And New Wave - The Ultimate Collection - CD3

Used drive : HL-DT-STDVDRAM GE20NU10 Adapter: 1 ID: 0

Read mode : Secure
Utilize accurate stream : Yes
Defeat audio cache : No
Make use of C2 pointers : Yes

Read offset correction : 667
Overread into Lead-In and Lead-Out : No
Fill up missing offset samples with silence : Yes
Delete leading and trailing silent blocks : No
Null samples used in CRC calculations : Yes
Used interface : Native Win32 interface for Win NT & 2000
Gap handling : Not detected, thus appended to previous track

Used output format : User Defined Encoder
Selected bitrate : 896 kBit/s
Quality : High
Add ID3 tag : No
Command line compressor : C:\Program Files (x86)\Exact Audio Copy\FLAC\FLAC.EXE
Additional command line options : -6 -V -T "ARTIST=%artist%" -T "TITLE=%title%" -T "ALBUM=%albumtitle%" -T "DATE=%year%" -T "TRACKNUMBER=%tracknr%" -T "GENRE=%genre%" -T "COMMENT=%comment%" -T "BAND=%albuminterpret%" -T "ALBUMARTIST=%albuminterpret%" -T "COMPOSER=%composer%" %haslyrics%–tag-from-file=LYRICS="%lyricsfile%"%haslyrics% -T "DISCNUMBER=%cdnumber%" -T "TOTALDISCS=%totalcds%" -T "TOTALTRACKS=%numtracks%" %hascover%–picture="%coverfile%"%hascover% %source% -o %dest%


TOC of the extracted CD

Track | Start | Length | Start sector | End sector
––––––––––––––––––––––––––––-
1 | 0:00.00 | 2:48.65 | 0 | 12664
2 | 2:48.65 | 2:35.04 | 12665 | 24293
3 | 5:23.69 | 4:25.05 | 24294 | 44173
4 | 9:48.74 | 2:52.51 | 44174 | 57124
5 | 12:41.50 | 3:13.22 | 57125 | 71621
6 | 15:54.72 | 2:57.17 | 71622 | 84913
7 | 18:52.14 | 4:36.03 | 84914 | 105616
8 | 23:28.17 | 3:22.37 | 105617 | 120803
9 | 26:50.54 | 4:11.62 | 120804 | 139690
10 | 31:02.41 | 3:55.73 | 139691 | 157388
11 | 34:58.39 | 4:07.29 | 157389 | 175942
12 | 39:05.68 | 4:18.71 | 175943 | 195363
13 | 43:24.64 | 2:56.15 | 195364 | 208578
14 | 46:21.04 | 3:22.62 | 208579 | 223790
15 | 49:43.66 | 2:21.60 | 223791 | 234425
16 | 52:05.51 | 3:16.50 | 234426 | 249175
17 | 55:22.26 | 4:32.34 | 249176 | 269609
18 | 59:54.60 | 2:53.26 | 269610 | 282610
19 | 62:48.11 | 4:08.13 | 282611 | 301223
20 | 66:56.24 | 4:38.70 | 301224 | 322143


Track 1

Filename A:\PsPBuRnOuT's MUSIC\ROCK\ROCK AND NEW WAVE\ROCK AND NEW WAVE - CD3\01.Dr. Feelgood - Milk And Alcohol.wav

Peak level 83.1 %
Extraction speed 10.0 X
Track quality 99.8 %
Copy CRC 30BF239D
Track not present in AccurateRip database
Copy OK

Track 2

Filename A:\PsPBuRnOuT's MUSIC\ROCK\ROCK AND NEW WAVE\ROCK AND NEW WAVE - CD3\02.Chris Spedding - Motor Bikin'.wav

Peak level 100.0 %
Extraction speed 16.7 X
Track quality 100.0 %
Copy CRC 69B244C9
Track not present in AccurateRip database
Copy OK

Track 3

Filename A:\PsPBuRnOuT's MUSIC\ROCK\ROCK AND NEW WAVE\ROCK AND NEW WAVE - CD3\03.Deep Purple - Hush.wav

Peak level 100.0 %
Extraction speed 19.5 X
Track quality 100.0 %
Copy CRC 2127F563
Track not present in AccurateRip database
Copy OK

Track 4

Filename A:\PsPBuRnOuT's MUSIC\ROCK\ROCK AND NEW WAVE\ROCK AND NEW WAVE - CD3\04.The Ides Of March - Vehicle.wav

Peak level 99.4 %
Extraction speed 10.3 X
Track quality 99.8 %
Copy CRC 0DB59FAD
Track not present in AccurateRip database
Copy OK

Track 5

Filename A:\PsPBuRnOuT's MUSIC\ROCK\ROCK AND NEW WAVE\ROCK AND NEW WAVE - CD3\05.City Boy - 5.7.0.5.wav

Peak level 100.0 %
Extraction speed 19.7 X
Track quality 100.0 %
Copy CRC 11B273D0
Track not present in AccurateRip database
Copy OK

Track 6

Filename A:\PsPBuRnOuT's MUSIC\ROCK\ROCK AND NEW WAVE\ROCK AND NEW WAVE - CD3\06.Todd Rundgren - I Saw The Light.wav

Peak level 100.0 %
Extraction speed 24.3 X
Track quality 100.0 %
Copy CRC 6C90D3E4
Track not present in AccurateRip database
Copy OK

Track 7

Filename A:\PsPBuRnOuT's MUSIC\ROCK\ROCK AND NEW WAVE\ROCK AND NEW WAVE - CD3\07.Faces - Stay With Me.wav

Peak level 100.0 %
Extraction speed 25.4 X
Track quality 100.0 %
Copy CRC E94F3061
Track not present in AccurateRip database
Copy OK

Track 8

Filename A:\PsPBuRnOuT's MUSIC\ROCK\ROCK AND NEW WAVE\ROCK AND NEW WAVE - CD3\08.Nazareth - This Flight Tonight.wav

Peak level 92.2 %
Extraction speed 27.5 X
Track quality 100.0 %
Copy CRC 91C926B0
Track not present in AccurateRip database
Copy OK

Track 9

Filename A:\PsPBuRnOuT's MUSIC\ROCK\ROCK AND NEW WAVE\ROCK AND NEW WAVE - CD3\09.Scorpions - Rock You Like A Hurricane.wav

Peak level 74.4 %
Extraction speed 27.7 X
Track quality 100.0 %
Copy CRC 9E55B2D6
Track not present in AccurateRip database
Copy OK

Track 10

Filename A:\PsPBuRnOuT's MUSIC\ROCK\ROCK AND NEW WAVE\ROCK AND NEW WAVE - CD3\10.Television - See No Evil.wav

Peak level 94.6 %
Extraction speed 25.7 X
Track quality 100.0 %
Copy CRC C186DB06
Track not present in AccurateRip database
Copy OK

Track 11

Filename A:\PsPBuRnOuT's MUSIC\ROCK\ROCK AND NEW WAVE\ROCK AND NEW WAVE - CD3\11.Gary Moore - You.wav

Peak level 100.0 %
Extraction speed 30.7 X
Track quality 100.0 %
Copy CRC A4D27018
Track not present in AccurateRip database
Copy OK

Track 12

Filename A:\PsPBuRnOuT's MUSIC\ROCK\ROCK AND NEW WAVE\ROCK AND NEW WAVE - CD3\12.Foghat - I Just Want To Make Love To You.wav

Peak level 100.0 %
Extraction speed 28.7 X
Track quality 100.0 %
Copy CRC EF7F0154
Track not present in AccurateRip database
Copy OK

Track 13

Filename A:\PsPBuRnOuT's MUSIC\ROCK\ROCK AND NEW WAVE\ROCK AND NEW WAVE - CD3\13.Brownsville Station - Smokin' In The Boys Room.wav

Peak level 100.0 %
Extraction speed 27.9 X
Track quality 99.8 %
Copy CRC 4157391D
Track not present in AccurateRip database
Copy OK

Track 14

Filename A:\PsPBuRnOuT's MUSIC\ROCK\ROCK AND NEW WAVE\ROCK AND NEW WAVE - CD3\14.The Georgia Satellites - Keep Your Hands To Yourself.wav

Peak level 100.0 %
Extraction speed 29.1 X
Track quality 100.0 %
Copy CRC 4F701FF8
Track not present in AccurateRip database
Copy OK

Track 15

Filename A:\PsPBuRnOuT's MUSIC\ROCK\ROCK AND NEW WAVE\ROCK AND NEW WAVE - CD3\15.Lindisfarne - Juke Box Gypsy.wav

Peak level 83.9 %
Extraction speed 27.7 X
Track quality 99.8 %
Copy CRC E9637E4D
Track not present in AccurateRip database
Copy OK

Track 16

Filename A:\PsPBuRnOuT's MUSIC\ROCK\ROCK AND NEW WAVE\ROCK AND NEW WAVE - CD3\16.Climax Blues Band - Couldn't Get It Right.wav

Peak level 100.0 %
Extraction speed 34.9 X
Track quality 100.0 %
Copy CRC 1A5DCB96
Track not present in AccurateRip database
Copy OK

Track 17

Filename A:\PsPBuRnOuT's MUSIC\ROCK\ROCK AND NEW WAVE\ROCK AND NEW WAVE - CD3\17.Flamin’ Groovies - Shake Some Action.wav

Peak level 100.0 %
Extraction speed 32.0 X
Track quality 99.9 %
Copy CRC A49F9EAE
Track not present in AccurateRip database
Copy OK

Track 18

Filename A:\PsPBuRnOuT's MUSIC\ROCK\ROCK AND NEW WAVE\ROCK AND NEW WAVE - CD3\18.Iron Butterfly - In-A-Gadda-Da-Vida.wav

Peak level 98.3 %
Extraction speed 30.6 X
Track quality 99.8 %
Copy CRC 4B793FFF
Track not present in AccurateRip database
Copy OK

Track 19

Filename A:\PsPBuRnOuT's MUSIC\ROCK\ROCK AND NEW WAVE\ROCK AND NEW WAVE - CD3\19.Jethro Tull - Cross Eyed Mary.wav

Peak level 100.0 %
Extraction speed 31.1 X
Track quality 100.0 %
Copy CRC 08B7E0B8
Track not present in AccurateRip database
Copy OK

Track 20

Filename A:\PsPBuRnOuT's MUSIC\ROCK\ROCK AND NEW WAVE\ROCK AND NEW WAVE - CD3\20.Hawkwind - Silver Machine.wav

Peak level 100.0 %
Extraction speed 35.4 X
Track quality 100.0 %
Copy CRC D119280A
Track not present in AccurateRip database
Copy OK


None of the tracks are present in the AccurateRip database

No errors occurred

End of status report

–– CUETools DB Plugin V2.1.6

[CTDB TOCID: 4_cmeOyMWapT2EdcXaK2Q9pBryI-] found
Submit result: 4_cmeOyMWapT2EdcXaK2Q9pBryI- has been confirmed
Track | CTDB Status
1 | (9/9) Accurately ripped
2 | (9/9) Accurately ripped
3 | (9/9) Accurately ripped
4 | (9/9) Accurately ripped
5 | (9/9) Accurately ripped
6 | (9/9) Accurately ripped
7 | (9/9) Accurately ripped
8 | (9/9) Accurately ripped
9 | (9/9) Accurately ripped
10 | (9/9) Accurately ripped
11 | (9/9) Accurately ripped
12 | (9/9) Accurately ripped
13 | (9/9) Accurately ripped
14 | (9/9) Accurately ripped
15 | (9/9) Accurately ripped
16 | (9/9) Accurately ripped
17 | (9/9) Accurately ripped
18 | (9/9) Accurately ripped
19 | (9/9) Accurately ripped
20 | (9/9) Accurately ripped

––––––––––––––––––––––––––––––––––––––––
Analyzed: Brownsville Station / Rock And New Wave - The Ultimate Collection - CD3 (1)
Chris Spedding / Rock And New Wave - The Ultimate Collection - CD3 (2)
City Boy / Rock And New Wave - The Ultimate Collection - CD3 (3)
Climax Blues Band / Rock And New Wave - The Ultimate Collection - CD3 (4)
Deep Purple / Rock And New Wave - The Ultimate Collection - CD3 (5)
Dr. Feelgood / Rock And New Wave - The Ultimate Collection - CD3 (6)
Faces / Rock And New Wave - The Ultimate Collection - CD3 (7)
Flamin’ Groovies / Rock And New Wave - The Ultimate Collection - CD3 (8)
Foghat / Rock And New Wave - The Ultimate Collection - CD3 (9)
Gary Moore / Rock And New Wave - The Ultimate Collection - CD3 (10)
Hawkwind / Rock And New Wave - The Ultimate Collection - CD3 (11)
Iron Butterfly / Rock And New Wave - The Ultimate Collection - CD3 (12)
Jethro Tull / Rock And New Wave - The Ultimate Collection - CD3 (13)
Lindisfarne / Rock And New Wave - The Ultimate Collection - CD3 (14)
Nazareth / Rock And New Wave - The Ultimate Collection - CD3 (15)
Scorpions / Rock And New Wave - The Ultimate Collection - CD3 (16)
Television / Rock And New Wave - The Ultimate Collection - CD3 (17)
The Georgia Satellites / Rock And New Wave - The Ultimate Collection - CD3 (18)
The Ides Of March / Rock And New Wave - The Ultimate Collection - CD3 (19)
Todd Rundgren / Rock And New Wave - The Ultimate Collection - CD3 (20)
––––––––––––––––––––––––––––––––––––––––

DR Peak RMS Duration Track
––––––––––––––––––––––––––––––––––––––––
DR8 0.00 dB -10.12 dB 2:56 13-Smokin' In The Boys Room
DR8 0.00 dB -9.41 dB 2:35 02-Motor Bikin'
DR9 0.00 dB -11.02 dB 3:13 05-5.7.0.5
DR9 0.00 dB -10.96 dB 3:17 16-Couldn't Get It Right
DR7 0.00 dB -8.44 dB 4:25 03-Hush
DR6 -1.60 dB -8.99 dB 2:49 01-Milk And Alcohol
DR9 0.00 dB -10.73 dB 4:36 07-Stay With Me
DR9 0.00 dB -9.19 dB 4:32 17-Shake Some Action
DR9 0.00 dB -11.28 dB 4:19 12-I Just Want To Make Love To You
DR8 0.00 dB -9.99 dB 4:07 11-You
DR10 0.00 dB -11.28 dB 4:39 20-Silver Machine
DR10 -0.15 dB -13.43 dB 2:53 18-In-A-Gadda-Da-Vida
DR10 0.00 dB -12.22 dB 4:08 19-Cross Eyed Mary
DR8 -1.52 dB -10.62 dB 2:22 15-Juke Box Gypsy
DR8 -0.70 dB -9.65 dB 3:22 08-This Flight Tonight
DR6 -2.56 dB -9.83 dB 4:12 09-Rock You Like A Hurricane
DR9 -0.48 dB -10.69 dB 3:56 10-See No Evil
DR10 0.00 dB -11.72 dB 3:23 14-Keep Your Hands To Yourself
DR9 -0.05 dB -9.79 dB 2:53 04-Vehicle
DR11 0.00 dB -11.62 dB 2:57 06-I Saw The Light
––––––––––––––––––––––––––––––––––––––––

Number of tracks: 20
Official DR value: DR9

Samplerate: 44100 Hz
Channels: 2
Bits per sample: 16
Bitrate: 986 kbps
Codec: FLAC
================================================================================

Exact Audio Copy V1.6 from 23. October 2020

EAC extraction logfile from 12. October 2021, 23:47

Various / Rock And New Wave - The Ultimate Collection - CD4

Used drive : HL-DT-STDVDRAM GE20NU10 Adapter: 1 ID: 0

Read mode : Secure
Utilize accurate stream : Yes
Defeat audio cache : No
Make use of C2 pointers : Yes

Read offset correction : 667
Overread into Lead-In and Lead-Out : No
Fill up missing offset samples with silence : Yes
Delete leading and trailing silent blocks : No
Null samples used in CRC calculations : Yes
Used interface : Native Win32 interface for Win NT & 2000
Gap handling : Not detected, thus appended to previous track

Used output format : User Defined Encoder
Selected bitrate : 896 kBit/s
Quality : High
Add ID3 tag : No
Command line compressor : C:\Program Files (x86)\Exact Audio Copy\FLAC\FLAC.EXE
Additional command line options : -6 -V -T "ARTIST=%artist%" -T "TITLE=%title%" -T "ALBUM=%albumtitle%" -T "DATE=%year%" -T "TRACKNUMBER=%tracknr%" -T "GENRE=%genre%" -T "COMMENT=%comment%" -T "BAND=%albuminterpret%" -T "ALBUMARTIST=%albuminterpret%" -T "COMPOSER=%composer%" %haslyrics%–tag-from-file=LYRICS="%lyricsfile%"%haslyrics% -T "DISCNUMBER=%cdnumber%" -T "TOTALDISCS=%totalcds%" -T "TOTALTRACKS=%numtracks%" %hascover%–picture="%coverfile%"%hascover% %source% -o %dest%


TOC of the extracted CD

Track | Start | Length | Start sector | End sector
––––––––––––––––––––––––––––-
1 | 0:00.00 | 3:34.50 | 0 | 16099
2 | 3:34.50 | 4:42.38 | 16100 | 37287
3 | 8:17.13 | 3:34.36 | 37288 | 53373
4 | 11:51.49 | 3:19.16 | 53374 | 68314
5 | 15:10.65 | 3:16.15 | 68315 | 83029
6 | 18:27.05 | 2:32.08 | 83030 | 94437
7 | 20:59.13 | 3:59.68 | 94438 | 112430
8 | 24:59.06 | 3:23.57 | 112431 | 127712
9 | 28:22.63 | 3:26.70 | 127713 | 143232
10 | 31:49.58 | 3:15.05 | 143233 | 157862
11 | 35:04.63 | 4:03.11 | 157863 | 176098
12 | 39:07.74 | 3:03.23 | 176099 | 189846
13 | 42:11.22 | 2:35.50 | 189847 | 201521
14 | 44:46.72 | 3:22.55 | 201522 | 216726
15 | 48:09.52 | 3:34.66 | 216727 | 232842
16 | 51:44.43 | 2:46.26 | 232843 | 245318
17 | 54:30.69 | 2:49.59 | 245319 | 258052
18 | 57:20.53 | 3:45.13 | 258053 | 274940
19 | 61:05.66 | 3:00.18 | 274941 | 288458
20 | 64:06.09 | 3:17.07 | 288459 | 303240


Track 1

Filename A:\PsPBuRnOuT's MUSIC\ROCK\ROCK AND NEW WAVE\ROCK AND NEW WAVE - CD4\01.Broken English - Comin' On Strong.wav

Peak level 76.9 %
Extraction speed 11.3 X
Track quality 100.0 %
Copy CRC 68926F82
Track not present in AccurateRip database
Copy OK

Track 2

Filename A:\PsPBuRnOuT's MUSIC\ROCK\ROCK AND NEW WAVE\ROCK AND NEW WAVE - CD4\02.David Lee Roth - A Lil' Ain't Enough.wav

Peak level 100.0 %
Extraction speed 18.7 X
Track quality 100.0 %
Copy CRC E73B8340
Track not present in AccurateRip database
Copy OK

Track 3

Filename A:\PsPBuRnOuT's MUSIC\ROCK\ROCK AND NEW WAVE\ROCK AND NEW WAVE - CD4\03.Twisted Sister - We're Not Gonna Take It.wav

Peak level 88.1 %
Extraction speed 19.5 X
Track quality 99.9 %
Copy CRC 9015068F
Track not present in AccurateRip database
Copy OK

Track 4

Filename A:\PsPBuRnOuT's MUSIC\ROCK\ROCK AND NEW WAVE\ROCK AND NEW WAVE - CD4\04.Skid Row - Youth Gone Wild.wav

Peak level 100.0 %
Extraction speed 23.2 X
Track quality 100.0 %
Copy CRC 72AF900F
Track not present in AccurateRip database
Copy OK

Track 5

Filename A:\PsPBuRnOuT's MUSIC\ROCK\ROCK AND NEW WAVE\ROCK AND NEW WAVE - CD4\05.L7 - Everglade.wav

Peak level 100.0 %
Extraction speed 21.1 X
Track quality 100.0 %
Copy CRC 8A2DBDD8
Track not present in AccurateRip database
Copy OK

Track 6

Filename A:\PsPBuRnOuT's MUSIC\ROCK\ROCK AND NEW WAVE\ROCK AND NEW WAVE - CD4\06.Mudhoney - Suck You Dry.wav

Peak level 84.3 %
Extraction speed 25.9 X
Track quality 100.0 %
Copy CRC AACEEB8D
Track not present in AccurateRip database
Copy OK

Track 7

Filename A:\PsPBuRnOuT's MUSIC\ROCK\ROCK AND NEW WAVE\ROCK AND NEW WAVE - CD4\07.Jane's Addiction - Mountain Song.wav

Peak level 78.5 %
Extraction speed 24.4 X
Track quality 100.0 %
Copy CRC 3B4EB172
Track not present in AccurateRip database
Copy OK

Track 8

Filename A:\PsPBuRnOuT's MUSIC\ROCK\ROCK AND NEW WAVE\ROCK AND NEW WAVE - CD4\08.Dinosaur Jr. - The Wagon.wav

Peak level 92.2 %
Extraction speed 13.5 X
Track quality 100.0 %
Copy CRC 92E91137
Track not present in AccurateRip database
Copy OK

Track 9

Filename A:\PsPBuRnOuT's MUSIC\ROCK\ROCK AND NEW WAVE\ROCK AND NEW WAVE - CD4\09.The Donnas - Dancing With Myself.wav

Peak level 70.7 %
Extraction speed 27.4 X
Track quality 100.0 %
Copy CRC C70DFE5F
Track not present in AccurateRip database
Copy OK

Track 10

Filename A:\PsPBuRnOuT's MUSIC\ROCK\ROCK AND NEW WAVE\ROCK AND NEW WAVE - CD4\10.Caesars - Jerk It Out.wav

Peak level 56.8 %
Extraction speed 30.1 X
Track quality 100.0 %
Copy CRC A05E30DB
Track not present in AccurateRip database
Copy OK

Track 11

Filename A:\PsPBuRnOuT's MUSIC\ROCK\ROCK AND NEW WAVE\ROCK AND NEW WAVE - CD4\11.Jonathan Richman & The Modern Lovers - Roadrunner.wav

Peak level 88.1 %
Extraction speed 27.6 X
Track quality 99.9 %
Copy CRC E1F36CFC
Track not present in AccurateRip database
Copy OK

Track 12

Filename A:\PsPBuRnOuT's MUSIC\ROCK\ROCK AND NEW WAVE\ROCK AND NEW WAVE - CD4\12.Idlewild - No Emotion.wav

Peak level 63.0 %
Extraction speed 31.5 X
Track quality 100.0 %
Copy CRC 9097343A
Track not present in AccurateRip database
Copy OK

Track 13

Filename A:\PsPBuRnOuT's MUSIC\ROCK\ROCK AND NEW WAVE\ROCK AND NEW WAVE - CD4\13.The Enemy - Had Enough.wav

Peak level 68.3 %
Extraction speed 26.5 X
Track quality 100.0 %
Copy CRC 8FB36BEB
Track not present in AccurateRip database
Copy OK

Track 14

Filename A:\PsPBuRnOuT's MUSIC\ROCK\ROCK AND NEW WAVE\ROCK AND NEW WAVE - CD4\14.The Cooper Temple Clause - Homo Sapiens.wav

Peak level 84.0 %
Extraction speed 33.2 X
Track quality 100.0 %
Copy CRC 42F43B7B
Track not present in AccurateRip database
Copy OK

Track 15

Filename A:\PsPBuRnOuT's MUSIC\ROCK\ROCK AND NEW WAVE\ROCK AND NEW WAVE - CD4\15.The Stands - Do It Like You Like.wav

Peak level 82.1 %
Extraction speed 33.5 X
Track quality 100.0 %
Copy CRC F00A4D59
Track not present in AccurateRip database
Copy OK

Track 16

Filename A:\PsPBuRnOuT's MUSIC\ROCK\ROCK AND NEW WAVE\ROCK AND NEW WAVE - CD4\16.I Am Kloot - Life In A Day.wav

Peak level 79.1 %
Extraction speed 29.3 X
Track quality 99.8 %
Copy CRC 0C3610FF
Track not present in AccurateRip database
Copy OK

Track 17

Filename A:\PsPBuRnOuT's MUSIC\ROCK\ROCK AND NEW WAVE\ROCK AND NEW WAVE - CD4\17.Super Furry Animals - Something 4 The Weekend.wav

Peak level 78.9 %
Extraction speed 30.2 X
Track quality 100.0 %
Copy CRC EAEF6E36
Track not present in AccurateRip database
Copy OK

Track 18

Filename A:\PsPBuRnOuT's MUSIC\ROCK\ROCK AND NEW WAVE\ROCK AND NEW WAVE - CD4\18.John Paul Young - Yesterday’s Hero.wav

Peak level 100.0 %
Extraction speed 9.5 X
Track quality 100.0 %
Copy CRC FE1A3486
Track not present in AccurateRip database
Copy OK

Track 19

Filename A:\PsPBuRnOuT's MUSIC\ROCK\ROCK AND NEW WAVE\ROCK AND NEW WAVE - CD4\19.Graham Bonnet - Liar.wav

Peak level 81.6 %
Extraction speed 31.3 X
Track quality 100.0 %
Copy CRC 2BECF5F0
Track not present in AccurateRip database
Copy OK

Track 20

Filename A:\PsPBuRnOuT's MUSIC\ROCK\ROCK AND NEW WAVE\ROCK AND NEW WAVE - CD4\20.Marillion - Punch And Judy.wav

Peak level 100.0 %
Extraction speed 36.8 X
Track quality 100.0 %
Copy CRC 7CACD9A8
Track not present in AccurateRip database
Copy OK


None of the tracks are present in the AccurateRip database

No errors occurred

End of status report

–– CUETools DB Plugin V2.1.6

[CTDB TOCID: gd.VhO.LLJS2WkQiI1pBG0w2iBE-] found
Submit result: gd.VhO.LLJS2WkQiI1pBG0w2iBE- has been confirmed
Track | CTDB Status
1 | (9/9) Accurately ripped
2 | (9/9) Accurately ripped
3 | (9/9) Accurately ripped
4 | (9/9) Accurately ripped
5 | (9/9) Accurately ripped
6 | (9/9) Accurately ripped
7 | (9/9) Accurately ripped
8 | (9/9) Accurately ripped
9 | (9/9) Accurately ripped
10 | (9/9) Accurately ripped
11 | (9/9) Accurately ripped
12 | (9/9) Accurately ripped
13 | (9/9) Accurately ripped
14 | (9/9) Accurately ripped
15 | (9/9) Accurately ripped
16 | (9/9) Accurately ripped
17 | (9/9) Accurately ripped
18 | (9/9) Accurately ripped
19 | (9/9) Accurately ripped
20 | (9/9) Accurately ripped

––––––––––––––––––––––––––––––––––––––––
Analyzed: Broken English / Rock And New Wave - The Ultimate Collection - CD4 (1)
Caesars / Rock And New Wave - The Ultimate Collection - CD4 (2)
David Lee Roth / Rock And New Wave - The Ultimate Collection - CD4 (3)
Dinosaur Jr. / Rock And New Wave - The Ultimate Collection - CD4 (4)
Graham Bonnet / Rock And New Wave - The Ultimate Collection - CD4 (5)
I Am Kloot / Rock And New Wave - The Ultimate Collection - CD4 (6)
Idlewild / Rock And New Wave - The Ultimate Collection - CD4 (7)
Jane's Addiction / Rock And New Wave - The Ultimate Collection - CD4 (8)
John Paul Young / Rock And New Wave - The Ultimate Collection - CD4 (9)
Jonathan Richman & The Modern Lovers / Rock And New Wave - The Ultimate Collection - CD4 (10)
L7 / Rock And New Wave - The Ultimate Collection - CD4 (11)
Marillion / Rock And New Wave - The Ultimate Collection - CD4 (12)
Mudhoney / Rock And New Wave - The Ultimate Collection - CD4 (13)
Skid Row / Rock And New Wave - The Ultimate Collection - CD4 (14)
Super Furry Animals / Rock And New Wave - The Ultimate Collection - CD4 (15)
The Cooper Temple Clause / Rock And New Wave - The Ultimate Collection - CD4 (16)
The Donnas / Rock And New Wave - The Ultimate Collection - CD4 (17)
The Enemy / Rock And New Wave - The Ultimate Collection - CD4 (18)
The Stands / Rock And New Wave - The Ultimate Collection - CD4 (19)
Twisted Sister / Rock And New Wave - The Ultimate Collection - CD4 (20)
––––––––––––––––––––––––––––––––––––––––

DR Peak RMS Duration Track
––––––––––––––––––––––––––––––––––––––––
DR8 -2.28 dB -12.26 dB 3:35 01-Comin' On Strong
DR4 -4.90 dB -9.52 dB 3:15 10-Jerk It Out
DR12 0.00 dB -12.46 dB 4:43 02-A Lil' Ain't Enough
DR8 -0.70 dB -10.89 dB 3:24 08-The Wagon
DR8 -1.76 dB -11.11 dB 3:00 19-Liar
DR7 -2.03 dB -9.91 dB 2:46 16-Life In A Day
DR5 -4.00 dB -9.68 dB 3:03 12-No Emotion
DR7 -2.10 dB -9.78 dB 4:00 07-Mountain Song
DR11 0.00 dB -12.82 dB 3:45 18-Yesterday’s Hero
DR8 -1.10 dB -9.82 dB 4:03 11-Roadrunner
DR11 0.00 dB -12.35 dB 3:16 05-Everglade
DR9 0.00 dB -10.45 dB 3:17 20-Punch And Judy
DR9 -1.48 dB -11.39 dB 2:32 06-Suck You Dry
DR10 0.00 dB -11.34 dB 3:19 04-Youth Gone Wild
DR6 -2.05 dB -10.30 dB 2:50 17-Something 4 The Weekend
DR6 -1.51 dB -8.79 dB 3:23 14-Homo Sapiens
DR5 -3.00 dB -9.09 dB 3:27 09-Dancing With Myself
DR5 -3.30 dB -9.74 dB 2:36 13-Had Enough
DR7 -1.70 dB -10.56 dB 3:35 15-Do It Like You Like
DR8 -1.10 dB -11.12 dB 3:34 03-We're Not Gonna Take It
––––––––––––––––––––––––––––––––––––––––

Number of tracks: 20
Official DR value: DR8

Samplerate: 44100 Hz
Channels: 2
Bits per sample: 16
Bitrate: 975 kbps
Codec: FLAC
================================================================================

Exact Audio Copy V1.6 from 23. October 2020

EAC extraction logfile from 13. October 2021, 0:03

Various / Rock And New Wave - The Ultimate Collection - CD5

Used drive : HL-DT-STDVDRAM GE20NU10 Adapter: 1 ID: 0

Read mode : Secure
Utilize accurate stream : Yes
Defeat audio cache : No
Make use of C2 pointers : Yes

Read offset correction : 667
Overread into Lead-In and Lead-Out : No
Fill up missing offset samples with silence : Yes
Delete leading and trailing silent blocks : No
Null samples used in CRC calculations : Yes
Used interface : Native Win32 interface for Win NT & 2000
Gap handling : Not detected, thus appended to previous track

Used output format : User Defined Encoder
Selected bitrate : 896 kBit/s
Quality : High
Add ID3 tag : No
Command line compressor : C:\Program Files (x86)\Exact Audio Copy\FLAC\FLAC.EXE
Additional command line options : -6 -V -T "ARTIST=%artist%" -T "TITLE=%title%" -T "ALBUM=%albumtitle%" -T "DATE=%year%" -T "TRACKNUMBER=%tracknr%" -T "GENRE=%genre%" -T "COMMENT=%comment%" -T "BAND=%albuminterpret%" -T "ALBUMARTIST=%albuminterpret%" -T "COMPOSER=%composer%" %haslyrics%–tag-from-file=LYRICS="%lyricsfile%"%haslyrics% -T "DISCNUMBER=%cdnumber%" -T "TOTALDISCS=%totalcds%" -T "TOTALTRACKS=%numtracks%" %hascover%–picture="%coverfile%"%hascover% %source% -o %dest%


TOC of the extracted CD

Track | Start | Length | Start sector | End sector
––––––––––––––––––––––––––––-
1 | 0:00.00 | 2:55.51 | 0 | 13175
2 | 2:55.51 | 3:22.69 | 13176 | 28394
3 | 6:18.45 | 2:40.48 | 28395 | 40442
4 | 8:59.18 | 5:09.54 | 40443 | 63671
5 | 14:08.72 | 3:05.07 | 63672 | 77553
6 | 17:14.04 | 2:51.03 | 77554 | 90381
7 | 20:05.07 | 3:34.21 | 90382 | 106452
8 | 23:39.28 | 3:23.11 | 106453 | 121688
9 | 27:02.39 | 2:56.33 | 121689 | 134921
10 | 29:58.72 | 2:57.23 | 134922 | 148219
11 | 32:56.20 | 3:02.66 | 148220 | 161935
12 | 35:59.11 | 2:44.15 | 161936 | 174250
13 | 38:43.26 | 3:25.07 | 174251 | 189632
14 | 42:08.33 | 2:42.20 | 189633 | 201802
15 | 44:50.53 | 3:26.52 | 201803 | 217304
16 | 48:17.30 | 3:50.34 | 217305 | 234588
17 | 52:07.64 | 3:00.24 | 234589 | 248112
18 | 55:08.13 | 2:31.65 | 248113 | 259502
19 | 57:40.03 | 2:55.22 | 259503 | 272649
20 | 60:35.25 | 2:58.04 | 272650 | 286003


Track 1

Filename A:\PsPBuRnOuT's MUSIC\ROCK\ROCK AND NEW WAVE\ROCK AND NEW WAVE - CD5\01.The Stranglers - No More Heroes.wav

Peak level 100.0 %
Extraction speed 10.8 X
Track quality 100.0 %
Copy CRC B3014446
Track not present in AccurateRip database
Copy OK

Track 2

Filename A:\PsPBuRnOuT's MUSIC\ROCK\ROCK AND NEW WAVE\ROCK AND NEW WAVE - CD5\02.Ian Dury & The Blockheads - What A Waste.wav

Peak level 100.0 %
Extraction speed 17.9 X
Track quality 100.0 %
Copy CRC 9B791AA3
Track not present in AccurateRip database
Copy OK

Track 3

Filename A:\PsPBuRnOuT's MUSIC\ROCK\ROCK AND NEW WAVE\ROCK AND NEW WAVE - CD5\03.The Damned - Neat Neat Neat.wav

Peak level 100.0 %
Extraction speed 21.4 X
Track quality 100.0 %
Copy CRC 0AD6AC68
Track not present in AccurateRip database
Copy OK

Track 4

Filename A:\PsPBuRnOuT's MUSIC\ROCK\ROCK AND NEW WAVE\ROCK AND NEW WAVE - CD5\04.Motorhead - Overkill.wav

Peak level 100.0 %
Extraction speed 20.6 X
Track quality 99.9 %
Copy CRC E09A48DD
Track not present in AccurateRip database
Copy OK

Track 5

Filename A:\PsPBuRnOuT's MUSIC\ROCK\ROCK AND NEW WAVE\ROCK AND NEW WAVE - CD5\05.Dead Boys - Sonic Reducer.wav

Peak level 100.0 %
Extraction speed 21.6 X
Track quality 100.0 %
Copy CRC 9433CA73
Track not present in AccurateRip database
Copy OK

Track 6

Filename A:\PsPBuRnOuT's MUSIC\ROCK\ROCK AND NEW WAVE\ROCK AND NEW WAVE - CD5\06.X‐Ray Spex - The Day The World Turned Day-Glo.wav

Peak level 92.2 %
Extraction speed 10.8 X
Track quality 100.0 %
Copy CRC 319A0DE7
Track not present in AccurateRip database
Copy OK

Track 7

Filename A:\PsPBuRnOuT's MUSIC\ROCK\ROCK AND NEW WAVE\ROCK AND NEW WAVE - CD5\07.Tom Robinson Band - Up Against The Wall.wav

Peak level 97.7 %
Extraction speed 26.6 X
Track quality 100.0 %
Copy CRC 91C4ABD3
Track not present in AccurateRip database
Copy OK

Track 8

Filename A:\PsPBuRnOuT's MUSIC\ROCK\ROCK AND NEW WAVE\ROCK AND NEW WAVE - CD5\08.Sham 69 - Hersham Boys.wav

Peak level 87.3 %
Extraction speed 24.3 X
Track quality 100.0 %
Copy CRC 45936473
Track not present in AccurateRip database
Copy OK

Track 9

Filename A:\PsPBuRnOuT's MUSIC\ROCK\ROCK AND NEW WAVE\ROCK AND NEW WAVE - CD5\09.Rich Kids - Rich Kids.wav

Peak level 100.0 %
Extraction speed 24.5 X
Track quality 100.0 %
Copy CRC 18B401F6
Track not present in AccurateRip database
Copy OK

Track 10

Filename A:\PsPBuRnOuT's MUSIC\ROCK\ROCK AND NEW WAVE\ROCK AND NEW WAVE - CD5\10.Anti-Nowhere League - Woman.wav

Peak level 73.3 %
Extraction speed 29.0 X
Track quality 100.0 %
Copy CRC 20F388B4
Track not present in AccurateRip database
Copy OK

Track 11

Filename A:\PsPBuRnOuT's MUSIC\ROCK\ROCK AND NEW WAVE\ROCK AND NEW WAVE - CD5\11.Girlschool - Hit And Run.wav

Peak level 91.8 %
Extraction speed 26.7 X
Track quality 100.0 %
Copy CRC 07DE82C8
Track not present in AccurateRip database
Copy OK

Track 12

Filename A:\PsPBuRnOuT's MUSIC\ROCK\ROCK AND NEW WAVE\ROCK AND NEW WAVE - CD5\12.Angelic Upstarts - Last Night Another Soldier.wav

Peak level 100.0 %
Extraction speed 31.6 X
Track quality 100.0 %
Copy CRC F090AE2B
Track not present in AccurateRip database
Copy OK

Track 13

Filename A:\PsPBuRnOuT's MUSIC\ROCK\ROCK AND NEW WAVE\ROCK AND NEW WAVE - CD5\13.The Fall - It's The New Thing.wav

Peak level 100.0 %
Extraction speed 27.9 X
Track quality 100.0 %
Copy CRC AB000866
Track not present in AccurateRip database
Copy OK

Track 14

Filename A:\PsPBuRnOuT's MUSIC\ROCK\ROCK AND NEW WAVE\ROCK AND NEW WAVE - CD5\14.Richard Hell & The Voidoids - Blank Generation.wav

Peak level 99.3 %
Extraction speed 33.3 X
Track quality 100.0 %
Copy CRC 6DCCC45E
Track not present in AccurateRip database
Copy OK

Track 15

Filename A:\PsPBuRnOuT's MUSIC\ROCK\ROCK AND NEW WAVE\ROCK AND NEW WAVE - CD5\15.Gang of Four - Damaged Goods.wav

Peak level 88.6 %
Extraction speed 29.4 X
Track quality 100.0 %
Copy CRC 1DE0EE45
Track not present in AccurateRip database
Copy OK

Track 16

Filename A:\PsPBuRnOuT's MUSIC\ROCK\ROCK AND NEW WAVE\ROCK AND NEW WAVE - CD5\16.New Model Army - No Rest.wav

Peak level 100.0 %
Extraction speed 35.2 X
Track quality 100.0 %
Copy CRC 252494FF
Track not present in AccurateRip database
Copy OK

Track 17

Filename A:\PsPBuRnOuT's MUSIC\ROCK\ROCK AND NEW WAVE\ROCK AND NEW WAVE - CD5\17.Bow Wow Wow - C30 C60 C90 Go.wav

Peak level 100.0 %
Extraction speed 29.4 X
Track quality 100.0 %
Copy CRC 93A15C18
Track not present in AccurateRip database
Copy OK

Track 18

Filename A:\PsPBuRnOuT's MUSIC\ROCK\ROCK AND NEW WAVE\ROCK AND NEW WAVE - CD5\18.GBH - Sick Boy.wav

Peak level 77.6 %
Extraction speed 29.2 X
Track quality 100.0 %
Copy CRC 278B351D
Track not present in AccurateRip database
Copy OK

Track 19

Filename A:\PsPBuRnOuT's MUSIC\ROCK\ROCK AND NEW WAVE\ROCK AND NEW WAVE - CD5\19.Jilted John - Jilted John.wav

Peak level 80.3 %
Extraction speed 36.7 X
Track quality 100.0 %
Copy CRC A99823F4
Track not present in AccurateRip database
Copy OK

Track 20

Filename A:\PsPBuRnOuT's MUSIC\ROCK\ROCK AND NEW WAVE\ROCK AND NEW WAVE - CD5\20.Toy Dolls - Nellie The Elephant.wav

Peak level 81.2 %
Extraction speed 32.4 X
Track quality 100.0 %
Copy CRC C17EFF08
Track not present in AccurateRip database
Copy OK


None of the tracks are present in the AccurateRip database

No errors occurred

End of status report

–– CUETools DB Plugin V2.1.6

[CTDB TOCID: z2Asia07nCh73bmulH5AonOdIgY-] found
Submit result: z2Asia07nCh73bmulH5AonOdIgY- has been confirmed
Track | CTDB Status
1 | (9/9) Accurately ripped
2 | (9/9) Accurately ripped
3 | (9/9) Accurately ripped
4 | (9/9) Accurately ripped
5 | (9/9) Accurately ripped
6 | (9/9) Accurately ripped
7 | (9/9) Accurately ripped
8 | (9/9) Accurately ripped
9 | (9/9) Accurately ripped
10 | (9/9) Accurately ripped
11 | (9/9) Accurately ripped
12 | (9/9) Accurately ripped
13 | (9/9) Accurately ripped
14 | (9/9) Accurately ripped
15 | (9/9) Accurately ripped
16 | (9/9) Accurately ripped
17 | (9/9) Accurately ripped
18 | (9/9) Accurately ripped
19 | (9/9) Accurately ripped
20 | (9/9) Accurately ripped

––––––––––––––––––––––––––––––––––––––––
Analyzed: Angelic Upstarts / Rock And New Wave - The Ultimate Collection - CD5 (1)
Anti-Nowhere League / Rock And New Wave - The Ultimate Collection - CD5 (2)
Bow Wow Wow / Rock And New Wave - The Ultimate Collection - CD5 (3)
Dead Boys / Rock And New Wave - The Ultimate Collection - CD5 (4)
Gang Of Four / Rock And New Wave - The Ultimate Collection - CD5 (5)
GBH / Rock And New Wave - The Ultimate Collection - CD5 (6)
Girlschool / Rock And New Wave - The Ultimate Collection - CD5 (7)
Ian Dury & The Blockheads / Rock And New Wave - The Ultimate Collection - CD5 (8)
Jilted John / Rock And New Wave - The Ultimate Collection - CD5 (9)
Motorhead / Rock And New Wave - The Ultimate Collection - CD5 (10)
New Model Army / Rock And New Wave - The Ultimate Collection - CD5 (11)
Rich Kids / Rock And New Wave - The Ultimate Collection - CD5 (12)
Richard Hell & The Voidoids / Rock And New Wave - The Ultimate Collection - CD5 (13)
Sham 69 / Rock And New Wave - The Ultimate Collection - CD5 (14)
The Damned / Rock And New Wave - The Ultimate Collection - CD5 (15)
The Fall / Rock And New Wave - The Ultimate Collection - CD5 (16)
The Stranglers / Rock And New Wave - The Ultimate Collection - CD5 (17)
Tom Robinson Band / Rock And New Wave - The Ultimate Collection - CD5 (18)
Toy Dolls / Rock And New Wave - The Ultimate Collection - CD5 (19)
X‐Ray Spex / Rock And New Wave - The Ultimate Collection - CD5 (20)
––––––––––––––––––––––––––––––––––––––––

DR Peak RMS Duration Track
––––––––––––––––––––––––––––––––––––––––
DR9 0.00 dB -11.08 dB 2:44 12-Last Night Another Soldier
DR7 -2.70 dB -11.47 dB 2:57 10-Woman
DR9 0.00 dB -10.49 dB 3:00 17-C30 C60 C90 Go
DR9 0.00 dB -10.51 dB 3:05 05-Sonic Reducer
DR9 -1.05 dB -11.97 dB 3:27 15-Damaged Goods
DR6 -2.20 dB -8.59 dB 2:32 18-Sick Boy
DR9 -0.74 dB -10.12 dB 3:03 11-Hit And Run
DR9 0.00 dB -11.45 dB 3:23 02-What A Waste
DR7 -1.90 dB -10.37 dB 2:55 19-Jilted John
DR9 0.00 dB -10.44 dB 5:10 04-Overkill
DR10 0.00 dB -11.47 dB 3:50 16-No Rest
DR10 0.00 dB -10.58 dB 2:56 09-Rich Kids
DR9 -0.06 dB -10.29 dB 2:42 14-Blank Generation
DR8 -1.18 dB -10.61 dB 3:23 08-Hersham Boys
DR10 0.00 dB -11.09 dB 2:41 03-Neat Neat Neat
DR9 0.00 dB -10.42 dB 3:25 13-It's The New Thing
DR10 0.00 dB -11.07 dB 2:56 01-No More Heroes
DR8 -0.20 dB -9.33 dB 3:34 07-Up Against The Wall
DR7 -1.80 dB -12.18 dB 2:58 20-Nellie The Elephant
DR8 -0.70 dB -10.02 dB 2:51 06-The Day The World Turned Day-Glo
––––––––––––––––––––––––––––––––––––––––

Number of tracks: 20
Official DR value: DR9

Samplerate: 44100 Hz
Channels: 2
Bits per sample: 16
Bitrate: 1014 kbps
Codec: FLAC
================================================================================

Thanks to PsPBuRnOuT

♫~Welcome To My Blog~♫

password: BlondStyle