Tags
Language
Tags

Aretha Franklin - Aretha In Paris: Recorded Live At The Olympia Theatre (1968) [1994, Remastered Reissue]

Posted By: BlondStyle
Aretha Franklin - Aretha In Paris: Recorded Live At The Olympia Theatre (1968) [1994, Remastered Reissue]

Aretha Franklin - Aretha In Paris: Recorded Live At The Olympia Theatre (1968) [1994, Remastered Reissue]
R&B, Soul, Deep Soul, Live | EAC Rip | FLAC, Img+CUE+LOG+Scans (PNG) | 41:06 | 435,59 Mb
Label: Rhino Records Inc. (US) | Cat.# R2 71852 | Released: 1994-12-13 (1968-10-12)
Aretha Franklin - Aretha In Paris: Recorded Live At The Olympia Theatre (1968) [1994, Remastered Reissue]

"Aretha In Paris" is the 2nd live album by American singer Aretha Franklin, Released on October 12, 1968, by Atlantic Records. The album was recorded in Paris on May 7, 1968. It reached the Top 20 of Billboard's album chart. This recording was reissued on compact disc through Rhino Records in the 1990s.
~Wikipedia

Aretha Franklin - Aretha In Paris: Recorded Live At The Olympia Theatre (1968) [1994, Remastered Reissue]

Atlantic's Jerry Wexler once said that this concert album was an embarrassment to him, criticizing the inferior band (actually they're the musicians who usually accompanied Aretha Franklin live in the late '60s). It isn't that bad; composed of her first few big singles and cuts from her first three albums, it doesn't match the classic studio versions and could be considered her least essential '60s Atlantic LP. That's not to say, though, that it doesn't sound pretty good, with fine if basic readings of a lot of her most popular late-'60s material, although the horns fall distressingly out of tune at a key point in the instrumental break of "Chain of Fools."
~Wikipedia

Aretha Franklin - Aretha In Paris: Recorded Live At The Olympia Theatre (1968) [1994, Remastered Reissue]

Aretha Franklin - Aretha In Paris: Recorded Live At The Olympia Theatre (1968) [1994, Remastered Reissue]




Release of the album: 1968, October, 12 [LP Atlantic Records, Cat.# SD 8207, USA]
Release of this CD: 1994, December, 13 [CD Rhino Records Inc. (US), Cat.# R2 71852 / UPC: 081227185220]
This Reissue © 1968 & 1994 Atlantic Recording Corporation.
Manufactured & Distributed by Rhino Records Inc.
Printed in the U.S.A.


Credits:

Backing Vocals – Carolyn Franklin, Charnessa Jones, Wyline Ivey
Conductor – Donald Townes
Design [Album Design] – Haig Adishian
Engineer [Recording] – Jean-Michel Poudubois
Photography By [Cover] – Jim Cummins
Producer [Production Associate] – Bernard De Bosson, Frank Fenter
Recording Supervisor – Jerry Wexler


Tracklist:

01. (I Can't Get No) Satisfaction (02:17)
(Mick Jagger, Keith Richards)
02. Don't Let Me Lose This Dream (02:20)
(Aretha Franklin, Teddy White)
03. Soul Serenade (03:15)
(Luther Dixon, Curtis Ousley)
04. Night Life (04:05)
(Willie Nelson, Walt Breeland, Paul Buskirk)
05. Baby, I Love You (02:46)
(Jimmy Holiday, Ronnie Shannon)
06. Groovin' (03:12)
(Eddie Brigati, Felix Cavaliere)
07. (You Make Me Feel Like) A Natural Woman (03:36)
(Carole King, Gerry Goffin, Jerry Wexler)
08. Come Back Baby (03:04)
(Ray Charles)
09. Dr. Feelgood (Love Is a Serious Business) (04:13)
(Aretha Franklin, Teddy White)
10. Since You've Been Gone (Sweet Sweet Baby) (02:27)
(Aretha Franklin, Teddy White)
11. I Never Loved A Man (The Way I Love You) (03:55)
(Ronnie Shannon)
12. Chain Of Fools (02:52)
(Don Covay)
13. Respect (03:06)
(Otis Redding)

Exact Audio Copy V1.3 from 2. September 2016

EAC extraction logfile from 21. October 2020, 19:33

Aretha Franklin / Aretha In Paris

Used drive : PIONEER BD-RW BDR-208D Adapter: 1 ID: 0

Read mode : Secure
Utilize accurate stream : Yes
Defeat audio cache : Yes
Make use of C2 pointers : No

Read offset correction : 667
Overread into Lead-In and Lead-Out : No
Fill up missing offset samples with silence : Yes
Delete leading and trailing silent blocks : No
Null samples used in CRC calculations : Yes
Used interface : Native Win32 interface for Win NT & 2000

Used output format : Internal WAV Routines
Sample format : 44.100 Hz; 16 Bit; Stereo


TOC of the extracted CD

Track | Start | Length | Start sector | End sector
––––––––––––––––––––––––––––-
1 | 0:00.32 | 2:16.45 | 32 | 10276
2 | 2:17.02 | 2:19.58 | 10277 | 20759
3 | 4:36.60 | 3:15.15 | 20760 | 35399
4 | 7:52.00 | 4:04.67 | 35400 | 53766
5 | 11:56.67 | 2:45.40 | 53767 | 66181
6 | 14:42.32 | 3:12.00 | 66182 | 80581
7 | 17:54.32 | 3:35.40 | 80582 | 96746
8 | 21:29.72 | 3:04.20 | 96747 | 110566
9 | 24:34.17 | 4:12.68 | 110567 | 129534
10 | 28:47.10 | 2:26.55 | 129535 | 140539
11 | 31:13.65 | 3:54.52 | 140540 | 158141
12 | 35:08.42 | 2:52.05 | 158142 | 171046
13 | 38:00.47 | 3:05.70 | 171047 | 184991


Range status and errors

Selected range

Filename D:\BlondStyle\Aretha Franklin - Aretha In Paris.wav

Peak level 97.2 %
Extraction speed 6.5 X
Range quality 100.0 %
Test CRC 8685FE94
Copy CRC 8685FE94
Copy OK

No errors occurred


AccurateRip summary

Track 1 accurately ripped (confidence 2) [454D3D35] (AR v2)
Track 2 accurately ripped (confidence 2) [2E83DCE1] (AR v2)
Track 3 accurately ripped (confidence 2) [AB79DAC9] (AR v2)
Track 4 accurately ripped (confidence 2) [4BCB4739] (AR v2)
Track 5 accurately ripped (confidence 2) [846E9C63] (AR v2)
Track 6 accurately ripped (confidence 2) [4274471D] (AR v2)
Track 7 accurately ripped (confidence 2) [6F446C6E] (AR v2)
Track 8 accurately ripped (confidence 2) [BBF19817] (AR v2)
Track 9 accurately ripped (confidence 2) [37DE2C69] (AR v2)
Track 10 accurately ripped (confidence 2) [57B7A9F3] (AR v2)
Track 11 accurately ripped (confidence 2) [297F855D] (AR v2)
Track 12 accurately ripped (confidence 2) [E72C973B] (AR v2)
Track 13 accurately ripped (confidence 2) [A80E6FAE] (AR v2)

All tracks accurately ripped

End of status report

–– CUETools DB Plugin V2.1.6

[CTDB TOCID: Yq87uwhLi2OM4V7YYxuZGi_7.bc-] found
Submit result: Yq87uwhLi2OM4V7YYxuZGi_7.bc- has been confirmed
Track | CTDB Status
1 | (17/20) Accurately ripped, or (3/20) differs in 1 samples @02:09:28
2 | (17/20) Accurately ripped, or (3/20) differs in 1 samples @02:09:64
3 | (17/20) Accurately ripped, or (3/20) differs in 1 samples @00:08:49
4 | (17/20) Accurately ripped, or (3/20) differs in 5 samples @00:19:46,00:54:38,01:12:29,02:01:04,03:42:39
5 | (17/20) Accurately ripped, or (3/20) differs in 1 samples @02:41:35
6 | (17/20) Accurately ripped, or (3/20) differs in 6 samples @00:09:52,00:37:43,01:27:57,01:40:51,02:00:61,02:07:38
7 | (17/20) Accurately ripped, or (3/20) differs in 4 samples @01:06:19,01:56:33,02:42:31,02:45:33
8 | (17/20) Accurately ripped, or (3/20) differs in 4 samples @01:02:07,01:04:42,01:23:48,02:32:74
9 | (17/20) Accurately ripped, or (3/20) differs in 2 samples @00:38:25,02:01:31
10 | (17/20) Accurately ripped, or (3/20) differs in 3 samples @00:18:73,00:23:72,02:12:04
11 | (17/20) Accurately ripped, or (3/20) differs in 3 samples @01:50:69,02:12:07,03:27:40
12 | (17/20) Accurately ripped, or (3/20) differs in 3 samples @01:28:28,02:11:33,02:31:37
13 | (17/20) Accurately ripped, or (3/20) differs in 2 samples @02:35:02,02:47:31


==== Log checksum 8058BC146113D5642EE7E74B8A6B7720D9FE2D7D5FB6698A415ABAEB653BF1EC ====

––––––––––––––––––––––––––––––––––––––––
Analyzed: Aretha Franklin / Aretha In Paris
––––––––––––––––––––––––––––––––––––––––

DR Peak RMS Duration Track
––––––––––––––––––––––––––––––––––––––––
DR9 -0.24 dB -10.90 dB 2:17 01-(I Can't Get No) Satisfaction
DR9 -0.24 dB -10.70 dB 2:20 02-Don't Let Me Lose This Dream
DR9 -0.24 dB -12.20 dB 3:15 03-Soul Serenade
DR9 -0.24 dB -13.40 dB 4:05 04-Night Life
DR10 -0.24 dB -11.91 dB 2:46 05-Baby, I Love You
DR10 -0.24 dB -13.07 dB 3:12 06-Groovin'
DR10 -0.24 dB -13.02 dB 3:36 07-(You Make Me Feel Like) A Natural Woman
DR8 -0.24 dB -9.64 dB 3:04 08-Come Back Baby
DR10 -0.24 dB -13.24 dB 4:13 09-Dr. Feelgood (Love Is a Serious Business)
DR8 -0.24 dB -10.12 dB 2:27 10-Since You've Been Gone (Sweet Sweet Baby)
DR9 -0.24 dB -11.68 dB 3:55 11-I Never Loved A Man (The Way I Love You)
DR9 -0.24 dB -10.54 dB 2:52 12-Chain Of Fools
DR8 -0.24 dB -9.26 dB 3:06 13-Respect
––––––––––––––––––––––––––––––––––––––––

Number of tracks: 13
Official DR value: DR9

Samplerate: 44100 Hz
Channels: 2
Bits per sample: 16
Bitrate: 949 kbps
Codec: FLAC
================================================================================

See also:

♫~Welcome To My Blog~♫

password: BlondStyle