Tags
Language
Tags

Aretha Franklin - Aretha - Live At Fillmore West (1971) [1985, Remastered Reissue] {Japan}

Posted By: BlondStyle
Aretha Franklin - Aretha - Live At Fillmore West (1971) [1985, Remastered Reissue] {Japan}

Aretha Franklin - Aretha - Live At Fillmore West (1971) [1985, Remastered Reissue] {Japan}
R&B, Soul, Blues, Deep Soul, Live | EAC Rip | FLAC, Img+CUE+LOG+Scans (PNG) | 48:10 | 367,05 Mb
Label: Mobile Fidelity Sound Lab (USA) | Cat.# MFCD 820 | Released: 1985 (1971-05-19)
Aretha Franklin - Aretha - Live At Fillmore West (1971) [1985, Remastered Reissue] {Japan}

"Aretha - Live at Fillmore West" is a live album by American singer Aretha Franklin released on May 19, 1971 by Atlantic Records. Franklin played a Fender Rhodes piano on four cuts, including "Eleanor Rigby", "Spirit in the Dark", "Don't Play That Song" and "Dr. Feelgood". Backing Franklin was King Curtis' band, the Kingpins, featuring Cornell Dupree on guitar, Bernard Purdie on drums, and Jerry Jemmott on bass, Billy Preston on organ, King Curtis on saxophone, together with the Memphis Horns. In addition, there is a guest duet vocal by Ray Charles on "Spirit in the Dark". The album reached #1 on the Billboard R&B album chart on June 19, 1971.
~Wikipedia

Aretha Franklin - Aretha - Live At Fillmore West (1971) [1985, Remastered Reissue] {Japan}

The original LP was a double, and for good reason. Franklin used King Curtis' band, the Kingpins, for these dates - after being persuaded by producer Jerry Wexler - in lieu of her regular road band. It was a solid call on Wexler's part. The music here sparkles and crackles with the energy of a top-flight rhythm section - Cornell Dupree on guitar, Bernard Purdie on drums, and Jerry Jemmott on bass, with Billy Preston on organ, Curtis on saxophone, and the Memphis Horns. The backing vocals were provided by Franklin's own crew, the Sweethearts of Soul (Brenda Bryant, Margaret Branch, and Pat Smith). Whew! Franklin also plays a Fender Rhodes on four cuts, including "Eleanor Rigby," "Spirit in the Dark," "Don't Play That Song," and "Dr. Feelgood." In addition, there is a guest duet vocal by Ray Charles on "Spirit in the Dark." Beginning with "Respect" (a house-burning tear-up read), Franklin then digs deep into her pop song bag of tricks for "Bridge Over Troubled Water" and Stephen Stills' "Love the One You're With," and also redeems Bread's saccharine "Make It with You" - all of them in the first set! The second set contains the originals "Spirit in the Dark," including a long reprise with Charles, and "Dr. Feelgood." The album-ending "Reach Out and Touch (Somebody's Hand)," written by Ashford & Simpson, is a scorched-earth soul ballad that unites the entire crowd. The bonus material is just as righteous, with unused cuts such as "Call Me," "Mixed-Up Girl," "Share Your Love with Me," and "You're All I Need to Get By." The disc is filled out with alternate takes of nine album cuts that easily could have been included on the released version. In sum, it makes for the most dramatic and deeply satisfying of Aretha Franklin's live recordings, and is a historical document that every soul fan should own - especially as a new and much improved package with great liner notes by David Nathan.
~Review by Thom Jurek

Aretha Franklin - Aretha - Live At Fillmore West (1971) [1985, Remastered Reissue] {Japan}

Aretha Franklin - Aretha - Live At Fillmore West (1971) [1985, Remastered Reissue] {Japan}


Release of the album: 1971, May, 19 [LP Atlantic, Cat.# SD 7205, USA]
Release of this CD: 1985 [CD Mobile Fidelity Sound Lab (USA), Cat.# MFCD 820 / No barcode]
Produced and distributed by MFSL, Inc., under license from Atlantic Recording Corporation, Inc.
©&℗ 1971 Atlantic Recording Corporation, Inc.
Manufactured by Sanyo, Japan.
Printed/Made in Japan


Notes: Tray paperwork spine has a miss-spelling of Aretha as "Arehta".

Credits:

Backing Vocals – The Sweethearts Of Soul
Bass – Jerry Jemmott
Congas – Pancho Morales
Drums – Bernard Purdie
Engineer [Remix] – Arif Mardin
Guitar – Cornell Dupree
Horns – The Memphis Horns
Mastered By [Remastered] – Bill Inglot
Organ – Billy Preston
Producer – Arif Mardin, Jerry Wexler
Recorded By – Ray Thompson
Saxophone [Tenor, Soprano] – King Curtis
Vocals – Aretha Franklin


Tracklist:

01. Respect (03:55)
(Otis Redding)
02. Love The One You're With (04:20)
(Stephen Stills)
03. Bridge Over Troubled Water (05:43)
(Paul Simon)
04. Eleanor Rigby (02:40)
(John Lennon, Paul McCartney)
05. Make It With You (04:32)
(David Gates)
06. Don't Play That Song (03:19)
(Ahmet Ertegün, Betty Nelson)
07. Dr. Feelgood (07:02)
(Aretha Franklin, Ted White)
08. Spirit In The Dark (04:44)
(Aretha Franklin)
09. Spirit In The Dark (Reprise with Ray Charles) (09:00)
(Aretha Franklin)
10. Reach Out And Touch (Somebody's Hand) (02:55)
(Nickolas Ashford, Valerie Simpson)

Recorded live at Fillmore West, San Francisco: February 5, 1971 (tracks 1-7) & February 7, 1971 (tracks 8-10)

Exact Audio Copy V1.3 from 2. September 2016

EAC extraction logfile from 18. October 2021, 19:55

Aretha Franklin / Aretha - Live At Fillmore West

Used drive : PIONEER BD-RW BDR-208D Adapter: 1 ID: 0

Read mode : Secure
Utilize accurate stream : Yes
Defeat audio cache : Yes
Make use of C2 pointers : No

Read offset correction : 667
Overread into Lead-In and Lead-Out : No
Fill up missing offset samples with silence : Yes
Delete leading and trailing silent blocks : No
Null samples used in CRC calculations : Yes
Used interface : Native Win32 interface for Win NT & 2000

Used output format : Internal WAV Routines
Sample format : 44.100 Hz; 16 Bit; Stereo


TOC of the extracted CD

Track | Start | Length | Start sector | End sector
––––––––––––––––––––––––––––-
1 | 0:00.00 | 3:55.10 | 0 | 17634
2 | 3:55.10 | 4:20.02 | 17635 | 37136
3 | 8:15.12 | 5:42.73 | 37137 | 62859
4 | 13:58.10 | 2:40.00 | 62860 | 74859
5 | 16:38.10 | 4:32.00 | 74860 | 95259
6 | 21:10.10 | 3:19.37 | 95260 | 110221
7 | 24:29.47 | 7:02.15 | 110222 | 141886
8 | 31:31.62 | 4:43.48 | 141887 | 163159
9 | 36:15.35 | 9:00.00 | 163160 | 203659
10 | 45:15.35 | 2:54.62 | 203660 | 216771


Range status and errors

Selected range

Filename D:\BlondStyle\Aretha Franklin - Aretha - Live At Fillmore West.wav

Peak level 61.7 %
Extraction speed 6.6 X
Range quality 100.0 %
Test CRC 2FE2051F
Copy CRC 2FE2051F
Copy OK

No errors occurred


AccurateRip summary

Track 1 accurately ripped (confidence 9) [4AE7222A] (AR v2)
Track 2 accurately ripped (confidence 9) [B422A5EF] (AR v2)
Track 3 accurately ripped (confidence 9) [506CB5DD] (AR v2)
Track 4 accurately ripped (confidence 9) [B5483500] (AR v2)
Track 5 accurately ripped (confidence 9) [98477D75] (AR v2)
Track 6 accurately ripped (confidence 9) [A71CACD7] (AR v2)
Track 7 accurately ripped (confidence 9) [3A8C19D7] (AR v2)
Track 8 accurately ripped (confidence 9) [4ADC17B1] (AR v2)
Track 9 accurately ripped (confidence 9) [85E9F25C] (AR v2)
Track 10 accurately ripped (confidence 9) [1C87A18B] (AR v2)

All tracks accurately ripped

End of status report

–– CUETools DB Plugin V2.1.6

[CTDB TOCID: Ri.J2PCFtAxUs_bn22iSE.tPVHo-] found
Submit result: Ri.J2PCFtAxUs_bn22iSE.tPVHo- has been confirmed
Track | CTDB Status
1 | (46/47) Accurately ripped
2 | (45/47) Accurately ripped
3 | (46/47) Accurately ripped
4 | (46/47) Accurately ripped
5 | (46/47) Accurately ripped
6 | (46/47) Accurately ripped
7 | (46/47) Accurately ripped
8 | (46/47) Accurately ripped
9 | (45/47) Accurately ripped
10 | (46/47) Accurately ripped


==== Log checksum 426B2AC632717B11D992DEF2E3A75127B4841FC59C9516E2A21020562F181915 ====

––––––––––––––––––––––––––––––––––––––––
Analyzed: Aretha Franklin / Aretha - Live At Fillmore West
––––––––––––––––––––––––––––––––––––––––

DR Peak RMS Duration Track
––––––––––––––––––––––––––––––––––––––––
DR12 -4.57 dB -20.00 dB 3:55 01-Respect
DR12 -5.84 dB -20.87 dB 4:20 02-Love The One You're With
DR11 -4.19 dB -20.02 dB 5:43 03-Bridge Over Troubled Water
DR12 -5.16 dB -20.07 dB 2:40 04-Eleanor Rigby
DR11 -6.15 dB -21.00 dB 4:32 05-Make It With You
DR11 -5.34 dB -19.32 dB 3:19 06-Don't Play That Song
DR13 -5.28 dB -23.41 dB 7:02 07-Dr. Feelgood
DR12 -5.40 dB -20.06 dB 4:44 08-Spirit In The Dark
DR11 -4.69 dB -19.36 dB 9:00 09-Spirit In The Dark (Reprise with Ray Charles)
DR12 -7.21 dB -22.90 dB 2:55 10-Reach Out And Touch (Somebody's Hand)
––––––––––––––––––––––––––––––––––––––––

Number of tracks: 10
Official DR value: DR12

Samplerate: 44100 Hz
Channels: 2
Bits per sample: 16
Bitrate: 768 kbps
Codec: FLAC
================================================================================

See also:

♫~Welcome To My Blog~♫

password: BlondStyle